999
DXF file: NDA-3081-CND.dxf
999
Pro/ENGINEER 2021072 by Parametric Technology Corporation
  0
SECTION
  2
HEADER
  9
$ACADVER
  1
AC1024
  9
$DWGCODEPAGE
  3
ANSI_1252
  9
$EXTMAX
 10
420.0
 20
297.0
 30
0.0
  9
$EXTMIN
 10
0.0
 20
-0.0
 30
0.0
  9
$LIMMIN
 10
0.0
 20
-0.0
  9
$LIMMAX
 10
420.0
 20
297.0
  9
$VIEWCTR
 10
210.0
 20
148.5
  9
$VIEWSIZE
 40
297.0
  9
$CLAYER
  8
0
  9
$LTSCALE
 40
23.1
  9
$CELTYPE
  6
BYLAYER
  9
$DIMSCALE
 40
1.0
  9
$DIMASZ
 40
4.2
  9
$DIMEXO
 40
1.0
  9
$DIMDLI
 40
15.96
  9
$DIMEXE
 40
1.0
  9
$DIMCEN
 40
3.78
  9
$DIMLFAC
 40
1.0
  9
$DIMBLK
  1
_FILLED
  9
$DIMALT
 70
1
  9
$DIMALTD
 70
1
  9
$DIMALTTD
 70
2
  9
$DIMALTF
 40
0.0393700787
  9
$DIMTXT
 40
5.0
  9
$DIMTOL
 70
1
  9
$DIMLIM
 70
0
  9
$DIMTFAC
 40
1.0
  9
$DIMTP
 40
0.01
  9
$DIMTM
 40
0.01
  9
$DIMGAP
 40
0.625
  9
$DIMDSEP
 70
46
  9
$AUNITS
 70
0
  9
$PDMODE
 70
3
  9
$PDSIZE
 40
0.3125
  9
$HANDSEED
  5
4D0
  9
$TILEMODE
 70
1
  9
$MEASUREMENT
 70
1
  9
$INSUNITS
 70
4
  0
ENDSEC
  0
SECTION
  2
CLASSES
  0
CLASS
  1
ACDBDICTIONARYWDFLT
  2
AcDbDictionaryWithDefault
  3
AutoCAD 2000
 90
0
 91
1
280
0
281
0
  0
CLASS
  1
ACDBPLACEHOLDER
  2
AcDbPlaceHolder
  3
AutoCAD 2000
 90
0
 91
1
280
0
281
0
  0
CLASS
  1
LAYOUT
  2
AcDbLayout
  3
AutoCAD 2000
 90
0
 91
0
280
0
281
0
  0
ENDSEC
  0
SECTION
  2
TABLES
  0
TABLE
  2
VPORT
  5
8
100
AcDbSymbolTable
 70
2
  0
VPORT
  5
1F4
100
AcDbSymbolTableRecord
100
AcDbViewportTableRecord
  2
*ACTIVE
 70
0
 10
0.0
 20
0.0
 11
1.0
 21
1.0
 12
210.0
 22
148.5
 13
0.0
 23
0.0
 14
1.0
 24
1.0
 15
0.0
 25
0.0
 16
0.0
 26
0.0
 36
1.0
 17
0.0
 27
0.0
 37
0.0
 40
297.0
 41
1.4141414141
 42
50.0
 43
0.0
 44
0.0
 50
0.0
 51
0.0
 71
0
 72
100
 73
1
 74
1
 75
0
 76
0
 77
0
 78
0
  0
ENDTAB
  0
TABLE
  2
LTYPE
  5
5
100
AcDbSymbolTable
 70
6
  0
LTYPE
  5
14
100
AcDbSymbolTableRecord
100
AcDbLinetypeTableRecord
  2
BYBLOCK
 70
0
  3

 72
65
 73
0
 40
0.0
  0
LTYPE
  5
15
100
AcDbSymbolTableRecord
100
AcDbLinetypeTableRecord
  2
BYLAYER
 70
0
  3

 72
65
 73
0
 40
0.0
  0
LTYPE
  5
16
100
AcDbSymbolTableRecord
100
AcDbLinetypeTableRecord
  2
CONTINUOUS
 70
64
  3
Solid line
 72
65
 73
0
 40
0.0
  0
LTYPE
  5
1F5
100
AcDbSymbolTableRecord
100
AcDbLinetypeTableRecord
  2
CENTER
 70
64
  3
____ _ ____ _ ____ _ ____ _ ____ _ ____ _ ____
 72
65
 73
4
 40
0.6
 49
0.375
 74
0
 49
-0.075
 74
0
 49
0.075
 74
0
 49
-0.075
 74
0
  0
LTYPE
  5
1F6
100
AcDbSymbolTableRecord
100
AcDbLinetypeTableRecord
  2
HIDDEN
 70
64
  3
- - - - - - - - - - - - - - - - - - - -
 72
65
 73
2
 40
0.2
 49
0.1
 74
0
 49
-0.1
 74
0
  0
LTYPE
  5
1F7
100
AcDbSymbolTableRecord
100
AcDbLinetypeTableRecord
  2
PHANTOM
 70
64
  3
_____ _ _ _____ _ _ _____ _ _ _____
 72
65
 73
6
 40
0.8
 49
0.45
 74
0
 49
-0.05
 74
0
 49
0.1
 74
0
 49
-0.05
 74
0
 49
0.1
 74
0
 49
-0.05
 74
0
  0
LTYPE
  5
1F8
100
AcDbSymbolTableRecord
100
AcDbLinetypeTableRecord
  2
DOT
 70
64
  3
. . . . . . . . . . . . . . . . . . . .
 72
65
 73
2
 40
0.2
 49
0.1
 74
0
 49
-0.1
 74
0
  0
LTYPE
  5
1F9
100
AcDbSymbolTableRecord
100
AcDbLinetypeTableRecord
  2
DASHED
 70
64
  3
- - - - - - - - - - - - - - - - - - - -
 72
65
 73
2
 40
0.2
 49
0.1
 74
0
 49
-0.1
 74
0
  0
ENDTAB
  0
TABLE
  2
LAYER
  5
2
100
AcDbSymbolTable
 70
36
  0
LAYER
  5
10
100
AcDbSymbolTableRecord
100
AcDbLayerTableRecord
  2
0
 70
0
 62
7
  6
CONTINUOUS
370
-3
390
F
  0
LAYER
  5
1FA
100
AcDbSymbolTableRecord
100
AcDbLayerTableRecord
  2
DEFAULT_1
 70
0
 62
7
  6
CENTER
370
-3
390
F
  0
LAYER
  5
1FB
100
AcDbSymbolTableRecord
100
AcDbLayerTableRecord
  2
DEFAULT_2
 70
0
 62
8
  6
HIDDEN
370
-3
390
F
  0
LAYER
  5
1FC
100
AcDbSymbolTableRecord
100
AcDbLayerTableRecord
  2
DEFAULT_3
 70
0
 62
7
  6
PHANTOM
370
-3
390
F
  0
LAYER
  5
1FD
100
AcDbSymbolTableRecord
100
AcDbLayerTableRecord
  2
10_ALL_FEATURES
 70
0
 62
7
  6
CONTINUOUS
370
-3
390
F
  0
LAYER
  5
1FE
100
AcDbSymbolTableRecord
100
AcDbLayerTableRecord
  2
1_ALL_PLANES
 70
0
 62
7
  6
CONTINUOUS
370
-3
390
F
  0
LAYER
  5
1FF
100
AcDbSymbolTableRecord
100
AcDbLayerTableRecord
  2
1__DEF_ASM_PLN
 70
0
 62
7
  6
CONTINUOUS
370
-3
390
F
  0
LAYER
  5
200
100
AcDbSymbolTableRecord
100
AcDbLayerTableRecord
  2
1__DEF_PLANES
 70
0
 62
7
  6
CONTINUOUS
370
-3
390
F
  0
LAYER
  5
201
100
AcDbSymbolTableRecord
100
AcDbLayerTableRecord
  2
2_ALL_CSYS
 70
0
 62
7
  6
CONTINUOUS
370
-3
390
F
  0
LAYER
  5
202
100
AcDbSymbolTableRecord
100
AcDbLayerTableRecord
  2
2__DEF_ASM_CSYS
 70
0
 62
7
  6
CONTINUOUS
370
-3
390
F
  0
LAYER
  5
203
100
AcDbSymbolTableRecord
100
AcDbLayerTableRecord
  2
2__DEF_CSYS
 70
0
 62
7
  6
CONTINUOUS
370
-3
390
F
  0
LAYER
  5
204
100
AcDbSymbolTableRecord
100
AcDbLayerTableRecord
  2
3_ALL_AXES
 70
0
 62
7
  6
CONTINUOUS
370
-3
390
F
  0
LAYER
  5
205
100
AcDbSymbolTableRecord
100
AcDbLayerTableRecord
  2
4_ALL_POINTS
 70
0
 62
7
  6
CONTINUOUS
370
-3
390
F
  0
LAYER
  5
206
100
AcDbSymbolTableRecord
100
AcDbLayerTableRecord
  2
5_ALL_CURVES
 70
0
 62
7
  6
CONTINUOUS
370
-3
390
F
  0
LAYER
  5
207
100
AcDbSymbolTableRecord
100
AcDbLayerTableRecord
  2
5_DEFAULT_CSYS
 70
0
 62
7
  6
CONTINUOUS
370
-3
390
F
  0
LAYER
  5
208
100
AcDbSymbolTableRecord
100
AcDbLayerTableRecord
  2
6_ALL_SURFS
 70
0
 62
7
  6
CONTINUOUS
370
-3
390
F
  0
LAYER
  5
209
100
AcDbSymbolTableRecord
100
AcDbLayerTableRecord
  2
7_ALL_FEATURES
 70
0
 62
7
  6
CONTINUOUS
370
-3
390
F
  0
LAYER
  5
20A
100
AcDbSymbolTableRecord
100
AcDbLayerTableRecord
  2
8_ALL_CURVES
 70
0
 62
7
  6
CONTINUOUS
370
-3
390
F
  0
LAYER
  5
20B
100
AcDbSymbolTableRecord
100
AcDbLayerTableRecord
  2
ASSEM_MEMBER
 70
0
 62
7
  6
CONTINUOUS
370
-3
390
F
  0
LAYER
  5
20C
100
AcDbSymbolTableRecord
100
AcDbLayerTableRecord
  2
ASSEM_MEMBER_10
 70
0
 62
7
  6
CONTINUOUS
370
-3
390
F
  0
LAYER
  5
20D
100
AcDbSymbolTableRecord
100
AcDbLayerTableRecord
  2
ASSEM_MEMBER_2
 70
0
 62
7
  6
CONTINUOUS
370
-3
390
F
  0
LAYER
  5
20E
100
AcDbSymbolTableRecord
100
AcDbLayerTableRecord
  2
ASSEM_MEMBER_9
 70
0
 62
7
  6
CONTINUOUS
370
-3
390
F
  0
LAYER
  5
20F
100
AcDbSymbolTableRecord
100
AcDbLayerTableRecord
  2
COLOR15
 70
0
 62
7
  6
CONTINUOUS
370
-3
390
F
  0
LAYER
  5
210
100
AcDbSymbolTableRecord
100
AcDbLayerTableRecord
  2
SOLID_GEOM
 70
0
 62
7
  6
CONTINUOUS
370
-3
390
F
  0
ENDTAB
  0
TABLE
  2
STYLE
  5
3
100
AcDbSymbolTable
 70
1
  0
STYLE
  5
11
100
AcDbSymbolTableRecord
100
AcDbTextStyleTableRecord
  2
STANDARD
 70
0
 40
0.0
 41
0.8
 50
0.0
 71
0
 42
0.2
  3
txt
  4

  0
STYLE
  5
211
100
AcDbSymbolTableRecord
100
AcDbTextStyleTableRecord
  2
TEXTSTYLE_1
 70
0
 40
0.0
 41
0.8
 50
0.0
 71
0
 42
0.2
  3
gdt
  4

  0
ENDTAB
  0
TABLE
  2
VIEW
  5
6
100
AcDbSymbolTable
 70
0
  0
ENDTAB
  0
TABLE
  2
UCS
  5
7
100
AcDbSymbolTable
 70
0
  0
ENDTAB
  0
TABLE
  2
APPID
  5
9
100
AcDbSymbolTable
 70
1
  0
APPID
  5
212
100
AcDbSymbolTableRecord
100
AcDbRegAppTableRecord
  2
ACAD
 70
0
  0
ENDTAB
  0
TABLE
  2
BLOCK_RECORD
  5
1
100
AcDbSymbolTable
 70
0
  0
BLOCK_RECORD
  5
213
100
AcDbSymbolTableRecord
100
AcDbBlockTableRecord
  2
*Model_Space
  0
BLOCK_RECORD
  5
214
100
AcDbSymbolTableRecord
100
AcDbBlockTableRecord
  2
*Paper_Space
  0
BLOCK_RECORD
  5
215
100
AcDbSymbolTableRecord
100
AcDbBlockTableRecord
  2
_FILLED
  0
BLOCK_RECORD
  5
216
100
AcDbSymbolTableRecord
100
AcDbBlockTableRecord
  2
*D0
  0
BLOCK_RECORD
  5
217
100
AcDbSymbolTableRecord
100
AcDbBlockTableRecord
  2
*D1
  0
BLOCK_RECORD
  5
218
100
AcDbSymbolTableRecord
100
AcDbBlockTableRecord
  2
*D2
  0
BLOCK_RECORD
  5
219
100
AcDbSymbolTableRecord
100
AcDbBlockTableRecord
  2
*D3
  0
BLOCK_RECORD
  5
21A
100
AcDbSymbolTableRecord
100
AcDbBlockTableRecord
  2
*D4
  0
BLOCK_RECORD
  5
21B
100
AcDbSymbolTableRecord
100
AcDbBlockTableRecord
  2
*D5
  0
ENDTAB
  0
TABLE
  2
DIMSTYLE
  5
A
100
AcDbSymbolTable
 70
1
100
AcDbDimStyleTable
 71
0
  0
DIMSTYLE
105
21C
100
AcDbSymbolTableRecord
100
AcDbDimStyleTableRecord
  2
STANDARD
 70
0
  3

  4

 40
1.0
 41
4.2
 42
1.0
 43
0.38
 44
1.0
 45
0.0
 46
0.0
 47
0.01
 48
0.01
140
5.0
141
0.09
142
0.0
143
0.0393700787
144
1.0
145
0.0
146
1.0
147
0.625
 71
1
 72
0
 73
0
 74
0
 75
0
 76
0
 77
1
 78
0
 79
0
170
1
171
1
172
0
173
0
174
0
175
0
176
0
177
0
178
0
270
2
179
2
271
2
272
2
273
2
274
2
275
0
280
0
281
0
282
0
283
1
284
0
285
0
286
0
287
3
288
0
340
11
278
46
341
215
342
215
343
215
344
215
  0
DIMSTYLE
105
21D
100
AcDbSymbolTableRecord
100
AcDbDimStyleTableRecord
  2
DIMSTYLE_1
 70
0
  3

  4

 40
1.0
 41
4.2
 42
1.0
 43
0.38
 44
1.0
 45
0.0
 46
0.0
 47
0.3
 48
0.3
140
5.0
141
0.09
142
0.0
143
0.0393700787
144
1.0
145
0.0
146
1.0
147
1.25
 71
0
 72
0
 73
0
 74
0
 75
0
 76
0
 77
1
 78
0
 79
0
170
1
171
2
172
0
173
0
174
0
175
0
176
0
177
0
178
0
270
2
179
2
271
1
272
1
273
2
274
2
275
0
280
0
281
0
282
0
283
1
284
0
285
0
286
0
287
3
288
0
340
11
278
46
341
215
342
215
343
215
344
215
  0
DIMSTYLE
105
21E
100
AcDbSymbolTableRecord
100
AcDbDimStyleTableRecord
  2
DIMSTYLE_2
 70
0
  3

  4

 40
1.0
 41
4.2
 42
1.0
 43
0.38
 44
1.0
 45
0.0
 46
0.0
 47
0.2
 48
0.2
140
5.0
141
0.09
142
0.0
143
0.0393700787
144
1.0
145
0.0
146
1.0
147
1.25
 71
0
 72
0
 73
0
 74
0
 75
0
 76
0
 77
1
 78
0
 79
0
170
1
171
2
172
0
173
0
174
0
175
0
176
0
177
0
178
0
270
2
179
2
271
1
272
1
273
2
274
2
275
0
280
0
281
0
282
0
283
1
284
0
285
0
286
0
287
3
288
0
340
11
278
46
341
215
342
215
343
215
344
215
  0
ENDTAB
  0
ENDSEC
  0
SECTION
  2
BLOCKS
  0
BLOCK
  5
20
100
AcDbEntity
  8
0
100
AcDbBlockBegin
  2
*Model_Space
 70
0
 10
0.0
 20
0.0
 30
0.0
  3
*Model_Space
  1

  0
ENDBLK
  5
21
100
AcDbEntity
  8
0
100
AcDbBlockEnd
  0
BLOCK
  5
1C
100
AcDbEntity
  8
0
100
AcDbBlockBegin
  2
*Paper_Space
 70
0
 10
0.0
 20
0.0
 30
0.0
  3
*Paper_Space
  1

  0
ENDBLK
  5
1D
100
AcDbEntity
  8
0
100
AcDbBlockEnd
  0
BLOCK
  5
21F
100
AcDbEntity
  8
0
100
AcDbBlockBegin
  2
_FILLED
 70
64
 10
0.0
 20
0.0
  3
_FILLED
  1

  0
SOLID
  5
220
100
AcDbEntity
  8
0
  6
BYBLOCK
 62
0
100
AcDbTrace
 10
0.0
 20
0.0
 11
-1.0
 21
0.1666666667
 12
-1.0
 22
-0.1666666667
 13
-1.0
 23
-0.1666666667
  0
ENDBLK
  5
221
100
AcDbEntity
  8
0
  6
BYBLOCK
 62
0
100
AcDbBlockEnd
  0
BLOCK
  5
222
100
AcDbEntity
  8
0
100
AcDbBlockBegin
 62
2
  6
CONTINUOUS
  2
*D0
 70
65
 10
0.0
 20
0.0
  3
*D0
  1

  0
MTEXT
  5
223
100
AcDbEntity
  8
0
100
AcDbMText
 62
2
  6
CONTINUOUS
  7
STANDARD
 71
2
 72
1
 10
169.6745978145
 20
252.3950971385
 30
0.0
 11
1.0
 21
0.0
 31
0.0
 73
2
 44
0.9
  1
38.0\P[1.50]
 40
5.0
 41
26.25
  0
LINE
  5
224
100
AcDbEntity
  8
0
100
AcDbLine
 62
2
  6
CONTINUOUS
 10
150.2714149279
 20
202.5504323043
 11
150.2714149279
 21
247.1450971385
  0
LINE
  5
225
100
AcDbEntity
  8
0
100
AcDbLine
 62
2
  6
CONTINUOUS
 10
188.2714149279
 20
202.5504323043
 11
188.2714149279
 21
247.1450971385
  0
LINE
  5
226
100
AcDbEntity
  8
0
100
AcDbLine
 62
2
  6
CONTINUOUS
 10
150.2714149279
 20
246.1450971385
 11
169.2714149279
 21
246.1450971385
  0
LINE
  5
227
100
AcDbEntity
  8
0
100
AcDbLine
 62
2
  6
CONTINUOUS
 10
188.2714149279
 20
246.1450971385
 11
169.2714149279
 21
246.1450971385
  0
INSERT
  5
228
100
AcDbEntity
  8
0
100
AcDbBlockReference
 62
2
  6
CONTINUOUS
  2
_FILLED
 10
150.2714149279
 20
246.1450971385
 41
4.2
 42
4.2
 43
4.2
 50
180.0
  0
INSERT
  5
229
100
AcDbEntity
  8
0
100
AcDbBlockReference
 62
2
  6
CONTINUOUS
  2
_FILLED
 10
188.2714149279
 20
246.1450971385
 41
4.2
 42
4.2
 43
4.2
  0
ENDBLK
  5
22A
100
AcDbEntity
  8
0
  6
BYBLOCK
 62
0
100
AcDbBlockEnd
  0
BLOCK
  5
22B
100
AcDbEntity
  8
0
100
AcDbBlockBegin
 62
2
  6
CONTINUOUS
  2
*D1
 70
65
 10
0.0
 20
0.0
  3
*D1
  1

  0
MTEXT
  5
22C
100
AcDbEntity
  8
0
100
AcDbMText
 62
2
  6
CONTINUOUS
  7
STANDARD
 71
1
 72
1
 10
115.4946245708
 20
222.6719616464
 30
0.0
 11
0.0
 21
1.0
 31
0.0
 73
2
 44
0.9
  1
13.6\P[0.53]
 40
5.0
 41
27.3214285714
  0
LINE
  5
22D
100
AcDbEntity
  8
0
100
AcDbLine
 62
2
  6
CONTINUOUS
 10
146.6042248648
 20
215.115490262
 11
120.7446245708
 21
215.115490262
  0
LINE
  5
22E
100
AcDbEntity
  8
0
100
AcDbLine
 62
2
  6
CONTINUOUS
 10
149.2714149279
 20
201.5504323043
 11
120.7446245708
 21
201.5504323043
  0
LINE
  5
22F
100
AcDbEntity
  8
0
100
AcDbLine
 62
2
  6
CONTINUOUS
 10
121.7446245708
 20
215.115490262
 11
121.7446245708
 21
240.8862473607
  0
LINE
  5
230
100
AcDbEntity
  8
0
100
AcDbLine
 62
2
  6
CONTINUOUS
 10
121.7446245708
 20
240.8862473607
 11
121.7446245708
 21
208.3329612832
  0
LINE
  5
231
100
AcDbEntity
  8
0
100
AcDbLine
 62
2
  6
CONTINUOUS
 10
121.7446245708
 20
201.5504323043
 11
121.7446245708
 21
197.5504323043
  0
LINE
  5
232
100
AcDbEntity
  8
0
100
AcDbLine
 62
2
  6
CONTINUOUS
 10
121.7446245708
 20
197.5504323043
 11
121.7446245708
 21
208.3329612832
  0
INSERT
  5
233
100
AcDbEntity
  8
0
100
AcDbBlockReference
 62
2
  6
CONTINUOUS
  2
_FILLED
 10
121.7446245708
 20
215.115490262
 41
4.2
 42
4.2
 43
4.2
 50
270.0
  0
INSERT
  5
234
100
AcDbEntity
  8
0
100
AcDbBlockReference
 62
2
  6
CONTINUOUS
  2
_FILLED
 10
121.7446245708
 20
201.5504323043
 41
4.2
 42
4.2
 43
4.2
 50
90.0
  0
ENDBLK
  5
235
100
AcDbEntity
  8
0
  6
BYBLOCK
 62
0
100
AcDbBlockEnd
  0
BLOCK
  5
236
100
AcDbEntity
  8
0
100
AcDbBlockBegin
 62
2
  6
CONTINUOUS
  2
*D2
 70
65
 10
0.0
 20
0.0
  3
*D2
  1

  0
MTEXT
  5
237
100
AcDbEntity
  8
0
100
AcDbMText
 62
2
  6
CONTINUOUS
  7
STANDARD
 71
2
 72
1
 10
287.6701631479
 20
135.6329444739
 30
0.0
 11
1.0
 21
0.0
 31
0.0
 73
2
 44
0.9
  1
47.0\P[1.85]
 40
5.0
 41
26.25
  0
LINE
  5
238
100
AcDbEntity
  8
0
100
AcDbLine
 62
2
  6
CONTINUOUS
 10
309.7574747118
 20
148.7681628082
 11
309.7574747118
 21
128.3829444739
  0
LINE
  5
239
100
AcDbEntity
  8
0
100
AcDbLine
 62
2
  6
CONTINUOUS
 10
262.7552489268
 20
147.7256547541
 11
262.7552489268
 21
128.3829444739
  0
LINE
  5
23A
100
AcDbEntity
  8
0
100
AcDbLine
 62
2
  6
CONTINUOUS
 10
309.7574747118
 20
129.3829444739
 11
286.2563618193
 21
129.3829444739
  0
LINE
  5
23B
100
AcDbEntity
  8
0
100
AcDbLine
 62
2
  6
CONTINUOUS
 10
262.7552489268
 20
129.3829444739
 11
286.2563618193
 21
129.3829444739
  0
INSERT
  5
23C
100
AcDbEntity
  8
0
100
AcDbBlockReference
 62
2
  6
CONTINUOUS
  2
_FILLED
 10
309.7574747118
 20
129.3829444739
 41
4.2
 42
4.2
 43
4.2
  0
INSERT
  5
23D
100
AcDbEntity
  8
0
100
AcDbBlockReference
 62
2
  6
CONTINUOUS
  2
_FILLED
 10
262.7552489268
 20
129.3829444739
 41
4.2
 42
4.2
 43
4.2
 50
180.0
  0
ENDBLK
  5
23E
100
AcDbEntity
  8
0
  6
BYBLOCK
 62
0
100
AcDbBlockEnd
  0
BLOCK
  5
23F
100
AcDbEntity
  8
0
100
AcDbBlockBegin
 62
2
  6
CONTINUOUS
  2
*D3
 70
65
 10
0.0
 20
0.0
  3
*D3
  1

  0
MTEXT
  5
240
100
AcDbEntity
  8
0
100
AcDbMText
 62
2
  6
CONTINUOUS
  7
STANDARD
 71
2
 72
1
 10
101.9427724356
 20
178.8604039635
 30
0.0
 11
0.0
 21
1.0
 31
0.0
 73
2
 44
0.9
  1
68.5\P[2.70]
 40
5.0
 41
28.3928571429
  0
LINE
  5
241
100
AcDbEntity
  8
0
100
AcDbLine
 62
2
  6
CONTINUOUS
 10
146.6042248648
 20
215.115490262
 11
107.1927724356
 21
215.115490262
  0
LINE
  5
242
100
AcDbEntity
  8
0
100
AcDbLine
 62
2
  6
CONTINUOUS
 10
133.3743903062
 20
146.6292396216
 11
107.1927724356
 21
146.6292396216
  0
LINE
  5
243
100
AcDbEntity
  8
0
100
AcDbLine
 62
2
  6
CONTINUOUS
 10
108.1927724356
 20
215.115490262
 11
108.1927724356
 21
180.8723649418
  0
LINE
  5
244
100
AcDbEntity
  8
0
100
AcDbLine
 62
2
  6
CONTINUOUS
 10
108.1927724356
 20
146.6292396216
 11
108.1927724356
 21
180.8723649418
  0
INSERT
  5
245
100
AcDbEntity
  8
0
100
AcDbBlockReference
 62
2
  6
CONTINUOUS
  2
_FILLED
 10
108.1927724356
 20
215.115490262
 41
4.2
 42
4.2
 43
4.2
 50
90.0
  0
INSERT
  5
246
100
AcDbEntity
  8
0
100
AcDbBlockReference
 62
2
  6
CONTINUOUS
  2
_FILLED
 10
108.1927724356
 20
146.6292396216
 41
4.2
 42
4.2
 43
4.2
 50
270.0
  0
ENDBLK
  5
247
100
AcDbEntity
  8
0
  6
BYBLOCK
 62
0
100
AcDbBlockEnd
  0
BLOCK
  5
248
100
AcDbEntity
  8
0
100
AcDbBlockBegin
 62
2
  6
CONTINUOUS
  2
*D4
 70
65
 10
0.0
 20
0.0
  3
*D4
  1

  0
MTEXT
  5
249
100
AcDbEntity
  8
0
100
AcDbMText
 62
2
  6
CONTINUOUS
  7
STANDARD
 71
2
 72
1
 10
168.419760841
 20
133.6819805131
 30
0.0
 11
1.0
 21
0.0
 31
0.0
 73
2
 44
0.9
  1
70.8\P[2.79]
 40
5.0
 41
28.3928571429
  0
LINE
  5
24A
100
AcDbEntity
  8
0
100
AcDbLine
 62
2
  6
CONTINUOUS
 10
133.8746949154
 20
146.1289350351
 11
133.8746953618
 21
126.4319796817
  0
LINE
  5
24B
100
AcDbEntity
  8
0
100
AcDbLine
 62
2
  6
CONTINUOUS
 10
204.6746933109
 20
146.1289334306
 11
204.6746937573
 21
126.4319812862
  0
LINE
  5
24C
100
AcDbEntity
  8
0
100
AcDbLine
 62
2
  6
CONTINUOUS
 10
133.8746953391
 20
127.4319796817
 11
169.2746945369
 21
127.431980484
  0
LINE
  5
24D
100
AcDbEntity
  8
0
100
AcDbLine
 62
2
  6
CONTINUOUS
 10
204.6746937346
 20
127.4319812862
 11
169.2746945369
 21
127.431980484
  0
INSERT
  5
24E
100
AcDbEntity
  8
0
100
AcDbBlockReference
 62
2
  6
CONTINUOUS
  2
_FILLED
 10
133.8746953391
 20
127.4319796817
 41
4.2
 42
4.2
 43
4.2
 50
180.0000012984
  0
INSERT
  5
24F
100
AcDbEntity
  8
0
100
AcDbBlockReference
 62
2
  6
CONTINUOUS
  2
_FILLED
 10
204.6746937346
 20
127.4319812862
 41
4.2
 42
4.2
 43
4.2
 50
0.0000012984
  0
ENDBLK
  5
250
100
AcDbEntity
  8
0
  6
BYBLOCK
 62
0
100
AcDbBlockEnd
  0
BLOCK
  5
251
100
AcDbEntity
  8
0
100
AcDbBlockBegin
 62
2
  6
CONTINUOUS
  2
*D5
 70
65
 10
0.0
 20
0.0
  3
*D5
  1

  0
MTEXT
  5
252
100
AcDbEntity
  8
0
100
AcDbMText
 62
2
  6
CONTINUOUS
  7
STANDARD
 71
1
 72
1
 10
219.0334644101
 20
73.9166667629
 30
0.0
 11
0.0
 21
1.0
 31
0.0
 73
2
 44
0.9
  1
23.5\P[0.93]
 40
5.0
 41
27.8571428571
  0
LINE
  5
253
100
AcDbEntity
  8
0
100
AcDbLine
 62
2
  6
CONTINUOUS
 10
202.9607558338
 20
43.0612486068
 11
226.2834644101
 21
43.0612486068
  0
LINE
  5
254
100
AcDbEntity
  8
0
100
AcDbLine
 62
2
  6
CONTINUOUS
 10
170.2714149279
 20
66.5649571733
 11
226.2834644101
 21
66.5649571733
  0
LINE
  5
255
100
AcDbEntity
  8
0
100
AcDbLine
 62
2
  6
CONTINUOUS
 10
225.2834644101
 20
43.0612486068
 11
225.2834644101
 21
54.8131028901
  0
LINE
  5
256
100
AcDbEntity
  8
0
100
AcDbLine
 62
2
  6
CONTINUOUS
 10
225.2834644101
 20
66.5649571733
 11
225.2834644101
 21
54.8131028901
  0
LINE
  5
257
100
AcDbEntity
  8
0
100
AcDbLine
 62
2
  6
CONTINUOUS
 10
225.2834644101
 20
54.8131028901
 11
225.2834644101
 21
92.4880953344
  0
INSERT
  5
258
100
AcDbEntity
  8
0
100
AcDbBlockReference
 62
2
  6
CONTINUOUS
  2
_FILLED
 10
225.2834644101
 20
43.0612486068
 41
4.2
 42
4.2
 43
4.2
 50
270.0
  0
INSERT
  5
259
100
AcDbEntity
  8
0
100
AcDbBlockReference
 62
2
  6
CONTINUOUS
  2
_FILLED
 10
225.2834644101
 20
66.5649571733
 41
4.2
 42
4.2
 43
4.2
 50
90.0
  0
ENDBLK
  5
25A
100
AcDbEntity
  8
0
  6
BYBLOCK
 62
0
100
AcDbBlockEnd
  0
ENDSEC
  0
SECTION
  2
ENTITIES
  0
DIMENSION
  5
25B
100
AcDbEntity
  8
0
100
AcDbDimension
 62
2
  6
CONTINUOUS
  2
*D0
 10
188.2714149279
 20
246.1450971385
 11
171.2817406717
 21
246.1450971385
 70
160
 71
2
 72
2
 41
0.9
 42
38.0
  1
<>\P[]
  3
DIMSTYLE_1
100
AcDbAlignedDimension
 13
150.2714149279
 23
201.5504323043
 14
188.2714149279
 24
201.5504323043
100
AcDbRotatedDimension
  0
DIMENSION
  5
25C
100
AcDbEntity
  8
0
100
AcDbDimension
 62
2
  6
CONTINUOUS
  2
*D1
 10
121.7446245708
 20
201.5504323043
 11
121.7446245708
 21
231.7791045035
 70
160
 71
1
 72
2
 41
0.9
 42
13.5650579577
  1
<>\P[]
  3
DIMSTYLE_2
100
AcDbAlignedDimension
 13
147.6042248648
 23
215.115490262
 14
150.2714149279
 24
201.5504323043
 50
270.0
100
AcDbRotatedDimension
  0
DIMENSION
  5
25D
100
AcDbEntity
  8
0
100
AcDbDimension
 62
2
  6
CONTINUOUS
  2
*D2
 10
262.7552489268
 20
129.3829444739
 11
289.0987345765
 21
129.3829444739
 70
160
 71
2
 72
2
 41
0.9
 42
47.002225785
  1
<>\P[]
  3
DIMSTYLE_1
100
AcDbAlignedDimension
 13
309.7574747118
 23
149.7681628082
 14
262.7552489268
 24
148.7256547541
 50
180.0
100
AcDbRotatedDimension
  0
DIMENSION
  5
25E
100
AcDbEntity
  8
0
100
AcDbDimension
 62
2
  6
CONTINUOUS
  2
*D3
 10
108.1927724356
 20
146.6292396216
 11
108.1927724356
 21
181.181832535
 70
160
 71
2
 72
2
 41
0.9
 42
68.4862506405
  1
<>\P[]
  3
DIMSTYLE_1
100
AcDbAlignedDimension
 13
147.6042248648
 23
215.115490262
 14
134.3743903062
 24
146.6292396216
 50
270.0
100
AcDbRotatedDimension
  0
DIMENSION
  5
25F
100
AcDbEntity
  8
0
100
AcDbDimension
 62
2
  6
CONTINUOUS
  2
*D4
 10
204.6746937346
 20
127.4319812862
 11
170.5626179838
 21
127.4319805131
 70
160
 71
2
 72
2
 41
0.9
 42
70.7999983955
  1
<>\P[]
  3
DIMSTYLE_1
100
AcDbAlignedDimension
 13
133.8746948927
 23
147.1289350351
 14
204.6746932883
 24
147.1289334306
 50
0.0000012984
100
AcDbRotatedDimension
  0
DIMENSION
  5
260
100
AcDbEntity
  8
0
100
AcDbDimension
 62
2
  6
CONTINUOUS
  2
*D5
 10
225.2834644101
 20
66.5649571733
 11
225.2834644101
 21
83.2023810487
 70
160
 71
1
 72
2
 41
0.9
 42
23.5037085665
  1
<>\P[]
  3
DIMSTYLE_2
100
AcDbAlignedDimension
 13
201.9607558338
 23
43.0612486068
 14
169.2714149279
 24
66.5649571733
 50
90.0
100
AcDbRotatedDimension
  0
LINE
  5
261
100
AcDbEntity
  8
0
100
AcDbLine
 62
7
  6
CONTINUOUS
 10
0.0
 20
-0.0
 11
0.0
 21
297.0
  0
LINE
  5
262
100
AcDbEntity
  8
0
100
AcDbLine
 62
7
  6
CONTINUOUS
 10
0.0
 20
-0.0
 11
420.0
 21
-0.0
  0
LINE
  5
263
100
AcDbEntity
  8
0
100
AcDbLine
 62
7
  6
CONTINUOUS
 10
0.0
 20
297.0
 11
420.0
 21
297.0
  0
LINE
  5
264
100
AcDbEntity
  8
0
100
AcDbLine
 62
7
  6
CONTINUOUS
 10
420.0
 20
-0.0
 11
420.0
 21
297.0
  0
LINE
  5
265
100
AcDbEntity
  8
ASSEM_MEMBER
100
AcDbLine
 62
7
  6
CONTINUOUS
 10
143.1793222812
 20
206.0804323043
 11
143.2087318478
 21
206.1118554102
  0
LINE
  5
266
100
AcDbEntity
  8
ASSEM_MEMBER
100
AcDbLine
 62
7
  6
CONTINUOUS
 10
143.2039831603
 20
207.2979263012
 11
143.1087608376
 21
207.2027039785
  0
LINE
  5
267
100
AcDbEntity
  8
ASSEM_MEMBER
100
AcDbLine
 62
7
  6
CONTINUOUS
 10
143.2282125817
 20
207.287814448
 11
143.120611793
 21
207.1802136642
  0
LINE
  5
268
100
AcDbEntity
  8
ASSEM_MEMBER
100
AcDbLine
 62
7
  6
CONTINUOUS
 10
143.4988414938
 20
206.8019811049
 11
144.6412564669
 21
207.9443962104
  0
LWPOLYLINE
  5
269
100
AcDbEntity
  8
ASSEM_MEMBER
100
AcDbPolyline
 62
7
  6
CONTINUOUS
 90
4
 70
0
 10
143.1087608391
 20
207.20270398
 10
142.8455546163
 20
206.9813418567
 10
142.4001299412
 20
206.74564345
 10
142.0565468471
 20
206.6502030072
  0
LINE
  5
26A
100
AcDbEntity
  8
ASSEM_MEMBER
100
AcDbLine
 62
7
  6
CONTINUOUS
 10
133.8746939981
 20
186.6086286992
 11
133.8746948927
 21
147.1289350351
  0
LINE
  5
26B
100
AcDbEntity
  8
ASSEM_MEMBER
100
AcDbLine
 62
9
  6
CONTINUOUS
 10
134.2799297714
 20
147.5341699137
 11
134.2799288807
 21
186.8348882314
  0
LINE
  5
26C
100
AcDbEntity
  8
ASSEM_MEMBER
100
AcDbLine
 62
9
  6
CONTINUOUS
 10
135.458755791
 20
186.3352880695
 11
135.458756667
 21
147.6783591958
  0
LINE
  5
26D
100
AcDbEntity
  8
ASSEM_MEMBER
100
AcDbLine
 62
9
  6
CONTINUOUS
 10
142.0566026352
 20
204.3108371632
 11
142.0636701764
 21
204.3340461315
  0
LINE
  5
26E
100
AcDbEntity
  8
ASSEM_MEMBER
100
AcDbLine
 62
9
  6
CONTINUOUS
 10
143.1088900933
 20
203.7582898243
 11
143.1206128864
 21
203.7806498553
  0
LINE
  5
26F
100
AcDbEntity
  8
ASSEM_MEMBER
100
AcDbLine
 62
9
  6
CONTINUOUS
 10
143.4988431995
 20
204.1588816694
 11
143.120612883
 21
203.7806498518
  0
LINE
  5
270
100
AcDbEntity
  8
ASSEM_MEMBER
100
AcDbLine
 62
9
  6
CONTINUOUS
 10
143.1088900935
 20
203.7582898244
 11
143.1087608684
 21
203.7581605993
  0
LINE
  5
271
100
AcDbEntity
  8
ASSEM_MEMBER
100
AcDbLine
 62
9
  6
CONTINUOUS
 10
143.2039831687
 20
203.662938299
 11
143.2041123939
 21
203.6630675241
  0
LINE
  5
272
100
AcDbEntity
  8
ASSEM_MEMBER
100
AcDbLine
 62
7
  6
CONTINUOUS
 10
146.6402335181
 20
146.6986128115
 11
144.5708600972
 21
146.6292393905
  0
LINE
  5
273
100
AcDbEntity
  8
ASSEM_MEMBER
100
AcDbLine
 62
7
  6
CONTINUOUS
 10
204.1749978974
 20
146.6292380398
 11
193.9765159588
 21
146.6292382709
  0
LINE
  5
274
100
AcDbEntity
  8
ASSEM_MEMBER
100
AcDbLine
 62
7
  6
CONTINUOUS
 10
144.5708600972
 20
146.6292393905
 11
134.3743903062
 21
146.6292396216
  0
LINE
  5
275
100
AcDbEntity
  8
ASSEM_MEMBER
100
AcDbLine
 62
9
  6
CONTINUOUS
 10
179.5820137375
 20
148.2260595058
 11
158.9471854551
 21
148.2260599734
  0
LINE
  5
276
100
AcDbEntity
  8
ASSEM_MEMBER
100
AcDbLine
 62
7
  6
CONTINUOUS
 10
193.9765159588
 20
146.6292382709
 11
191.9062914868
 21
146.6986117857
  0
LINE
  5
277
100
AcDbEntity
  8
ASSEM_MEMBER
100
AcDbLine
 62
9
  6
CONTINUOUS
 10
142.0565696405
 20
204.3106574145
 11
142.0566026508
 21
204.3108371604
  0
LINE
  5
278
100
AcDbEntity
  8
ASSEM_MEMBER
100
AcDbLine
 62
7
  6
CONTINUOUS
 10
144.6412564669
 20
203.0164683981
 11
143.8622172424
 21
202.6937797858
  0
LINE
  5
279
100
AcDbEntity
  8
ASSEM_MEMBER
100
AcDbLine
 62
9
  6
CONTINUOUS
 10
143.2282125817
 20
203.6730501606
 11
143.2041043417
 21
203.6630755765
  0
LINE
  5
27A
100
AcDbEntity
  8
ASSEM_MEMBER
100
AcDbLine
 62
9
  6
CONTINUOUS
 10
135.8994795424
 20
147.1787083265
 11
148.8132086422
 21
148.0154192073
  0
LINE
  5
27B
100
AcDbEntity
  8
ASSEM_MEMBER
100
AcDbLine
 62
9
  6
CONTINUOUS
 10
148.3729412831
 20
148.5150995905
 11
135.458756667
 21
147.6783591958
  0
LINE
  5
27C
100
AcDbEntity
  8
ASSEM_MEMBER
100
AcDbLine
 62
9
  6
CONTINUOUS
 10
158.9485731101
 20
148.7256526446
 11
179.5810203318
 21
148.7256521771
  0
LINE
  5
27D
100
AcDbEntity
  8
ASSEM_MEMBER
100
AcDbLine
 62
9
  6
CONTINUOUS
 10
189.7194711313
 20
148.015399067
 11
202.6431683691
 21
147.1787067874
  0
LINE
  5
27E
100
AcDbEntity
  8
ASSEM_MEMBER
100
AcDbLine
 62
9
  6
CONTINUOUS
 10
203.0837976582
 20
147.6783576633
 11
190.1593481807
 21
148.5150986435
  0
LWPOLYLINE
  5
27F
100
AcDbEntity
  8
ASSEM_MEMBER
100
AcDbPolyline
 62
7
  6
CONTINUOUS
 90
5
 70
0
 10
144.0820740221
 20
209.4178251538
 10
144.0398632943
 20
208.9165764345
 10
143.8564956676
 20
208.2768785594
 10
143.5364758351
 20
207.6933943669
 10
143.2039831603
 20
207.2979263012
  0
LINE
  5
280
100
AcDbEntity
  8
ASSEM_MEMBER
100
AcDbLine
 62
9
  6
CONTINUOUS
 10
144.1063569702
 20
201.5530220681
 11
144.082256774
 21
201.5430394471
  0
LINE
  5
281
100
AcDbEntity
  8
ASSEM_MEMBER
100
AcDbLine
 62
7
  6
CONTINUOUS
 10
143.7714149279
 20
206.0804323043
 11
143.7714149279
 21
204.8804323043
  0
LINE
  5
282
100
AcDbEntity
  8
ASSEM_MEMBER
100
AcDbLine
 62
7
  6
CONTINUOUS
 10
144.0820740221
 20
211.6417225637
 11
144.0820740221
 21
209.4178251533
  0
LINE
  5
283
100
AcDbEntity
  8
ASSEM_MEMBER
100
AcDbLine
 62
7
  6
CONTINUOUS
 10
144.0820740221
 20
201.54303944
 11
144.0820740221
 21
191.3498897728
  0
LINE
  5
284
100
AcDbEntity
  8
ASSEM_MEMBER
100
AcDbLine
 62
7
  6
CONTINUOUS
 10
144.1063569702
 20
191.3664234239
 11
144.1063569702
 21
201.5530220681
  0
LINE
  5
285
100
AcDbEntity
  8
ASSEM_MEMBER
100
AcDbLine
 62
7
  6
CONTINUOUS
 10
144.1063569702
 20
209.4078425405
 11
144.1063569702
 21
211.6176223674
  0
LINE
  5
286
100
AcDbEntity
  8
ASSEM_MEMBER
100
AcDbLine
 62
7
  6
CONTINUOUS
 10
144.6412564669
 20
189.5880066823
 11
144.6412564669
 21
203.0164683981
  0
LINE
  5
287
100
AcDbEntity
  8
ASSEM_MEMBER
100
AcDbLine
 62
7
  6
CONTINUOUS
 10
144.6412564669
 20
207.9443962104
 11
144.6412564669
 21
213.3854797865
  0
LINE
  5
288
100
AcDbEntity
  8
ASSEM_MEMBER
100
AcDbLine
 62
7
  6
CONTINUOUS
 10
144.7975918762
 20
206.1066092526
 11
144.7975918762
 21
204.854255356
  0
LINE
  5
289
100
AcDbEntity
  8
ASSEM_MEMBER
100
AcDbLine
 62
7
  6
CONTINUOUS
 10
144.8028380338
 20
206.1118554102
 11
144.8028380338
 21
204.8490091984
  0
LINE
  5
28A
100
AcDbEntity
  8
ASSEM_MEMBER
100
AcDbLine
 62
9
  6
CONTINUOUS
 10
146.320640384
 20
188.0866583622
 11
146.3205746238
 21
188.0864879824
  0
LINE
  5
28B
100
AcDbEntity
  8
ASSEM_MEMBER
100
AcDbLine
 62
9
  6
CONTINUOUS
 10
144.0822567753
 20
191.3498897855
 11
144.1063569702
 21
191.3664234239
  0
LINE
  5
28C
100
AcDbEntity
  8
ASSEM_MEMBER
100
AcDbLine
 62
7
  6
CONTINUOUS
 10
134.5354192009
 20
187.2712038116
 11
134.5342921801
 21
187.2705725449
  0
LINE
  5
28D
100
AcDbEntity
  8
ASSEM_MEMBER
100
AcDbLine
 62
9
  6
CONTINUOUS
 10
147.5801246681
 20
215.1397732101
 11
147.5801246681
 21
215.1395904583
  0
LINE
  5
28E
100
AcDbEntity
  8
ASSEM_MEMBER
100
AcDbLine
 62
9
  6
CONTINUOUS
 10
148.3729412831
 20
148.5150995905
 11
148.3729405372
 21
181.4315541225
  0
LINE
  5
28F
100
AcDbEntity
  8
ASSEM_MEMBER
100
AcDbLine
 62
7
  6
CONTINUOUS
 10
134.5354192009
 20
187.2712038116
 11
134.1316543519
 21
187.0457329234
  0
LINE
  5
290
100
AcDbEntity
  8
ASSEM_MEMBER
100
AcDbLine
 62
9
  6
CONTINUOUS
 10
133.874693998
 20
186.6085931722
 11
134.2799288807
 21
186.8348882314
  0
LINE
  5
291
100
AcDbEntity
  8
ASSEM_MEMBER
100
AcDbLine
 62
9
  6
CONTINUOUS
 10
142.0566026252
 20
206.6500274435
 11
142.0565696124
 21
206.650207189
  0
LINE
  5
292
100
AcDbEntity
  8
ASSEM_MEMBER
100
AcDbLine
 62
9
  6
CONTINUOUS
 10
146.3206366668
 20
188.0866487382
 11
146.3456335852
 21
188.1028390194
  0
LINE
  5
293
100
AcDbEntity
  8
ASSEM_MEMBER
100
AcDbLine
 62
9
  6
CONTINUOUS
 10
194.4364728856
 20
209.4078425405
 11
194.4605730819
 21
209.4178251615
  0
LINE
  5
294
100
AcDbEntity
  8
ASSEM_MEMBER
100
AcDbLine
 62
9
  6
CONTINUOUS
 10
142.0636712471
 20
206.6268133692
 11
142.0566026203
 21
206.6500274426
  0
LINE
  5
295
100
AcDbEntity
  8
ASSEM_MEMBER
100
AcDbLine
 62
7
  6
CONTINUOUS
 10
155.9820740221
 20
182.5240900343
 11
155.9820740221
 21
183.4364246961
  0
LINE
  5
296
100
AcDbEntity
  8
ASSEM_MEMBER
100
AcDbLine
 62
7
  6
CONTINUOUS
 10
156.0063569702
 20
185.2315198625
 11
156.0063569688
 21
182.4917179029
  0
LINE
  5
297
100
AcDbEntity
  8
ASSEM_MEMBER
100
AcDbLine
 62
7
  6
CONTINUOUS
 10
156.5412564669
 20
185.666060378
 11
156.5412564714
 21
182.4917171917
  0
LINE
  5
298
100
AcDbEntity
  8
ASSEM_MEMBER
100
AcDbLine
 62
7
  6
CONTINUOUS
 10
155.9978070589
 20
185.099475352
 11
156.0063569702
 21
185.2315198625
  0
LWPOLYLINE
  5
299
100
AcDbEntity
  8
ASSEM_MEMBER
100
AcDbPolyline
 62
7
  6
CONTINUOUS
 90
4
 70
0
 10
155.9820740221
 20
182.5240900344
 10
155.8981148284
 20
181.6110320227
 10
155.5923260849
 20
180.5877667127
 10
155.4538455538
 20
180.3369132081
  0
LINE
  5
29A
100
AcDbEntity
  8
ASSEM_MEMBER
100
AcDbLine
 62
9
  6
CONTINUOUS
 10
155.5897816284
 20
185.2967859101
 11
155.5898208561
 21
185.2969644023
  0
LINE
  5
29B
100
AcDbEntity
  8
ASSEM_MEMBER
100
AcDbLine
 62
7
  6
CONTINUOUS
 10
155.9820741861
 20
184.8610911012
 11
155.9823098256
 21
184.861537075
  0
LINE
  5
29C
100
AcDbEntity
  8
ASSEM_MEMBER
100
AcDbLine
 62
7
  6
CONTINUOUS
 10
193.901573389
 20
207.9443962105
 11
194.6806126134
 21
208.2670848228
  0
LINE
  5
29D
100
AcDbEntity
  8
ASSEM_MEMBER
100
AcDbLine
 62
9
  6
CONTINUOUS
 10
195.3146172742
 20
207.2878144479
 11
195.3387174665
 21
207.2977970801
  0
LINE
  5
29E
100
AcDbEntity
  8
ASSEM_MEMBER
100
AcDbLine
 62
9
  6
CONTINUOUS
 10
158.9485724198
 20
179.1831445885
 11
158.9486758517
 21
148.2260599734
  0
LINE
  5
29F
100
AcDbEntity
  8
ASSEM_MEMBER
100
AcDbLine
 62
9
  6
CONTINUOUS
 10
159.0278062838
 20
179.6769501702
 11
158.9485724286
 21
179.183144587
  0
LINE
  5
2A0
100
AcDbEntity
  8
ASSEM_MEMBER
100
AcDbLine
 62
9
  6
CONTINUOUS
 10
155.6137736348
 20
185.3163786067
 11
155.5898207215
 21
185.296964481
  0
LWPOLYLINE
  5
2A1
100
AcDbEntity
  8
ASSEM_MEMBER
100
AcDbPolyline
 62
7
  6
CONTINUOUS
 90
14
 70
0
 10
135.888364221
 20
186.9012823076
 10
135.7457747698
 20
186.9725344398
 10
135.6155955247
 20
187.0367108775
 10
135.4975711233
 20
187.0938592135
 10
135.3912695023
 20
187.1441221191
 10
135.2959996952
 20
187.1877637936
 10
135.2100558889
 20
187.2254665693
 10
135.1325269265
 20
187.2574578533
 10
135.0617779852
 20
187.284122561
 10
134.993928693
 20
187.306261089
 10
134.9207747917
 20
187.3246190184
 10
134.8244382007
 20
187.3370720464
 10
134.6777438886
 20
187.32522833
 10
134.5341771078
 20
187.2704993926
  0
LINE
  5
2A2
100
AcDbEntity
  8
ASSEM_MEMBER
100
AcDbLine
 62
7
  6
CONTINUOUS
 10
136.1261233022
 20
186.7810378181
 11
135.888364221
 21
186.9012823076
  0
LINE
  5
2A3
100
AcDbEntity
  8
ASSEM_MEMBER
100
AcDbLine
 62
9
  6
CONTINUOUS
 10
156.0063569688
 20
182.4917179029
 11
155.9822567739
 21
182.5240900373
  0
LINE
  5
2A4
100
AcDbEntity
  8
ASSEM_MEMBER
100
AcDbLine
 62
9
  6
CONTINUOUS
 10
143.120611793
 20
207.1802136642
 11
143.1088900795
 21
207.2025747705
  0
LINE
  5
2A5
100
AcDbEntity
  8
ASSEM_MEMBER
100
AcDbLine
 62
9
  6
CONTINUOUS
 10
190.9627051917
 20
215.1395904583
 11
190.9386049911
 21
215.115490262
  0
LINE
  5
2A6
100
AcDbEntity
  8
ASSEM_MEMBER
100
AcDbLine
 62
7
  6
CONTINUOUS
 10
191.1687931343
 20
147.4271724276
 11
191.9062914868
 21
146.6986117857
  0
LINE
  5
2A7
100
AcDbEntity
  8
ASSEM_MEMBER
100
AcDbLine
 62
9
  6
CONTINUOUS
 10
194.4364728856
 20
211.6176223674
 11
194.4605730819
 21
211.6417225668
  0
LWPOLYLINE
  5
2A8
100
AcDbEntity
  8
ASSEM_MEMBER
100
AcDbPolyline
 62
7
  6
CONTINUOUS
 90
7
 70
0
 10
189.5925344832
 20
181.9160890616
 10
188.5393325135
 20
181.63814887
 10
187.0891961266
 20
181.2615754968
 10
185.3759221688
 20
180.8419744616
 10
183.46246676
 20
180.4140878408
 10
181.422784175
 20
180.0091714413
 10
179.5031242956
 20
179.677452704
  0
LWPOLYLINE
  5
2A9
100
AcDbEntity
  8
ASSEM_MEMBER
100
AcDbPolyline
 62
7
  6
CONTINUOUS
 90
7
 70
0
 10
159.0270326367
 20
179.6770741869
 10
157.1187720902
 20
180.0066217537
 10
155.0765206436
 20
180.4117676781
 10
153.1618989041
 20
180.8397392755
 10
151.4486207539
 20
181.2592780631
 10
149.9994608405
 20
181.6356490883
 10
148.9399368738
 20
181.9154058189
  0
LWPOLYLINE
  5
2AA
100
AcDbEntity
  8
ASSEM_MEMBER
100
AcDbPolyline
 62
7
  6
CONTINUOUS
 90
4
 70
0
 10
148.9400412219
 20
181.915378583
 10
144.5367244037
 20
183.2362255091
 10
140.2076046076
 20
184.883776212
 10
136.1261184217
 20
186.7810402994
  0
LWPOLYLINE
  5
2AB
100
AcDbEntity
  8
ASSEM_MEMBER
100
AcDbPolyline
 62
7
  6
CONTINUOUS
 90
5
 70
0
 10
143.2039831685
 20
203.6629382992
 10
143.5278833474
 20
203.279654201
 10
143.8506738812
 20
202.6980310027
 10
144.0374130417
 20
202.0586243939
 10
144.0820740221
 20
201.54303944
  0
LINE
  5
2AC
100
AcDbEntity
  8
ASSEM_MEMBER
100
AcDbLine
 62
9
  6
CONTINUOUS
 10
134.2799297714
 20
147.5341699137
 11
133.8746948927
 21
147.1289350351
  0
LINE
  5
2AD
100
AcDbEntity
  8
ASSEM_MEMBER
100
AcDbLine
 62
9
  6
CONTINUOUS
 10
134.3743903062
 20
146.6292396216
 11
134.77962321
 21
147.0344725253
  0
LINE
  5
2AE
100
AcDbEntity
  8
ASSEM_MEMBER
100
AcDbLine
 62
9
  6
CONTINUOUS
 10
195.3388466871
 20
207.2979263096
 11
195.338717462
 21
207.2977970845
  0
LINE
  5
2AF
100
AcDbEntity
  8
ASSEM_MEMBER
100
AcDbLine
 62
9
  6
CONTINUOUS
 10
195.4339397624
 20
207.2025747842
 11
195.4340689875
 21
207.2027040093
  0
LINE
  5
2B0
100
AcDbEntity
  8
ASSEM_MEMBER
100
AcDbLine
 62
9
  6
CONTINUOUS
 10
195.0439866564
 20
206.8019829392
 11
195.4222169729
 21
207.1802147567
  0
LINE
  5
2B1
100
AcDbEntity
  8
ASSEM_MEMBER
100
AcDbLine
 62
7
  6
CONTINUOUS
 10
193.7452379796
 20
204.854255356
 11
193.739991822
 21
204.8490091984
  0
LWPOLYLINE
  5
2B2
100
AcDbEntity
  8
ASSEM_MEMBER
100
AcDbPolyline
 62
7
  6
CONTINUOUS
 90
4
 70
0
 10
195.4340690165
 20
203.7581606287
 10
195.6972752281
 20
203.9795227441
 10
196.1426999028
 20
204.2152211542
 10
196.4862830086
 20
204.3106616015
  0
LINE
  5
2B3
100
AcDbEntity
  8
ASSEM_MEMBER
100
AcDbLine
 62
9
  6
CONTINUOUS
 10
203.7647936702
 20
147.0344710198
 11
204.1749978974
 21
146.6292380398
  0
LINE
  5
2B4
100
AcDbEntity
  8
ASSEM_MEMBER
100
AcDbLine
 62
7
  6
CONTINUOUS
 10
143.1087608684
 20
203.7581605993
 11
143.2039831687
 21
203.662938299
  0
LINE
  5
2B5
100
AcDbEntity
  8
ASSEM_MEMBER
100
AcDbLine
 62
7
  6
CONTINUOUS
 10
143.1206128864
 20
203.7806498553
 11
143.2282125817
 21
203.6730501606
  0
LINE
  5
2B6
100
AcDbEntity
  8
ASSEM_MEMBER
100
AcDbLine
 62
7
  6
CONTINUOUS
 10
144.6412564669
 20
203.0164683981
 11
143.4988432074
 21
204.1588816774
  0
LINE
  5
2B7
100
AcDbEntity
  8
ASSEM_MEMBER
100
AcDbLine
 62
7
  6
CONTINUOUS
 10
144.7975918762
 20
204.854255356
 11
144.8028380338
 21
204.8490091984
  0
LINE
  5
2B8
100
AcDbEntity
  8
ASSEM_MEMBER
100
AcDbLine
 62
9
  6
CONTINUOUS
 10
143.4988414423
 20
206.8019811564
 11
143.1206117653
 21
207.180213692
  0
LINE
  5
2B9
100
AcDbEntity
  8
ASSEM_MEMBER
100
AcDbLine
 62
9
  6
CONTINUOUS
 10
143.1087608376
 20
207.2027039785
 11
143.1088900627
 21
207.2025747534
  0
LINE
  5
2BA
100
AcDbEntity
  8
ASSEM_MEMBER
100
AcDbLine
 62
9
  6
CONTINUOUS
 10
143.2041123854
 20
207.2977970761
 11
143.2039831603
 21
207.2979263012
  0
LINE
  5
2BB
100
AcDbEntity
  8
ASSEM_MEMBER
100
AcDbLine
 62
7
  6
CONTINUOUS
 10
143.2087318478
 20
204.8490091984
 11
143.1793222812
 21
204.8804323043
  0
LINE
  5
2BC
100
AcDbEntity
  8
ASSEM_MEMBER
100
AcDbLine
 62
7
  6
CONTINUOUS
 10
195.3635075746
 20
204.8804323043
 11
195.334098008
 21
204.8490091984
  0
LINE
  5
2BD
100
AcDbEntity
  8
ASSEM_MEMBER
100
AcDbLine
 62
7
  6
CONTINUOUS
 10
195.0439883621
 20
204.1588835037
 11
193.9015733889
 21
203.0164683981
  0
LINE
  5
2BE
100
AcDbEntity
  8
ASSEM_MEMBER
100
AcDbLine
 62
7
  6
CONTINUOUS
 10
195.3146172742
 20
203.6730501606
 11
195.4222180629
 21
203.7806509444
  0
LINE
  5
2BF
100
AcDbEntity
  8
ASSEM_MEMBER
100
AcDbLine
 62
7
  6
CONTINUOUS
 10
195.3388466955
 20
203.6629383074
 11
195.4340690182
 21
203.75816063
  0
LINE
  5
2C0
100
AcDbEntity
  8
ASSEM_MEMBER
100
AcDbLine
 62
9
  6
CONTINUOUS
 10
156.5412564714
 20
182.4917171917
 11
156.0063569536
 21
182.4917179029
  0
LINE
  5
2C1
100
AcDbEntity
  8
ASSEM_MEMBER
100
AcDbLine
 62
9
  6
CONTINUOUS
 10
182.0015733956
 20
182.4917181024
 11
182.5364728886
 21
182.4917185754
  0
LINE
  5
2C2
100
AcDbEntity
  8
ASSEM_MEMBER
100
AcDbLine
 62
9
  6
CONTINUOUS
 10
155.9820740221
 20
182.5240900343
 11
155.9822567739
 21
182.5240900343
  0
LINE
  5
2C3
100
AcDbEntity
  8
ASSEM_MEMBER
100
AcDbLine
 62
9
  6
CONTINUOUS
 10
182.5605730819
 20
182.5240900683
 11
182.5607558338
 21
182.5240900683
  0
LWPOLYLINE
  5
2C4
100
AcDbEntity
  8
ASSEM_MEMBER
100
AcDbPolyline
 62
7
  6
CONTINUOUS
 90
6
 70
0
 10
155.5897726626
 20
185.2967878698
 10
155.6232311772
 20
185.2882127602
 10
155.7829559937
 20
185.2080450863
 10
155.9050488485
 20
185.07546885
 10
155.9724178795
 20
184.9067052667
 10
155.9793544141
 20
184.8609712487
  0
LINE
  5
2C5
100
AcDbEntity
  8
ASSEM_MEMBER
100
AcDbLine
 62
9
  6
CONTINUOUS
 10
204.6746932883
 20
147.1289334306
 11
204.2644871204
 21
147.5341683278
  0
LINE
  5
2C6
100
AcDbEntity
  8
ASSEM_MEMBER
100
AcDbLine
 62
7
  6
CONTINUOUS
 10
182.5607558338
 20
184.8590175116
 11
182.560561016
 21
184.8590175116
  0
LINE
  5
2C7
100
AcDbEntity
  8
ASSEM_MEMBER
100
AcDbLine
 62
9
  6
CONTINUOUS
 10
144.082256774
 20
211.6417225631
 11
144.1063569702
 21
211.6176223674
  0
LINE
  5
2C8
100
AcDbEntity
  8
ASSEM_MEMBER
100
AcDbLine
 62
9
  6
CONTINUOUS
 10
182.5605730823
 20
182.5240900546
 11
182.5364728859
 21
182.4917185754
  0
LINE
  5
2C9
100
AcDbEntity
  8
ASSEM_MEMBER
100
AcDbLine
 62
7
  6
CONTINUOUS
 10
147.3698393307
 20
147.4271734438
 11
146.6402335181
 21
146.6986128115
  0
LWPOLYLINE
  5
2CA
100
AcDbEntity
  8
ASSEM_MEMBER
100
AcDbPolyline
 62
7
  6
CONTINUOUS
 90
4
 70
0
 10
202.4166613672
 20
186.7822768187
 10
198.3394018481
 20
184.8879919324
 10
194.0068458602
 20
183.2396464489
 10
189.5924252913
 20
181.916060581
  0
LINE
  5
2CB
100
AcDbEntity
  8
ASSEM_MEMBER
100
AcDbLine
 62
9
  6
CONTINUOUS
 10
147.6042248648
 20
215.115490262
 11
147.5801246607
 21
215.1395904583
  0
LINE
  5
2CC
100
AcDbEntity
  8
ASSEM_MEMBER
100
AcDbLine
 62
9
  6
CONTINUOUS
 10
179.5810196416
 20
179.1834666493
 11
179.5019832204
 21
179.6772697619
  0
LINE
  5
2CD
100
AcDbEntity
  8
ASSEM_MEMBER
100
AcDbLine
 62
9
  6
CONTINUOUS
 10
179.5811230741
 20
148.2260595058
 11
179.5810196416
 21
179.1834666493
  0
LINE
  5
2CE
100
AcDbEntity
  8
ASSEM_MEMBER
100
AcDbLine
 62
7
  6
CONTINUOUS
 10
182.0015733956
 20
182.4917181024
 11
182.0015733889
 21
185.666060378
  0
LINE
  5
2CF
100
AcDbEntity
  8
ASSEM_MEMBER
100
AcDbLine
 62
7
  6
CONTINUOUS
 10
182.5364728859
 20
182.4917185754
 11
182.5364728856
 21
185.2315198625
  0
LINE
  5
2D0
100
AcDbEntity
  8
ASSEM_MEMBER
100
AcDbLine
 62
7
  6
CONTINUOUS
 10
182.5607558338
 20
182.5240900683
 11
182.5607558338
 21
184.8590175116
  0
LWPOLYLINE
  5
2D1
100
AcDbEntity
  8
ASSEM_MEMBER
100
AcDbPolyline
 62
7
  6
CONTINUOUS
 90
6
 70
0
 10
182.5632430621
 20
184.8587234535
 10
182.5662786942
 20
184.8830277342
 10
182.6271167993
 20
185.0577677269
 10
182.7459905108
 20
185.1972114937
 10
182.9054075422
 20
185.2838152967
 10
182.9530627185
 20
185.2967890648
  0
LINE
  5
2D2
100
AcDbEntity
  8
ASSEM_MEMBER
100
AcDbLine
 62
9
  6
CONTINUOUS
 10
195.4339397625
 20
207.2025747843
 11
195.4222169694
 21
207.1802147533
  0
LINE
  5
2D3
100
AcDbEntity
  8
ASSEM_MEMBER
100
AcDbLine
 62
9
  6
CONTINUOUS
 10
144.0820740221
 20
191.3498897728
 11
144.082256774
 21
191.3498897728
  0
LINE
  5
2D4
100
AcDbEntity
  8
ASSEM_MEMBER
100
AcDbLine
 62
9
  6
CONTINUOUS
 10
194.4605730819
 20
191.3498897442
 11
194.4607558338
 21
191.3498897442
  0
LINE
  5
2D5
100
AcDbEntity
  8
ASSEM_MEMBER
100
AcDbLine
 62
9
  6
CONTINUOUS
 10
182.9290562117
 20
185.316378577
 11
182.953009125
 21
185.2969644587
  0
LWPOLYLINE
  5
2D6
100
AcDbEntity
  8
ASSEM_MEMBER
100
AcDbPolyline
 62
7
  6
CONTINUOUS
 90
4
 70
0
 10
183.0877425697
 20
180.3396978495
 10
182.9489850637
 20
180.5914106635
 10
182.6441654915
 20
181.6139961535
 10
182.5607558337
 20
182.5240900678
  0
LWPOLYLINE
  5
2D7
100
AcDbEntity
  8
ASSEM_MEMBER
100
AcDbPolyline
 62
7
  6
CONTINUOUS
 90
4
 70
0
 10
142.0565488103
 20
204.3106612407
 10
142.3882673426
 20
204.2196462342
 10
142.8351788542
 20
203.9867746899
 10
143.1087608684
 20
203.7581605993
  0
LINE
  5
2D8
100
AcDbEntity
  8
ASSEM_MEMBER
100
AcDbLine
 62
9
  6
CONTINUOUS
 10
143.2041123904
 20
207.2977970811
 11
143.2282125817
 21
207.287814448
  0
LINE
  5
2D9
100
AcDbEntity
  8
ASSEM_MEMBER
100
AcDbLine
 62
7
  6
CONTINUOUS
 10
144.6412564669
 20
207.9443962105
 11
143.8622172424
 21
208.2670848228
  0
LINE
  5
2DA
100
AcDbEntity
  8
ASSEM_MEMBER
100
AcDbLine
 62
9
  6
CONTINUOUS
 10
144.082256774
 20
209.4178251602
 11
144.1063569702
 21
209.4078425405
  0
LINE
  5
2DB
100
AcDbEntity
  8
ASSEM_MEMBER
100
AcDbLine
 62
9
  6
CONTINUOUS
 10
182.9530089955
 20
185.2969644013
 11
182.9530482231
 21
185.2967859092
  0
LINE
  5
2DC
100
AcDbEntity
  8
ASSEM_MEMBER
100
AcDbLine
 62
9
  6
CONTINUOUS
 10
196.4862272207
 20
206.6500274454
 11
196.4791596794
 21
206.626818477
  0
LWPOLYLINE
  5
2DD
100
AcDbEntity
  8
ASSEM_MEMBER
100
AcDbPolyline
 62
7
  6
CONTINUOUS
 90
15
 70
0
 10
204.0079355113
 20
187.2730150931
 10
203.8832171637
 20
187.3225170451
 10
203.7312772433
 20
187.3387666262
 10
203.6310606369
 20
187.3273546365
 10
203.5563881089
 20
187.309303473
 10
203.4880389854
 20
187.2874141349
 10
203.4172281394
 20
187.2610250024
 10
203.3398135988
 20
187.2293189148
 10
203.2540182682
 20
187.1918799305
 10
203.1589053219
 20
187.1484799878
 10
203.0527330782
 20
187.0984275964
 10
202.9347837816
 20
187.0414481604
 10
202.8046053842
 20
186.977389843
 10
202.6619247918
 20
186.906197078
 10
202.416656406
 20
186.782274298
  0
LINE
  5
2DE
100
AcDbEntity
  8
ASSEM_MEMBER
100
AcDbLine
 62
9
  6
CONTINUOUS
 10
192.1971961722
 20
188.1028389177
 11
192.2221931901
 21
188.0866486968
  0
LINE
  5
2DF
100
AcDbEntity
  8
ASSEM_MEMBER
100
AcDbLine
 62
9
  6
CONTINUOUS
 10
190.1593474347
 20
181.432215741
 11
190.1593481807
 21
148.5150986435
  0
LINE
  5
2E0
100
AcDbEntity
  8
ASSEM_MEMBER
100
AcDbLine
 62
9
  6
CONTINUOUS
 10
190.9627051873
 20
215.1395904583
 11
190.9627051873
 21
215.1397732101
  0
LWPOLYLINE
  5
2E1
100
AcDbEntity
  8
ASSEM_MEMBER
100
AcDbPolyline
 62
7
  6
CONTINUOUS
 90
5
 70
0
 10
194.4607558338
 20
201.5430394548
 10
194.5029665616
 20
202.044288174
 10
194.6863341882
 20
202.6839860491
 10
195.0063540207
 20
203.2674702416
 10
195.3388466955
 20
203.6629383074
  0
LINE
  5
2E2
100
AcDbEntity
  8
ASSEM_MEMBER
100
AcDbLine
 62
9
  6
CONTINUOUS
 10
196.4862602155
 20
206.6502071941
 11
196.4862272052
 21
206.6500274482
  0
LINE
  5
2E3
100
AcDbEntity
  8
ASSEM_MEMBER
100
AcDbLine
 62
7
  6
CONTINUOUS
 10
193.7452379796
 20
204.854255356
 11
194.7714149279
 21
204.8804323043
  0
LINE
  5
2E4
100
AcDbEntity
  8
ASSEM_MEMBER
100
AcDbLine
 62
9
  6
CONTINUOUS
 10
194.4607558338
 20
201.5430394553
 11
194.4605730819
 21
201.5430394553
  0
LINE
  5
2E5
100
AcDbEntity
  8
ASSEM_MEMBER
100
AcDbLine
 62
9
  6
CONTINUOUS
 10
144.082256774
 20
201.54303944
 11
144.0820740221
 21
201.54303944
  0
LINE
  5
2E6
100
AcDbEntity
  8
ASSEM_MEMBER
100
AcDbLine
 62
7
  6
CONTINUOUS
 10
143.771414928
 20
204.8804323043
 11
144.7975918762
 21
204.854255356
  0
LINE
  5
2E7
100
AcDbEntity
  8
ASSEM_MEMBER
100
AcDbLine
 62
7
  6
CONTINUOUS
 10
204.4154538348
 20
187.0482292242
 11
204.0067287537
 21
187.2736886876
  0
LINE
  5
2E8
100
AcDbEntity
  8
ASSEM_MEMBER
100
AcDbLine
 62
9
  6
CONTINUOUS
 10
204.2644862298
 20
186.8361103873
 11
204.6746923936
 21
186.6098248002
  0
LINE
  5
2E9
100
AcDbEntity
  8
ASSEM_MEMBER
100
AcDbLine
 62
9
  6
CONTINUOUS
 10
194.4364728856
 20
191.3664234239
 11
194.4605730813
 21
191.3498897448
  0
LINE
  5
2EA
100
AcDbEntity
  8
ASSEM_MEMBER
100
AcDbLine
 62
7
  6
CONTINUOUS
 10
193.7452379796
 20
204.854255356
 11
193.7452379796
 21
206.1066092526
  0
LINE
  5
2EB
100
AcDbEntity
  8
ASSEM_MEMBER
100
AcDbLine
 62
7
  6
CONTINUOUS
 10
193.9015733889
 20
213.3854797865
 11
193.9015733889
 21
207.9443962104
  0
LINE
  5
2EC
100
AcDbEntity
  8
ASSEM_MEMBER
100
AcDbLine
 62
7
  6
CONTINUOUS
 10
193.9015733889
 20
203.0164683981
 11
193.9015733889
 21
189.5880065929
  0
LINE
  5
2ED
100
AcDbEntity
  8
ASSEM_MEMBER
100
AcDbLine
 62
7
  6
CONTINUOUS
 10
194.4364728856
 20
211.6176223674
 11
194.4364728856
 21
209.4078425405
  0
LINE
  5
2EE
100
AcDbEntity
  8
ASSEM_MEMBER
100
AcDbLine
 62
7
  6
CONTINUOUS
 10
194.4364728856
 20
201.5530220681
 11
194.4364728856
 21
191.3664234239
  0
LINE
  5
2EF
100
AcDbEntity
  8
ASSEM_MEMBER
100
AcDbLine
 62
7
  6
CONTINUOUS
 10
194.4607558338
 20
191.3498897442
 11
194.4607558338
 21
201.5430394553
  0
LINE
  5
2F0
100
AcDbEntity
  8
ASSEM_MEMBER
100
AcDbLine
 62
7
  6
CONTINUOUS
 10
194.4607558338
 20
209.4178251686
 11
194.4607558338
 21
211.6417225625
  0
LINE
  5
2F1
100
AcDbEntity
  8
ASSEM_MEMBER
100
AcDbLine
 62
7
  6
CONTINUOUS
 10
194.7714149279
 20
204.8804323043
 11
194.7714149279
 21
206.0804323043
  0
LINE
  5
2F2
100
AcDbEntity
  8
ASSEM_MEMBER
100
AcDbLine
 62
7
  6
CONTINUOUS
 10
144.7975918762
 20
206.1066092526
 11
143.7714149279
 21
206.0804323043
  0
LINE
  5
2F3
100
AcDbEntity
  8
ASSEM_MEMBER
100
AcDbLine
 62
7
  6
CONTINUOUS
 10
195.334098008
 20
204.8490091984
 11
193.739991822
 21
204.8490091984
  0
LINE
  5
2F4
100
AcDbEntity
  8
ASSEM_MEMBER
100
AcDbLine
 62
7
  6
CONTINUOUS
 10
144.8028380338
 20
204.8490091984
 11
143.2087318478
 21
204.8490091984
  0
LINE
  5
2F5
100
AcDbEntity
  8
ASSEM_MEMBER
100
AcDbLine
 62
7
  6
CONTINUOUS
 10
195.3635075746
 20
204.8804323043
 11
194.7714149279
 21
204.8804323043
  0
LINE
  5
2F6
100
AcDbEntity
  8
ASSEM_MEMBER
100
AcDbLine
 62
7
  6
CONTINUOUS
 10
143.7714149279
 20
204.8804323043
 11
143.1793222812
 21
204.8804323043
  0
LINE
  5
2F7
100
AcDbEntity
  8
ASSEM_MEMBER
100
AcDbLine
 62
7
  6
CONTINUOUS
 10
143.1793222812
 20
206.0804323043
 11
143.7714149279
 21
206.0804323043
  0
LINE
  5
2F8
100
AcDbEntity
  8
ASSEM_MEMBER
100
AcDbLine
 62
7
  6
CONTINUOUS
 10
194.7714149279
 20
206.0804323043
 11
195.3635075746
 21
206.0804323043
  0
LINE
  5
2F9
100
AcDbEntity
  8
ASSEM_MEMBER
100
AcDbLine
 62
7
  6
CONTINUOUS
 10
143.2087318478
 20
206.1118554102
 11
144.8028380338
 21
206.1118554102
  0
LINE
  5
2FA
100
AcDbEntity
  8
ASSEM_MEMBER
100
AcDbLine
 62
7
  6
CONTINUOUS
 10
193.739991822
 20
206.1118554102
 11
195.334098008
 21
206.1118554102
  0
LINE
  5
2FB
100
AcDbEntity
  8
ASSEM_MEMBER
100
AcDbLine
 62
7
  6
CONTINUOUS
 10
194.7714149278
 20
206.0804323043
 11
193.7452379796
 21
206.1066092526
  0
LINE
  5
2FC
100
AcDbEntity
  8
ASSEM_MEMBER
100
AcDbLine
 62
9
  6
CONTINUOUS
 10
192.2222557379
 20
188.0864866699
 11
192.2221900146
 21
188.0866569279
  0
LINE
  5
2FD
100
AcDbEntity
  8
ASSEM_MEMBER
100
AcDbLine
 62
9
  6
CONTINUOUS
 10
144.0820740221
 20
209.4178251533
 11
144.082256774
 21
209.4178251533
  0
LINE
  5
2FE
100
AcDbEntity
  8
ASSEM_MEMBER
100
AcDbLine
 62
9
  6
CONTINUOUS
 10
194.4605730819
 20
209.4178251686
 11
194.4607558338
 21
209.4178251686
  0
LINE
  5
2FF
100
AcDbEntity
  8
ASSEM_MEMBER
100
AcDbLine
 62
9
  6
CONTINUOUS
 10
194.4605730819
 20
201.5430394484
 11
194.4364728856
 21
201.5530220681
  0
LINE
  5
300
100
AcDbEntity
  8
ASSEM_MEMBER
100
AcDbLine
 62
7
  6
CONTINUOUS
 10
193.9015733889
 20
203.0164683981
 11
194.6806126134
 21
202.6937797857
  0
LINE
  5
301
100
AcDbEntity
  8
ASSEM_MEMBER
100
AcDbLine
 62
9
  6
CONTINUOUS
 10
194.4607558337
 20
211.6417225625
 11
194.4605730819
 21
211.6417225625
  0
LINE
  5
302
100
AcDbEntity
  8
ASSEM_MEMBER
100
AcDbLine
 62
9
  6
CONTINUOUS
 10
144.082256774
 20
211.6417225637
 11
144.0820740221
 21
211.6417225637
  0
LWPOLYLINE
  5
303
100
AcDbEntity
  8
ASSEM_MEMBER
100
AcDbPolyline
 62
7
  6
CONTINUOUS
 90
4
 70
0
 10
196.4862810456
 20
206.6502033678
 10
196.1545625469
 20
206.741218362
 10
195.7076510256
 20
206.974089902
 10
195.4340689874
 20
207.2027040092
  0
LINE
  5
304
100
AcDbEntity
  8
ASSEM_MEMBER
100
AcDbLine
 62
9
  6
CONTINUOUS
 10
195.3387174654
 20
203.6630675275
 11
195.3146172742
 21
203.6730501606
  0
LINE
  5
305
100
AcDbEntity
  8
ASSEM_MEMBER
100
AcDbLine
 62
9
  6
CONTINUOUS
 10
196.479159818
 20
204.3340478659
 11
196.4862272357
 21
204.310837166
  0
LINE
  5
306
100
AcDbEntity
  8
ASSEM_MEMBER
100
AcDbLine
 62
9
  6
CONTINUOUS
 10
196.4862272356
 20
204.310837166
 11
196.4862602483
 21
204.3106574205
  0
LINE
  5
307
100
AcDbEntity
  8
ASSEM_MEMBER
100
AcDbLine
 62
9
  6
CONTINUOUS
 10
203.0837976582
 20
147.6783576633
 11
203.0837967821
 21
186.3364601956
  0
LINE
  5
308
100
AcDbEntity
  8
ASSEM_MEMBER
100
AcDbLine
 62
9
  6
CONTINUOUS
 10
204.2644862298
 20
186.8361103873
 11
204.2644871204
 21
147.5341683278
  0
LINE
  5
309
100
AcDbEntity
  8
ASSEM_MEMBER
100
AcDbLine
 62
7
  6
CONTINUOUS
 10
204.6746923936
 20
186.6098248002
 11
204.6746932883
 21
147.1289334306
  0
LINE
  5
30A
100
AcDbEntity
  8
ASSEM_MEMBER
100
AcDbLine
 62
7
  6
CONTINUOUS
 10
145.8363674458
 20
214.5805907653
 11
192.7064624101
 21
214.5805907653
  0
LINE
  5
30B
100
AcDbEntity
  8
ASSEM_MEMBER
100
AcDbLine
 62
7
  6
CONTINUOUS
 10
147.6042248648
 20
215.115490262
 11
190.9386049911
 21
215.115490262
  0
LINE
  5
30C
100
AcDbEntity
  8
ASSEM_MEMBER
100
AcDbLine
 62
7
  6
CONTINUOUS
 10
190.9627051873
 20
215.1397732102
 11
147.5801246681
 21
215.1397732102
  0
LINE
  5
30D
100
AcDbEntity
  8
ASSEM_MEMBER
100
AcDbLine
 62
9
  6
CONTINUOUS
 10
195.3387174704
 20
203.6630675325
 11
195.3388466955
 21
203.6629383074
  0
LINE
  5
30E
100
AcDbEntity
  8
ASSEM_MEMBER
100
AcDbLine
 62
9
  6
CONTINUOUS
 10
195.4340690182
 20
203.75816063
 11
195.4339397931
 21
203.7582898551
  0
LINE
  5
30F
100
AcDbEntity
  8
ASSEM_MEMBER
100
AcDbLine
 62
9
  6
CONTINUOUS
 10
195.0439884135
 20
204.1588834522
 11
195.4222180905
 21
203.7806509168
  0
LINE
  5
310
100
AcDbEntity
  8
ASSEM_MEMBER
100
AcDbLine
 62
7
  6
CONTINUOUS
 10
193.9015733889
 20
207.9443962104
 11
195.0439866484
 21
206.8019829311
  0
LINE
  5
311
100
AcDbEntity
  8
ASSEM_MEMBER
100
AcDbLine
 62
7
  6
CONTINUOUS
 10
195.334098008
 20
206.1118554102
 11
195.3635075746
 21
206.0804323043
  0
LINE
  5
312
100
AcDbEntity
  8
ASSEM_MEMBER
100
AcDbLine
 62
9
  6
CONTINUOUS
 10
195.4222180629
 20
203.7806509444
 11
195.4339397763
 21
203.758289838
  0
LINE
  5
313
100
AcDbEntity
  8
ASSEM_MEMBER
100
AcDbLine
 62
7
  6
CONTINUOUS
 10
195.4222169694
 20
207.1802147533
 11
195.3146172742
 21
207.2878144479
  0
LINE
  5
314
100
AcDbEntity
  8
ASSEM_MEMBER
100
AcDbLine
 62
7
  6
CONTINUOUS
 10
195.4340689875
 20
207.2027040093
 11
195.3388466871
 21
207.2979263096
  0
LWPOLYLINE
  5
315
100
AcDbEntity
  8
ASSEM_MEMBER
100
AcDbPolyline
 62
7
  6
CONTINUOUS
 90
5
 70
0
 10
195.3388466874
 20
207.2979263093
 10
195.0149465084
 20
207.6812104077
 10
194.6921559746
 20
208.2628336059
 10
194.5054168142
 20
208.9022402147
 10
194.4607558338
 20
209.4178251686
  0
LINE
  5
316
100
AcDbEntity
  8
ASSEM_MEMBER
100
AcDbLine
 62
7
  6
CONTINUOUS
 10
134.2799297714
 20
55.2391633698
 11
133.8746948927
 21
43.5634018606
  0
LINE
  5
317
100
AcDbEntity
  8
ASSEM_MEMBER
100
AcDbLine
 62
9
  6
CONTINUOUS
 10
134.3743903062
 20
43.5634018606
 11
134.77962321
 21
55.2391064674
  0
LINE
  5
318
100
AcDbEntity
  8
ASSEM_MEMBER
100
AcDbLine
 62
9
  6
CONTINUOUS
 10
136.5820740221
 20
43.3717184559
 11
136.5820740221
 21
43.0612486068
  0
LINE
  5
319
100
AcDbEntity
  8
ASSEM_MEMBER
100
AcDbLine
 62
7
  6
CONTINUOUS
 10
136.2889647395
 20
43.5638094576
 11
136.282256774
 21
43.3717184564
  0
LINE
  5
31A
100
AcDbEntity
  8
ASSEM_MEMBER
100
AcDbLine
 62
9
  6
CONTINUOUS
 10
136.5820740221
 20
43.3717184559
 11
136.5887842166
 21
43.5638732866
  0
LINE
  5
31B
100
AcDbEntity
  8
ASSEM_MEMBER
100
AcDbLine
 62
7
  6
CONTINUOUS
 10
148.3729412831
 20
83.724897233
 11
135.458756667
 21
59.6138768385
  0
LINE
  5
31C
100
AcDbEntity
  8
ASSEM_MEMBER
100
AcDbLine
 62
9
  6
CONTINUOUS
 10
135.8994795424
 20
59.3950844717
 11
148.8132086422
 21
83.5052544089
  0
LINE
  5
31D
100
AcDbEntity
  8
ASSEM_MEMBER
100
AcDbLine
 62
7
  6
CONTINUOUS
 10
204.6746932883
 20
43.57847459
 11
193.9765159588
 21
43.5760906562
  0
LINE
  5
31E
100
AcDbEntity
  8
ASSEM_MEMBER
100
AcDbLine
 62
7
  6
CONTINUOUS
 10
201.9607558327
 20
43.0612486068
 11
136.582074022
 21
43.0612486068
  0
LINE
  5
31F
100
AcDbEntity
  8
ASSEM_MEMBER
100
AcDbLine
 62
9
  6
CONTINUOUS
 10
136.5820740221
 20
43.3717184559
 11
147.0057265095
 21
43.3717184559
  0
LINE
  5
320
100
AcDbEntity
  8
ASSEM_MEMBER
100
AcDbLine
 62
9
  6
CONTINUOUS
 10
191.5371033463
 20
43.3717184559
 11
201.9607558338
 21
43.3717184559
  0
LINE
  5
321
100
AcDbEntity
  8
ASSEM_MEMBER
100
AcDbLine
 62
7
  6
CONTINUOUS
 10
133.8746948927
 20
43.5634018606
 11
144.5708600972
 21
43.565572604
  0
LINE
  5
322
100
AcDbEntity
  8
ASSEM_MEMBER
100
AcDbLine
 62
9
  6
CONTINUOUS
 10
147.4684124956
 20
43.5699748101
 11
191.0744173601
 21
43.5699748101
  0
LINE
  5
323
100
AcDbEntity
  8
ASSEM_MEMBER
100
AcDbLine
 62
9
  6
CONTINUOUS
 10
147.4684124958
 20
43.5699748101
 11
147.4684124958
 21
43.0612486068
  0
LINE
  5
324
100
AcDbEntity
  8
ASSEM_MEMBER
100
AcDbLine
 62
7
  6
CONTINUOUS
 10
149.4453638268
 20
75.7570638106
 11
149.4362821416
 21
74.6903841875
  0
LINE
  5
325
100
AcDbEntity
  8
ASSEM_MEMBER
100
AcDbLine
 62
7
  6
CONTINUOUS
 10
147.4188547214
 20
67.1803094652
 11
147.3878528663
 21
65.2987793255
  0
LINE
  5
326
100
AcDbEntity
  8
ASSEM_MEMBER
100
AcDbLine
 62
7
  6
CONTINUOUS
 10
147.3698393307
 20
66.5563400812
 11
146.6402335181
 21
45.56480967
  0
LINE
  5
327
100
AcDbEntity
  8
ASSEM_MEMBER
100
AcDbLine
 62
7
  6
CONTINUOUS
 10
147.7659032434
 20
66.4071231799
 11
146.9687170823
 21
43.5786983552
  0
LINE
  5
328
100
AcDbEntity
  8
ASSEM_MEMBER
100
AcDbLine
 62
9
  6
CONTINUOUS
 10
147.4684124956
 20
43.5699748101
 11
148.2655986569
 21
66.3983996347
  0
LINE
  5
329
100
AcDbEntity
  8
ASSEM_MEMBER
100
AcDbLine
 62
7
  6
CONTINUOUS
 10
147.7533783086
 20
66.0484559742
 11
147.3213924429
 21
65.1624719123
  0
LINE
  5
32A
100
AcDbEntity
  8
ASSEM_MEMBER
100
AcDbLine
 62
7
  6
CONTINUOUS
 10
147.2351536041
 20
62.6812893657
 11
147.6667021874
 21
63.5663766135
  0
LINE
  5
32B
100
AcDbEntity
  8
ASSEM_MEMBER
100
AcDbLine
 62
9
  6
CONTINUOUS
 10
158.9485731094
 20
90.0590819153
 11
158.9486758517
 21
89.5764253045
  0
LINE
  5
32C
100
AcDbEntity
  8
ASSEM_MEMBER
100
AcDbLine
 62
9
  6
CONTINUOUS
 10
169.2661525325
 20
88.2666651939
 11
169.2659184389
 21
88.0674923599
  0
LINE
  5
32D
100
AcDbEntity
  8
ASSEM_MEMBER
100
AcDbLine
 62
7
  6
CONTINUOUS
 10
146.6402335181
 20
45.56480967
 11
144.5708600972
 21
43.565572604
  0
LINE
  5
32E
100
AcDbEntity
  8
ASSEM_MEMBER
100
AcDbLine
 62
9
  6
CONTINUOUS
 10
183.0714149304
 20
66.5649576287
 11
184.0714149205
 21
66.5824102308
  0
LINE
  5
32F
100
AcDbEntity
  8
ASSEM_MEMBER
100
AcDbLine
 62
9
  6
CONTINUOUS
 10
155.4714149255
 20
66.5649567173
 11
154.4714149353
 21
66.5824089276
  0
LINE
  5
330
100
AcDbEntity
  8
ASSEM_MEMBER
100
AcDbLine
 62
7
  6
CONTINUOUS
 10
193.9765159588
 20
43.5760906562
 11
191.9062914868
 21
45.5744464364
  0
LINE
  5
331
100
AcDbEntity
  8
ASSEM_MEMBER
100
AcDbLine
 62
9
  6
CONTINUOUS
 10
179.5811230741
 20
89.5808177805
 11
179.5810203318
 21
90.0634743913
  0
LINE
  5
332
100
AcDbEntity
  8
ASSEM_MEMBER
100
AcDbLine
 62
7
  6
CONTINUOUS
 10
189.0882836095
 20
75.7680912662
 11
189.0977196057
 21
74.7125862293
  0
LINE
  5
333
100
AcDbEntity
  8
ASSEM_MEMBER
100
AcDbLine
 62
7
  6
CONTINUOUS
 10
190.8761276684
 20
63.5663766136
 11
191.3050782287
 21
62.6866178181
  0
LINE
  5
334
100
AcDbEntity
  8
ASSEM_MEMBER
100
AcDbLine
 62
7
  6
CONTINUOUS
 10
191.2178326558
 20
65.1698651111
 11
190.7894515472
 21
66.0484559742
  0
LINE
  5
335
100
AcDbEntity
  8
ASSEM_MEMBER
100
AcDbLine
 62
7
  6
CONTINUOUS
 10
191.1687931343
 20
66.5656638309
 11
191.9062914868
 21
45.5744464364
  0
LINE
  5
336
100
AcDbEntity
  8
ASSEM_MEMBER
100
AcDbLine
 62
9
  6
CONTINUOUS
 10
190.2772311989
 20
66.3983996353
 11
191.0744173601
 21
43.5699748101
  0
LINE
  5
337
100
AcDbEntity
  8
ASSEM_MEMBER
100
AcDbLine
 62
7
  6
CONTINUOUS
 10
191.5741127736
 20
43.5786983552
 11
190.7769266124
 21
66.4071231799
  0
LINE
  5
338
100
AcDbEntity
  8
ASSEM_MEMBER
100
AcDbLine
 62
7
  6
CONTINUOUS
 10
191.1502047417
 20
65.3084432227
 11
191.118313334
 21
67.1947559864
  0
LINE
  5
339
100
AcDbEntity
  8
ASSEM_MEMBER
100
AcDbLine
 62
9
  6
CONTINUOUS
 10
191.0744173601
 20
43.0612486068
 11
191.0744173601
 21
43.5699748101
  0
LINE
  5
33A
100
AcDbEntity
  8
ASSEM_MEMBER
100
AcDbLine
 62
9
  6
CONTINUOUS
 10
179.5820137375
 20
89.5808179701
 11
158.9471854551
 21
89.5764249872
  0
LINE
  5
33B
100
AcDbEntity
  8
ASSEM_MEMBER
100
AcDbLine
 62
7
  6
CONTINUOUS
 10
173.1927722956
 20
88.0678095668
 11
165.312627486
 21
88.0661271555
  0
LINE
  5
33C
100
AcDbEntity
  8
ASSEM_MEMBER
100
AcDbLine
 62
7
  6
CONTINUOUS
 10
158.9485731101
 20
90.0590819153
 11
179.5810203318
 21
90.0634743913
  0
LINE
  5
33D
100
AcDbEntity
  8
ASSEM_MEMBER
100
AcDbLine
 62
9
  6
CONTINUOUS
 10
189.7194711313
 20
83.5134094351
 11
202.6431683691
 21
59.4092928801
  0
LINE
  5
33E
100
AcDbEntity
  8
ASSEM_MEMBER
100
AcDbLine
 62
7
  6
CONTINUOUS
 10
203.0837976582
 20
59.6282736458
 11
190.1593481807
 21
83.7337932106
  0
LINE
  5
33F
100
AcDbEntity
  8
ASSEM_MEMBER
100
AcDbLine
 62
9
  6
CONTINUOUS
 10
203.7647936702
 20
55.2537945008
 11
204.1749978974
 21
43.578261828
  0
LINE
  5
340
100
AcDbEntity
  8
ASSEM_MEMBER
100
AcDbLine
 62
9
  6
CONTINUOUS
 10
201.9535596952
 20
43.5777889023
 11
201.9607558338
 21
43.3717184559
  0
LINE
  5
341
100
AcDbEntity
  8
ASSEM_MEMBER
100
AcDbLine
 62
7
  6
CONTINUOUS
 10
202.2605730818
 20
43.371718459
 11
202.2533747144
 21
43.5778527304
  0
LINE
  5
342
100
AcDbEntity
  8
ASSEM_MEMBER
100
AcDbLine
 62
9
  6
CONTINUOUS
 10
201.9607558338
 20
43.0612486068
 11
201.9607558338
 21
43.3717184559
  0
LINE
  5
343
100
AcDbEntity
  8
ASSEM_MEMBER
100
AcDbLine
 62
7
  6
CONTINUOUS
 10
204.6746932883
 20
43.57847459
 11
204.2644871204
 21
55.2540624982
  0
LINE
  5
344
100
AcDbEntity
  8
ASSEM_MEMBER
100
AcDbLine
 62
9
  6
CONTINUOUS
 10
293.1904496729
 20
147.6783577366
 11
297.5646608206
 21
147.534168323
  0
LINE
  5
345
100
AcDbEntity
  8
ASSEM_MEMBER
100
AcDbLine
 62
9
  6
CONTINUOUS
 10
262.7552489268
 20
148.7256547541
 11
269.0849301085
 21
148.5150963788
  0
LINE
  5
346
100
AcDbEntity
  8
ASSEM_MEMBER
100
AcDbLine
 62
7
  6
CONTINUOUS
 10
263.2379053485
 20
148.2260595058
 11
309.2404614906
 21
146.6292380398
  0
LINE
  5
347
100
AcDbEntity
  8
ASSEM_MEMBER
100
AcDbLine
 62
9
  6
CONTINUOUS
 10
293.1904496728
 20
147.6783576633
 11
269.084930108
 21
148.5150986435
  0
LINE
  5
348
100
AcDbEntity
  8
ASSEM_MEMBER
100
AcDbLine
 62
9
  6
CONTINUOUS
 10
309.2402487287
 20
147.1289334306
 11
297.5646608205
 21
147.5341683278
  0
LINE
  5
349
100
AcDbEntity
  8
ASSEM_MEMBER
100
AcDbLine
 62
9
  6
CONTINUOUS
 10
309.2400249634
 20
148.824836686
 11
309.7574747118
 21
148.824836686
  0
LINE
  5
34A
100
AcDbEntity
  8
ASSEM_MEMBER
100
AcDbLine
 62
9
  6
CONTINUOUS
 10
309.4470048628
 20
149.7681628082
 11
309.7574747118
 21
149.7681628082
  0
LINE
  5
34B
100
AcDbEntity
  8
ASSEM_MEMBER
100
AcDbLine
 62
7
  6
CONTINUOUS
 10
309.2397491465
 20
149.4755830891
 11
309.4470048627
 21
149.46834556
  0
LINE
  5
34C
100
AcDbEntity
  8
ASSEM_MEMBER
100
AcDbLine
 62
9
  6
CONTINUOUS
 10
309.4470048596
 20
149.7681628083
 11
309.2396853175
 21
149.7754025662
  0
LINE
  5
34D
100
AcDbEntity
  8
ASSEM_MEMBER
100
AcDbLine
 62
7
  6
CONTINUOUS
 10
262.7552489274
 20
148.7256521771
 11
262.7487647126
 21
179.1834666493
  0
LINE
  5
34E
100
AcDbEntity
  8
ASSEM_MEMBER
100
AcDbLine
 62
7
  6
CONTINUOUS
 10
308.7568655388
 20
215.115490262
 11
307.7574747118
 21
214.5805907653
  0
LINE
  5
34F
100
AcDbEntity
  8
ASSEM_MEMBER
100
AcDbLine
 62
9
  6
CONTINUOUS
 10
269.0779223282
 20
181.432215741
 11
269.084930108
 21
148.5150986435
  0
LINE
  5
350
100
AcDbEntity
  8
ASSEM_MEMBER
100
AcDbLine
 62
9
  6
CONTINUOUS
 10
307.7574747067
 20
206.8019829392
 11
308.7568655486
 21
207.1802147567
  0
LINE
  5
351
100
AcDbEntity
  8
ASSEM_MEMBER
100
AcDbLine
 62
7
  6
CONTINUOUS
 10
282.5733492263
 20
165.5629514427
 11
282.579808591
 21
165.5628391264
  0
LWPOLYLINE
  5
352
100
AcDbEntity
  8
ASSEM_MEMBER
100
AcDbPolyline
 62
7
  6
CONTINUOUS
 90
19
 70
0
 10
282.579780972
 20
165.5628455908
 10
283.0633798525
 20
165.546321501
 10
284.1117478308
 20
165.4546759135
 10
285.0452951228
 20
165.3047225649
 10
285.8771639032
 20
165.1101007827
 10
286.6273717348
 20
164.8765911344
 10
287.2861546578
 20
164.6157227113
 10
287.8300575303
 20
164.3498012479
 10
288.2973088493
 20
164.0722972163
 10
288.7111323268
 20
163.7726421789
 10
289.0765031605
 20
163.4423640491
 10
289.3820213049
 20
163.0797602297
 10
289.6103961345
 20
162.6837623581
 10
289.7353172038
 20
162.2627624482
 10
289.7366487358
 20
161.8426210735
 10
289.6270999434
 20
161.4516576439
 10
289.4365952491
 20
161.0961992402
 10
289.1756628452
 20
160.7598246753
 10
288.9384945809
 20
160.5194728881
  0
LINE
  5
353
100
AcDbEntity
  8
ASSEM_MEMBER
100
AcDbLine
 62
7
  6
CONTINUOUS
 10
305.4574747118
 20
206.0302729955
 11
305.9571701253
 21
206.5477227438
  0
LINE
  5
354
100
AcDbEntity
  8
ASSEM_MEMBER
100
AcDbLine
 62
7
  6
CONTINUOUS
 10
309.2328274994
 20
181.9881159058
 11
309.4407476125
 21
181.9997312331
  0
LINE
  5
355
100
AcDbEntity
  8
ASSEM_MEMBER
100
AcDbLine
 62
9
  6
CONTINUOUS
 10
309.2332531123
 20
179.9889160425
 11
309.4470045874
 21
180.0008564228
  0
LINE
  5
356
100
AcDbEntity
  8
ASSEM_MEMBER
100
AcDbLine
 62
9
  6
CONTINUOUS
 10
309.7574747118
 20
180.0008563923
 11
309.4470048628
 21
180.0008563923
  0
LINE
  5
357
100
AcDbEntity
  8
ASSEM_MEMBER
100
AcDbLine
 62
9
  6
CONTINUOUS
 10
309.4470048755
 20
182.5240900546
 11
309.2340146988
 21
182.5140995979
  0
LINE
  5
358
100
AcDbEntity
  8
ASSEM_MEMBER
100
AcDbLine
 62
9
  6
CONTINUOUS
 10
309.4470048628
 20
182.5240900683
 11
309.7574747118
 21
182.5240900683
  0
LWPOLYLINE
  5
359
100
AcDbEntity
  8
ASSEM_MEMBER
100
AcDbPolyline
 62
7
  6
CONTINUOUS
 90
4
 70
0
 10
293.2870617922
 20
186.8189293752
 10
285.6445162656
 20
184.9150662878
 10
277.5081152263
 20
183.2555815963
 10
269.2448951466
 20
181.9274413261
  0
LWPOLYLINE
  5
35A
100
AcDbEntity
  8
ASSEM_MEMBER
100
AcDbPolyline
 62
7
  6
CONTINUOUS
 90
9
 70
0
 10
269.2449123998
 20
181.9274437389
 10
267.6062908288
 20
181.6468138026
 10
266.1212707669
 20
181.2904142787
 10
264.9687224469
 20
180.9229213967
 10
264.1288845259
 20
180.5754407505
 10
263.5339615446
 20
180.2514086903
 10
263.1136480039
 20
179.9275606382
 10
262.8386494205
 20
179.561194288
 10
262.7487646125
 20
179.1835032178
  0
LINE
  5
35B
100
AcDbEntity
  8
ASSEM_MEMBER
100
AcDbLine
 62
7
  6
CONTINUOUS
 10
309.7574742813
 20
184.8590175116
 11
309.4466648678
 21
184.8590175116
  0
LINE
  5
35C
100
AcDbEntity
  8
ASSEM_MEMBER
100
AcDbLine
 62
9
  6
CONTINUOUS
 10
309.2321217842
 20
185.3030092176
 11
309.4470049001
 21
185.2969644587
  0
LINE
  5
35D
100
AcDbEntity
  8
ASSEM_MEMBER
100
AcDbLine
 62
9
  6
CONTINUOUS
 10
293.1904496728
 20
147.6783576633
 11
293.182219685
 21
186.3364601956
  0
LWPOLYLINE
  5
35E
100
AcDbEntity
  8
ASSEM_MEMBER
100
AcDbPolyline
 62
7
  6
CONTINUOUS
 90
4
 70
0
 10
297.5835591379
 20
187.3360198349
 10
296.1996044681
 20
187.3029666985
 10
294.6377292035
 20
187.1172648643
 10
293.2870525876
 20
186.8189268672
  0
LINE
  5
35F
100
AcDbEntity
  8
ASSEM_MEMBER
100
AcDbLine
 62
9
  6
CONTINUOUS
 10
297.5562937649
 20
186.8361103873
 11
309.2318435761
 21
186.6098248002
  0
LINE
  5
360
100
AcDbEntity
  8
ASSEM_MEMBER
100
AcDbLine
 62
7
  6
CONTINUOUS
 10
309.2318436591
 20
187.1105130921
 11
297.583538782
 21
187.3357858787
  0
LINE
  5
361
100
AcDbEntity
  8
ASSEM_MEMBER
100
AcDbLine
 62
9
  6
CONTINUOUS
 10
308.7568657966
 20
188.1028389177
 11
309.4470048339
 21
188.0866486968
  0
LINE
  5
362
100
AcDbEntity
  8
ASSEM_MEMBER
100
AcDbLine
 62
9
  6
CONTINUOUS
 10
297.5562937649
 20
186.8361103873
 11
297.5646608205
 21
147.5341683278
  0
LINE
  5
363
100
AcDbEntity
  8
ASSEM_MEMBER
100
AcDbLine
 62
9
  6
CONTINUOUS
 10
309.4470048628
 20
191.3498897442
 11
309.7574747118
 21
191.3498897442
  0
LINE
  5
364
100
AcDbEntity
  8
ASSEM_MEMBER
100
AcDbLine
 62
9
  6
CONTINUOUS
 10
308.7568655388
 20
191.3664234239
 11
309.4470048467
 21
191.3498897448
  0
LINE
  5
365
100
AcDbEntity
  8
ASSEM_MEMBER
100
AcDbLine
 62
7
  6
CONTINUOUS
 10
288.9385656296
 20
160.519538751
 11
288.9385110712
 21
160.5194881833
  0
LINE
  5
366
100
AcDbEntity
  8
ASSEM_MEMBER
100
AcDbLine
 62
7
  6
CONTINUOUS
 10
305.4574747118
 20
206.0302729955
 11
305.4574747118
 21
204.9305916131
  0
LINE
  5
367
100
AcDbEntity
  8
ASSEM_MEMBER
100
AcDbLine
 62
7
  6
CONTINUOUS
 10
305.9571701253
 20
206.5477227438
 11
305.9571701253
 21
204.4131418647
  0
LWPOLYLINE
  5
368
100
AcDbEntity
  8
ASSEM_MEMBER
100
AcDbPolyline
 62
7
  6
CONTINUOUS
 90
6
 70
0
 10
288.9385656296
 20
160.519538751
 10
288.1964435847
 20
159.9590327754
 10
287.2117758031
 20
159.4473306723
 10
285.8158040074
 20
158.9684766441
 10
284.0415313304
 20
158.6312364858
 10
282.6054025872
 20
158.5316670676
  0
LINE
  5
369
100
AcDbEntity
  8
ASSEM_MEMBER
100
AcDbLine
 62
7
  6
CONTINUOUS
 10
307.7574747118
 20
204.3502738433
 11
307.7574747118
 21
187.1390267003
  0
LINE
  5
36A
100
AcDbEntity
  8
ASSEM_MEMBER
100
AcDbLine
 62
7
  6
CONTINUOUS
 10
307.7574747118
 20
206.6105907653
 11
307.7574747118
 21
214.5805907653
  0
LINE
  5
36B
100
AcDbEntity
  8
ASSEM_MEMBER
100
AcDbLine
 62
7
  6
CONTINUOUS
 10
308.7568655387
 20
203.6730501606
 11
308.7568656392
 21
203.7806509444
  0
LINE
  5
36C
100
AcDbEntity
  8
ASSEM_MEMBER
100
AcDbLine
 62
7
  6
CONTINUOUS
 10
308.7568655388
 20
211.6176223674
 11
308.7568655388
 21
209.4078425405
  0
LINE
  5
36D
100
AcDbEntity
  8
ASSEM_MEMBER
100
AcDbLine
 62
7
  6
CONTINUOUS
 10
308.7568655388
 20
201.5530220681
 11
308.7568655388
 21
191.3664234239
  0
LINE
  5
36E
100
AcDbEntity
  8
ASSEM_MEMBER
100
AcDbLine
 62
7
  6
CONTINUOUS
 10
308.7568655388
 20
188.1028332375
 11
308.7568655388
 21
187.1196989475
  0
LINE
  5
36F
100
AcDbEntity
  8
ASSEM_MEMBER
100
AcDbLine
 62
7
  6
CONTINUOUS
 10
308.7568655513
 20
207.1802147533
 11
308.7568655388
 21
207.2878144479
  0
LINE
  5
370
100
AcDbEntity
  8
ASSEM_MEMBER
100
AcDbLine
 62
7
  6
CONTINUOUS
 10
307.7574747118
 20
207.9443962105
 11
309.2130091806
 21
208.2670848228
  0
LINE
  5
371
100
AcDbEntity
  8
ASSEM_MEMBER
100
AcDbLine
 62
9
  6
CONTINUOUS
 10
309.7574747118
 20
201.5430394553
 11
309.4470048628
 21
201.5430394553
  0
LINE
  5
372
100
AcDbEntity
  8
ASSEM_MEMBER
100
AcDbLine
 62
9
  6
CONTINUOUS
 10
309.4470048627
 20
201.5430394484
 11
308.7568655388
 21
201.5530220681
  0
LINE
  5
373
100
AcDbEntity
  8
ASSEM_MEMBER
100
AcDbLine
 62
7
  6
CONTINUOUS
 10
309.2531507146
 20
146.6292393905
 11
309.2528311176
 21
148.1304584451
  0
LINE
  5
374
100
AcDbEntity
  8
ASSEM_MEMBER
100
AcDbLine
 62
7
  6
CONTINUOUS
 10
309.254747247
 20
148.3249141155
 11
309.254788645
 21
148.1304586534
  0
LINE
  5
375
100
AcDbEntity
  8
ASSEM_MEMBER
100
AcDbLine
 62
9
  6
CONTINUOUS
 10
309.4466636453
 20
184.8581875953
 11
309.4470048755
 21
182.5240900546
  0
LINE
  5
376
100
AcDbEntity
  8
ASSEM_MEMBER
100
AcDbLine
 62
7
  6
CONTINUOUS
 10
309.2404614906
 20
146.6292380398
 11
309.2318437507
 21
187.1100822704
  0
LINE
  5
377
100
AcDbEntity
  8
ASSEM_MEMBER
100
AcDbLine
 62
9
  6
CONTINUOUS
 10
309.4470048696
 20
203.758289838
 11
309.4470048627
 21
203.6630675275
  0
LINE
  5
378
100
AcDbEntity
  8
ASSEM_MEMBER
100
AcDbLine
 62
9
  6
CONTINUOUS
 10
309.4470048627
 20
201.5430394484
 11
309.4470048467
 21
191.3498897448
  0
LINE
  5
379
100
AcDbEntity
  8
ASSEM_MEMBER
100
AcDbLine
 62
9
  6
CONTINUOUS
 10
309.4470045874
 20
180.0008564228
 11
309.4470048596
 21
149.7681628083
  0
LINE
  5
37A
100
AcDbEntity
  8
ASSEM_MEMBER
100
AcDbLine
 62
9
  6
CONTINUOUS
 10
309.4470048627
 20
185.2969644011
 11
309.4470048627
 21
188.0866450495
  0
LINE
  5
37B
100
AcDbEntity
  8
ASSEM_MEMBER
100
AcDbLine
 62
9
  6
CONTINUOUS
 10
309.4470048627
 20
204.310837166
 11
309.4470048627
 21
206.6500274454
  0
LINE
  5
37C
100
AcDbEntity
  8
ASSEM_MEMBER
100
AcDbLine
 62
9
  6
CONTINUOUS
 10
309.4470048627
 20
209.4178251615
 11
309.4470048627
 21
211.6417225668
  0
LINE
  5
37D
100
AcDbEntity
  8
ASSEM_MEMBER
100
AcDbLine
 62
9
  6
CONTINUOUS
 10
309.4470048628
 20
207.2977970801
 11
309.4470048693
 21
207.2025747843
  0
LINE
  5
37E
100
AcDbEntity
  8
ASSEM_MEMBER
100
AcDbLine
 62
7
  6
CONTINUOUS
 10
309.7574747118
 20
148.824836686
 11
309.7574747118
 21
214.8397732102
  0
LINE
  5
37F
100
AcDbEntity
  8
ASSEM_MEMBER
100
AcDbLine
 62
7
  6
CONTINUOUS
 10
305.9571701253
 20
206.5477227438
 11
308.6974820198
 21
206.6434165438
  0
LINE
  5
380
100
AcDbEntity
  8
ASSEM_MEMBER
100
AcDbLine
 62
9
  6
CONTINUOUS
 10
309.4470048627
 20
206.6500274454
 11
308.7568544044
 21
206.626818477
  0
LINE
  5
381
100
AcDbEntity
  8
ASSEM_MEMBER
100
AcDbLine
 62
9
  6
CONTINUOUS
 10
309.4470048627
 20
203.6630675275
 11
308.7568655387
 21
203.6730501606
  0
LINE
  5
382
100
AcDbEntity
  8
ASSEM_MEMBER
100
AcDbLine
 62
9
  6
CONTINUOUS
 10
308.7568656392
 20
203.7806509444
 11
309.4470048696
 21
203.758289838
  0
LINE
  5
383
100
AcDbEntity
  8
ASSEM_MEMBER
100
AcDbLine
 62
9
  6
CONTINUOUS
 10
308.756806242
 20
204.3340478659
 11
309.4470048627
 21
204.310837166
  0
LINE
  5
384
100
AcDbEntity
  8
ASSEM_MEMBER
100
AcDbLine
 62
7
  6
CONTINUOUS
 10
305.9571701253
 20
204.4131418648
 11
308.6962539524
 21
204.3174909498
  0
LINE
  5
385
100
AcDbEntity
  8
ASSEM_MEMBER
100
AcDbLine
 62
9
  6
CONTINUOUS
 10
309.4470048693
 20
207.2025747843
 11
308.7568655513
 21
207.1802147533
  0
LINE
  5
386
100
AcDbEntity
  8
ASSEM_MEMBER
100
AcDbLine
 62
9
  6
CONTINUOUS
 10
308.7568655388
 20
207.2878144479
 11
309.4470048628
 21
207.2977970801
  0
LINE
  5
387
100
AcDbEntity
  8
ASSEM_MEMBER
100
AcDbLine
 62
7
  6
CONTINUOUS
 10
307.7574747118
 20
203.0164683981
 11
309.2130091806
 21
202.6937797857
  0
LINE
  5
388
100
AcDbEntity
  8
ASSEM_MEMBER
100
AcDbLine
 62
9
  6
CONTINUOUS
 10
308.7568655388
 20
211.6176223674
 11
309.4470048627
 21
211.6417225668
  0
LINE
  5
389
100
AcDbEntity
  8
ASSEM_MEMBER
100
AcDbLine
 62
9
  6
CONTINUOUS
 10
308.7568655388
 20
209.4078425405
 11
309.4470048627
 21
209.4178251615
  0
LINE
  5
38A
100
AcDbEntity
  8
ASSEM_MEMBER
100
AcDbLine
 62
9
  6
CONTINUOUS
 10
309.4470048628
 20
209.4178251686
 11
309.7574747118
 21
209.4178251686
  0
LINE
  5
38B
100
AcDbEntity
  8
ASSEM_MEMBER
100
AcDbLine
 62
9
  6
CONTINUOUS
 10
309.7574747118
 20
211.6417225625
 11
309.4470048628
 21
211.6417225625
  0
LINE
  5
38C
100
AcDbEntity
  8
ASSEM_MEMBER
100
AcDbLine
 62
9
  6
CONTINUOUS
 10
307.7574746728
 20
204.1588834522
 11
308.7568656182
 21
203.7806509168
  0
LINE
  5
38D
100
AcDbEntity
  8
ASSEM_MEMBER
100
AcDbLine
 62
7
  6
CONTINUOUS
 10
305.4574747118
 20
204.9305916131
 11
305.9571701253
 21
204.4131418648
  0
LINE
  5
38E
100
AcDbEntity
  8
ASSEM_MEMBER
100
AcDbLine
 62
7
  6
CONTINUOUS
 10
309.4470048627
 20
215.1395904583
 11
308.7568655388
 21
215.115490262
  0
CIRCLE
  5
38F
100
AcDbEntity
  8
ASSEM_MEMBER
100
AcDbCircle
 62
7
  6
CONTINUOUS
 10
142.2712549387
 20
162.0502723151
 40
3.25
  0
CIRCLE
  5
390
100
AcDbEntity
  8
ASSEM_MEMBER
100
AcDbCircle
 62
7
  6
CONTINUOUS
 10
142.271042047
 20
162.0500594234
 40
3.0
  0
CIRCLE
  5
391
100
AcDbEntity
  8
ASSEM_MEMBER
100
AcDbCircle
 62
7
  6
CONTINUOUS
 10
142.2707443609
 20
162.0497617373
 40
1.669
  0
ARC
  5
392
100
AcDbEntity
  8
ASSEM_MEMBER
100
AcDbCircle
 62
7
  6
CONTINUOUS
 10
142.2368979813
 20
160.1078536636
 40
0.7422545243
100
AcDbArc
 50
45.1947283385
 51
132.8036925633
  0
ARC
  5
393
100
AcDbEntity
  8
ASSEM_MEMBER
100
AcDbCircle
 62
7
  6
CONTINUOUS
 10
140.5720609285
 20
161.1081887098
 40
0.7422545243
100
AcDbArc
 50
345.1960938496
 51
72.8045327148
  0
ARC
  5
394
100
AcDbEntity
  8
ASSEM_MEMBER
100
AcDbCircle
 62
7
  6
CONTINUOUS
 10
140.6059578991
 20
163.0501473746
 40
0.7422545243
100
AcDbArc
 50
285.196101489
 51
12.8061042903
  0
ARC
  5
395
100
AcDbEntity
  8
ASSEM_MEMBER
100
AcDbCircle
 62
7
  6
CONTINUOUS
 10
142.3046919225
 20
163.9917709931
 40
0.7422545243
100
AcDbArc
 50
225.1947390446
 51
312.8068402735
  0
ARC
  5
396
100
AcDbEntity
  8
ASSEM_MEMBER
100
AcDbCircle
 62
9
  6
CONTINUOUS
 10
134.7803456083
 20
147.5348882878
 40
0.5004164562
100
AcDbArc
 50
180.0822511491
 51
269.9175138757
  0
ARC
  5
397
100
AcDbEntity
  8
ASSEM_MEMBER
100
AcDbCircle
 62
7
  6
CONTINUOUS
 10
141.5496998771
 20
160.8497363373
 40
0.269
100
AcDbArc
 50
165.1908183876
 51
312.8097947912
  0
ARC
  5
398
100
AcDbEntity
  8
ASSEM_MEMBER
100
AcDbCircle
 62
7
  6
CONTINUOUS
 10
140.8709663855
 20
162.0742039041
 40
0.269
100
AcDbArc
 50
105.1919649207
 51
252.8073814225
  0
ARC
  5
399
100
AcDbEntity
  8
ASSEM_MEMBER
100
AcDbCircle
 62
7
  6
CONTINUOUS
 10
141.5920125276
 20
163.2742309624
 40
0.269
100
AcDbArc
 50
45.1947183018
 51
192.8035631727
  0
CIRCLE
  5
39A
100
AcDbEntity
  8
ASSEM_MEMBER
100
AcDbCircle
 62
7
  6
CONTINUOUS
 10
142.2709413457
 20
162.0499587221
 40
0.25
  0
ARC
  5
39B
100
AcDbEntity
  8
ASSEM_MEMBER
100
AcDbCircle
 62
7
  6
CONTINUOUS
 10
143.9695289753
 20
162.9914359468
 40
0.7422545243
100
AcDbArc
 50
165.1933712203
 51
252.8060020987
  0
ARC
  5
39C
100
AcDbEntity
  8
ASSEM_MEMBER
100
AcDbCircle
 62
7
  6
CONTINUOUS
 10
143.9356320047
 20
161.0494772821
 40
0.7422545243
100
AcDbArc
 50
105.1933681535
 51
192.8044259638
  0
ARC
  5
39D
100
AcDbEntity
  8
ASSEM_MEMBER
100
AcDbCircle
 62
7
  6
CONTINUOUS
 10
142.9494794891
 20
160.8252958071
 40
0.269
100
AcDbArc
 50
225.1947490837
 51
12.8069669598
  0
ARC
  5
39E
100
AcDbEntity
  8
ASSEM_MEMBER
100
AcDbCircle
 62
7
  6
CONTINUOUS
 10
142.9918063889
 20
163.2498046814
 40
0.269
100
AcDbArc
 50
345.1986464085
 51
132.80073807
  0
ARC
  5
39F
100
AcDbEntity
  8
ASSEM_MEMBER
100
AcDbCircle
 62
7
  6
CONTINUOUS
 10
143.6705398696
 20
162.0253371038
 40
0.269
100
AcDbArc
 50
285.1975048381
 51
72.8031536508
  0
ARC
  5
3A0
100
AcDbEntity
  8
ASSEM_MEMBER
100
AcDbCircle
 62
9
  6
CONTINUOUS
 10
150.955756267
 20
182.5287071146
 40
5.0265177835
100
AcDbArc
 50
334.0392030094
 51
359.7720728827
  0
ARC
  5
3A1
100
AcDbEntity
  8
ASSEM_MEMBER
100
AcDbCircle
 62
9
  6
CONTINUOUS
 10
151.0617828924
 20
182.5236216365
 40
4.9204739768
100
AcDbArc
 50
359.8263781976
 51
0.0054525944
  0
ARC
  5
3A2
100
AcDbEntity
  8
ASSEM_MEMBER
100
AcDbCircle
 62
7
  6
CONTINUOUS
 10
147.6402525503
 20
191.3911268788
 40
3.4993170693
100
AcDbArc
 50
211.0160214267
 51
217.0699420656
  0
ARC
  5
3A3
100
AcDbEntity
  8
ASSEM_MEMBER
100
AcDbCircle
 62
7
  6
CONTINUOUS
 10
147.5803665005
 20
191.3500598973
 40
3.4981236994
100
AcDbArc
 50
180.0027862738
 51
248.8925999304
  0
ARC
  5
3A4
100
AcDbEntity
  8
ASSEM_MEMBER
100
AcDbCircle
 62
7
  6
CONTINUOUS
 10
147.5797408087
 20
191.3496289893
 40
3.4976547456
100
AcDbArc
 50
179.9957279966
 51
248.8950407536
  0
ARC
  5
3A5
100
AcDbEntity
  8
ASSEM_MEMBER
100
AcDbCircle
 62
9
  6
CONTINUOUS
 10
141.0739803043
 20
201.5361430918
 40
3.0102219194
100
AcDbArc
 50
23.4192168243
 51
34.6540670851
  0
ARC
  5
3A6
100
AcDbEntity
  8
ASSEM_MEMBER
100
AcDbCircle
 62
9
  6
CONTINUOUS
 10
141.0766244993
 20
201.5417930211
 40
3.0055831766
100
AcDbArc
 50
10.5048885856
 51
22.5718985598
  0
ARC
  5
3A7
100
AcDbEntity
  8
ASSEM_MEMBER
100
AcDbCircle
 62
9
  6
CONTINUOUS
 10
141.0783504081
 20
201.5416402827
 40
3.0039140783
100
AcDbArc
 50
0.3217951835
 51
10.513754904
  0
ARC
  5
3A8
100
AcDbEntity
  8
ASSEM_MEMBER
100
AcDbCircle
 62
9
  6
CONTINUOUS
 10
141.0796640761
 20
201.5407259622
 40
3.0029405831
100
AcDbArc
 50
34.6438028243
 51
44.73115329
  0
ARC
  5
3A9
100
AcDbEntity
  8
ASSEM_MEMBER
100
AcDbCircle
 62
9
  6
CONTINUOUS
 10
141.1170165067
 20
201.556477226
 40
2.9626494708
100
AcDbArc
 50
22.6095096579
 51
23.3891624144
  0
ARC
  5
3AA
100
AcDbEntity
  8
ASSEM_MEMBER
100
AcDbCircle
 62
9
  6
CONTINUOUS
 10
141.1197413159
 20
201.5431801556
 40
2.9625154633
100
AcDbArc
 50
359.9972785089
 51
0.2965100816
  0
ARC
  5
3AB
100
AcDbEntity
  8
ASSEM_MEMBER
100
AcDbCircle
 62
9
  6
CONTINUOUS
 10
141.112544076
 20
201.5713531788
 40
2.9580275424
100
AcDbArc
 50
44.7579265033
 51
45.0021104675
  0
ARC
  5
3AC
100
AcDbEntity
  8
ASSEM_MEMBER
100
AcDbCircle
 62
9
  6
CONTINUOUS
 10
141.6791931644
 20
202.3137868564
 40
2.0331924695
100
AcDbArc
 50
55.8860681655
 51
68.912094241
  0
ARC
  5
3AD
100
AcDbEntity
  8
ASSEM_MEMBER
100
AcDbCircle
 62
7
  6
CONTINUOUS
 10
141.7075389877
 20
202.3678343769
 40
1.9982044036
100
AcDbArc
 50
44.9947604449
 51
79.7338304424
  0
ARC
  5
3AE
100
AcDbEntity
  8
ASSEM_MEMBER
100
AcDbCircle
 62
9
  6
CONTINUOUS
 10
141.7049871847
 20
202.3517311199
 40
1.9873111783
100
AcDbArc
 50
45.5125789362
 51
55.8882251417
  0
ARC
  5
3AF
100
AcDbEntity
  8
ASSEM_MEMBER
100
AcDbCircle
 62
9
  6
CONTINUOUS
 10
141.696089801
 20
202.357706972
 40
1.9861342987
100
AcDbArc
 50
68.911015579
 51
79.1739226716
  0
ARC
  5
3B0
100
AcDbEntity
  8
ASSEM_MEMBER
100
AcDbCircle
 62
9
  6
CONTINUOUS
 10
141.7378867391
 20
202.3873529674
 40
1.9388445221
100
AcDbArc
 50
44.9986104597
 51
45.4685052108
  0
ARC
  5
3B1
100
AcDbEntity
  8
ASSEM_MEMBER
100
AcDbCircle
 62
9
  6
CONTINUOUS
 10
141.7065077571
 20
202.4043700243
 40
1.9383455298
100
AcDbArc
 50
79.2173122323
 51
79.5943980887
  0
ARC
  5
3B2
100
AcDbEntity
  8
ASSEM_MEMBER
100
AcDbCircle
 62
7
  6
CONTINUOUS
 10
142.2714149279
 20
205.4804323043
 40
1.1893409059
100
AcDbArc
 50
100.4082911419
 51
259.5918050131
  0
ARC
  5
3B3
100
AcDbEntity
  8
ASSEM_MEMBER
100
AcDbCircle
 62
7
  6
CONTINUOUS
 10
142.2714149279
 20
205.4804323043
 40
1.130158461
100
AcDbArc
 50
306.8464258996
 51
326.0338398719
  0
ARC
  5
3B4
100
AcDbEntity
  8
ASSEM_MEMBER
100
AcDbCircle
 62
7
  6
CONTINUOUS
 10
142.2714149279
 20
205.4804323043
 40
1.130158461
100
AcDbArc
 50
33.9661601281
 51
53.1110151216
  0
ARC
  5
3B5
100
AcDbEntity
  8
ASSEM_MEMBER
100
AcDbCircle
 62
7
  6
CONTINUOUS
 10
142.2714149279
 20
205.4804323043
 40
1.0882535376
100
AcDbArc
 50
326.5408639775
 51
33.4591360225
  0
CIRCLE
  5
3B6
100
AcDbEntity
  8
ASSEM_MEMBER
100
AcDbCircle
 62
7
  6
CONTINUOUS
 10
142.2714149279
 20
205.4804323043
 40
1.0672904396
  0
CIRCLE
  5
3B7
100
AcDbEntity
  8
ASSEM_MEMBER
100
AcDbCircle
 62
7
  6
CONTINUOUS
 10
142.2714149279
 20
205.4804323043
 40
0.5498406912
  0
ARC
  5
3B8
100
AcDbEntity
  8
ASSEM_MEMBER
100
AcDbCircle
 62
9
  6
CONTINUOUS
 10
141.0735602556
 20
209.4196538827
 40
3.0086655888
100
AcDbArc
 50
338.2329693824
 51
349.6464473108
  0
ARC
  5
3B9
100
AcDbEntity
  8
ASSEM_MEMBER
100
AcDbCircle
 62
9
  6
CONTINUOUS
 10
141.0770430485
 20
209.4229179281
 40
3.0066691437
100
AcDbArc
 50
325.4935121561
 51
337.5508134045
  0
ARC
  5
3BA
100
AcDbEntity
  8
ASSEM_MEMBER
100
AcDbCircle
 62
9
  6
CONTINUOUS
 10
141.0782538145
 20
209.4212590036
 40
3.0047316946
100
AcDbArc
 50
315.3245726258
 51
325.5065008351
  0
ARC
  5
3BB
100
AcDbEntity
  8
ASSEM_MEMBER
100
AcDbCircle
 62
9
  6
CONTINUOUS
 10
141.0779247212
 20
209.4194682779
 40
3.0043388907
100
AcDbArc
 50
349.6349702496
 51
359.7236033275
  0
ARC
  5
3BC
100
AcDbEntity
  8
ASSEM_MEMBER
100
AcDbCircle
 62
9
  6
CONTINUOUS
 10
141.1228142983
 20
209.4178809287
 40
2.959442496
100
AcDbArc
 50
359.7501421325
 51
359.9989204813
  0
ARC
  5
3BD
100
AcDbEntity
  8
ASSEM_MEMBER
100
AcDbCircle
 62
9
  6
CONTINUOUS
 10
141.1117915423
 20
209.3900680301
 40
2.9589532563
100
AcDbArc
 50
315.0006831396
 51
315.2974617602
  0
ARC
  5
3BE
100
AcDbEntity
  8
ASSEM_MEMBER
100
AcDbCircle
 62
9
  6
CONTINUOUS
 10
141.1209054332
 20
209.4025772078
 40
2.9583640366
100
AcDbArc
 50
337.5905128429
 51
338.2000819938
  0
ARC
  5
3BF
100
AcDbEntity
  8
ASSEM_MEMBER
100
AcDbCircle
 62
9
  6
CONTINUOUS
 10
141.6791756952
 20
208.6470643466
 40
2.0331888087
100
AcDbArc
 50
291.293768158
 51
304.3197562924
  0
ARC
  5
3C0
100
AcDbEntity
  8
ASSEM_MEMBER
100
AcDbCircle
 62
9
  6
CONTINUOUS
 10
141.6957507858
 20
208.6043374687
 40
1.9873596224
100
AcDbArc
 50
280.9330584071
 51
291.2958652555
  0
ARC
  5
3C1
100
AcDbEntity
  8
ASSEM_MEMBER
100
AcDbCircle
 62
9
  6
CONTINUOUS
 10
141.7064923852
 20
208.6072197113
 40
1.9848795234
100
AcDbArc
 50
304.3169815813
 51
314.9541304799
  0
ARC
  5
3C2
100
AcDbEntity
  8
ASSEM_MEMBER
100
AcDbCircle
 62
9
  6
CONTINUOUS
 10
141.7063983011
 20
208.5570546284
 40
1.9389161329
100
AcDbArc
 50
280.4057936375
 51
280.8891317099
  0
CIRCLE
  5
3C3
100
AcDbEntity
  8
ASSEM_MEMBER
100
AcDbCircle
 62
7
  6
CONTINUOUS
 10
150.2714149279
 20
201.5504323043
 40
2.819841539
  0
CIRCLE
  5
3C4
100
AcDbEntity
  8
ASSEM_MEMBER
100
AcDbCircle
 62
7
  6
CONTINUOUS
 10
150.2714149279
 20
201.5504323043
 40
2.3023917906
  0
CIRCLE
  5
3C5
100
AcDbEntity
  8
ASSEM_MEMBER
100
AcDbCircle
 62
7
  6
CONTINUOUS
 10
150.2714149279
 20
201.5504323043
 40
2.25
  0
ARC
  5
3C6
100
AcDbEntity
  8
ASSEM_MEMBER
100
AcDbCircle
 62
7
  6
CONTINUOUS
 10
147.579390988
 20
211.6424614126
 40
3.4973009539
100
AcDbArc
 50
89.9879800682
 51
180.0121045699
  0
ARC
  5
3C7
100
AcDbEntity
  8
ASSEM_MEMBER
100
AcDbCircle
 62
9
  6
CONTINUOUS
 10
155.482269678
 20
184.8073581034
 40
0.5012708186
100
AcDbArc
 50
55.6819556455
 51
68.7008872022
  0
ARC
  5
3C8
100
AcDbEntity
  8
ASSEM_MEMBER
100
AcDbCircle
 62
9
  6
CONTINUOUS
 10
155.4817041257
 20
184.808414504
 40
0.5008255223
100
AcDbArc
 50
29.1119147751
 51
36.6210085722
  0
ARC
  5
3C9
100
AcDbEntity
  8
ASSEM_MEMBER
100
AcDbCircle
 62
9
  6
CONTINUOUS
 10
155.4824637963
 20
184.8082027342
 40
0.5004133837
100
AcDbArc
 50
68.6864672804
 51
77.6116650463
  0
ARC
  5
3CA
100
AcDbEntity
  8
ASSEM_MEMBER
100
AcDbCircle
 62
9
  6
CONTINUOUS
 10
155.4822157446
 20
184.8086019557
 40
0.500303103
100
AcDbArc
 50
36.638729951
 51
49.4905226409
  0
ARC
  5
3CB
100
AcDbEntity
  8
ASSEM_MEMBER
100
AcDbCircle
 62
9
  6
CONTINUOUS
 10
155.4819922437
 20
184.8090288676
 40
0.5002750608
100
AcDbArc
 50
16.5794791698
 51
29.0664953309
  0
ARC
  5
3CC
100
AcDbEntity
  8
ASSEM_MEMBER
100
AcDbCircle
 62
9
  6
CONTINUOUS
 10
155.4830622822
 20
184.8092656576
 40
0.499248648
100
AcDbArc
 50
49.5149097576
 51
55.6336601372
  0
ARC
  5
3CD
100
AcDbEntity
  8
ASSEM_MEMBER
100
AcDbCircle
 62
7
  6
CONTINUOUS
 10
155.514252777
 20
184.8628560288
 40
0.4643136114
100
AcDbArc
 50
70.7102411909
 51
77.623205926
  0
ARC
  5
3CE
100
AcDbEntity
  8
ASSEM_MEMBER
100
AcDbCircle
 62
7
  6
CONTINUOUS
 10
155.5173608483
 20
184.8717100406
 40
0.4549299258
100
AcDbArc
 50
48.3437705684
 51
70.711336855
  0
ARC
  5
3CF
100
AcDbEntity
  8
ASSEM_MEMBER
100
AcDbCircle
 62
9
  6
CONTINUOUS
 10
169.2637884984
 20
243.5428058748
 40
65.1810550419
100
AcDbArc
 50
260.8943855461
 51
279.1074082268
  0
ARC
  5
3D0
100
AcDbEntity
  8
ASSEM_MEMBER
100
AcDbCircle
 62
7
  6
CONTINUOUS
 10
169.2638949442
 20
243.5429123206
 40
64.6810550419
100
AcDbArc
 50
260.8943855537
 51
279.1074082268
  0
ARC
  5
3D1
100
AcDbEntity
  8
ASSEM_MEMBER
100
AcDbCircle
 62
9
  6
CONTINUOUS
 10
164.6429720859
 20
243.7362353488
 40
64.3939999481
100
AcDbArc
 50
243.0499673099
 51
255.3648027669
  0
ARC
  5
3D2
100
AcDbEntity
  8
ASSEM_MEMBER
100
AcDbCircle
 62
7
  6
CONTINUOUS
 10
29.3799966944
 20
341.6492655484
 40
201.2479721194
100
AcDbArc
 50
308.9915408143
 51
309.1877467067
  0
ARC
  5
3D3
100
AcDbEntity
  8
ASSEM_MEMBER
100
AcDbCircle
 62
9
  6
CONTINUOUS
 10
187.5898606937
 20
182.5293660209
 40
5.0293066885
100
AcDbArc
 50
180.2313386107
 51
205.91788581
  0
ARC
  5
3D4
100
AcDbEntity
  8
ASSEM_MEMBER
100
AcDbCircle
 62
7
  6
CONTINUOUS
 10
187.5406409645
 20
182.4906267095
 40
5.0041675428
100
AcDbArc
 50
179.9874985579
 51
205.6494471192
  0
ARC
  5
3D5
100
AcDbEntity
  8
ASSEM_MEMBER
100
AcDbCircle
 62
9
  6
CONTINUOUS
 10
187.4743773427
 20
182.5237668471
 40
4.9138043524
100
AcDbArc
 50
179.9962138224
 51
180.1714886946
  0
ARC
  5
3D6
100
AcDbEntity
  8
ASSEM_MEMBER
100
AcDbCircle
 62
9
  6
CONTINUOUS
 10
183.0606774493
 20
184.807253668
 40
0.5014071465
100
AcDbArc
 50
102.3998241145
 51
112.9353600997
  0
ARC
  5
3D7
100
AcDbEntity
  8
ASSEM_MEMBER
100
AcDbCircle
 62
9
  6
CONTINUOUS
 10
183.0614421446
 20
184.8081901277
 40
0.5012038148
100
AcDbArc
 50
144.691922608
 51
152.7502561863
  0
ARC
  5
3D8
100
AcDbEntity
  8
ASSEM_MEMBER
100
AcDbCircle
 62
9
  6
CONTINUOUS
 10
183.0603237859
 20
184.8077840958
 40
0.5007808458
100
AcDbArc
 50
112.9217448641
 51
125.9294531222
  0
ARC
  5
3D9
100
AcDbEntity
  8
ASSEM_MEMBER
100
AcDbCircle
 62
9
  6
CONTINUOUS
 10
183.0611431648
 20
184.8089650445
 40
0.5005835094
100
AcDbArc
 50
152.8134395271
 51
166.8711579463
  0
ARC
  5
3DA
100
AcDbEntity
  8
ASSEM_MEMBER
100
AcDbCircle
 62
9
  6
CONTINUOUS
 10
183.0608717519
 20
184.8085148925
 40
0.5005506414
100
AcDbArc
 50
131.8429656815
 51
144.684522978
  0
ARC
  5
3DB
100
AcDbEntity
  8
ASSEM_MEMBER
100
AcDbCircle
 62
9
  6
CONTINUOUS
 10
183.0593877938
 20
184.8097381384
 40
0.4986495011
100
AcDbArc
 50
125.9741154683
 51
131.8097019891
  0
ARC
  5
3DC
100
AcDbEntity
  8
ASSEM_MEMBER
100
AcDbCircle
 62
9
  6
CONTINUOUS
 10
173.8756090187
 20
243.8281377785
 40
64.4857443449
100
AcDbArc
 50
284.6264978002
 51
296.9324830122
  0
CIRCLE
  5
3DD
100
AcDbEntity
  8
ASSEM_MEMBER
100
AcDbCircle
 62
7
  6
CONTINUOUS
 10
188.2714149279
 20
201.5504323043
 40
2.819841539
  0
CIRCLE
  5
3DE
100
AcDbEntity
  8
ASSEM_MEMBER
100
AcDbCircle
 62
7
  6
CONTINUOUS
 10
188.2714149279
 20
201.5504323043
 40
2.3023917906
  0
CIRCLE
  5
3DF
100
AcDbEntity
  8
ASSEM_MEMBER
100
AcDbCircle
 62
7
  6
CONTINUOUS
 10
188.2714149279
 20
201.5504323043
 40
2.25
  0
CIRCLE
  5
3E0
100
AcDbEntity
  8
ASSEM_MEMBER
100
AcDbCircle
 62
7
  6
CONTINUOUS
 10
196.271253715
 20
162.0502710913
 40
3.25
  0
CIRCLE
  5
3E1
100
AcDbEntity
  8
ASSEM_MEMBER
100
AcDbCircle
 62
7
  6
CONTINUOUS
 10
196.2710408233
 20
162.0500581997
 40
3.0
  0
CIRCLE
  5
3E2
100
AcDbEntity
  8
ASSEM_MEMBER
100
AcDbCircle
 62
7
  6
CONTINUOUS
 10
196.2707431372
 20
162.0497605136
 40
1.669
  0
ARC
  5
3E3
100
AcDbEntity
  8
ASSEM_MEMBER
100
AcDbCircle
 62
7
  6
CONTINUOUS
 10
196.2368967576
 20
160.1078524398
 40
0.7422545243
100
AcDbArc
 50
45.1947283385
 51
132.8036925633
  0
ARC
  5
3E4
100
AcDbEntity
  8
ASSEM_MEMBER
100
AcDbCircle
 62
7
  6
CONTINUOUS
 10
194.5720597048
 20
161.1081874861
 40
0.7422545243
100
AcDbArc
 50
345.1960938496
 51
72.8045327148
  0
ARC
  5
3E5
100
AcDbEntity
  8
ASSEM_MEMBER
100
AcDbCircle
 62
7
  6
CONTINUOUS
 10
194.6059566754
 20
163.0501461508
 40
0.7422545243
100
AcDbArc
 50
285.196101489
 51
12.8061042903
  0
ARC
  5
3E6
100
AcDbEntity
  8
ASSEM_MEMBER
100
AcDbCircle
 62
7
  6
CONTINUOUS
 10
196.3046906988
 20
163.9917697693
 40
0.7422545243
100
AcDbArc
 50
225.1947390446
 51
312.8068402735
  0
ARC
  5
3E7
100
AcDbEntity
  8
ASSEM_MEMBER
100
AcDbCircle
 62
7
  6
CONTINUOUS
 10
196.9494782653
 20
160.8252945834
 40
0.269
100
AcDbArc
 50
225.1947490837
 51
12.8069669598
  0
ARC
  5
3E8
100
AcDbEntity
  8
ASSEM_MEMBER
100
AcDbCircle
 62
7
  6
CONTINUOUS
 10
195.5496986534
 20
160.8497351136
 40
0.269
100
AcDbArc
 50
165.1908183876
 51
312.8097947912
  0
ARC
  5
3E9
100
AcDbEntity
  8
ASSEM_MEMBER
100
AcDbCircle
 62
7
  6
CONTINUOUS
 10
194.8709651618
 20
162.0742026804
 40
0.269
100
AcDbArc
 50
105.1919649207
 51
252.8073814225
  0
ARC
  5
3EA
100
AcDbEntity
  8
ASSEM_MEMBER
100
AcDbCircle
 62
7
  6
CONTINUOUS
 10
195.5920113039
 20
163.2742297386
 40
0.269
100
AcDbArc
 50
45.1947183018
 51
192.8035631727
  0
ARC
  5
3EB
100
AcDbEntity
  8
ASSEM_MEMBER
100
AcDbCircle
 62
7
  6
CONTINUOUS
 10
196.9918051652
 20
163.2498034577
 40
0.269
100
AcDbArc
 50
345.1986464085
 51
132.80073807
  0
CIRCLE
  5
3EC
100
AcDbEntity
  8
ASSEM_MEMBER
100
AcDbCircle
 62
7
  6
CONTINUOUS
 10
196.270940122
 20
162.0499574984
 40
0.25
  0
ARC
  5
3ED
100
AcDbEntity
  8
ASSEM_MEMBER
100
AcDbCircle
 62
7
  6
CONTINUOUS
 10
190.9025773054
 20
191.3911267895
 40
3.4993170694
100
AcDbArc
 50
322.9300606207
 51
328.9839785738
  0
ARC
  5
3EE
100
AcDbEntity
  8
ASSEM_MEMBER
100
AcDbCircle
 62
7
  6
CONTINUOUS
 10
190.9624629887
 20
191.3500601071
 40
3.4981236997
100
AcDbArc
 50
291.1074042055
 51
359.9972096241
  0
ARC
  5
3EF
100
AcDbEntity
  8
ASSEM_MEMBER
100
AcDbCircle
 62
7
  6
CONTINUOUS
 10
190.963087202
 20
191.3496249795
 40
3.4976530754
100
AcDbArc
 50
291.1049562219
 51
0.0043371872
  0
ARC
  5
3F0
100
AcDbEntity
  8
ASSEM_MEMBER
100
AcDbCircle
 62
7
  6
CONTINUOUS
 10
197.9695277516
 20
162.9914347231
 40
0.7422545243
100
AcDbArc
 50
165.1933712203
 51
252.8060020987
  0
ARC
  5
3F1
100
AcDbEntity
  8
ASSEM_MEMBER
100
AcDbCircle
 62
7
  6
CONTINUOUS
 10
197.935630781
 20
161.0494760583
 40
0.7422545243
100
AcDbArc
 50
105.1933681535
 51
192.8044259638
  0
ARC
  5
3F2
100
AcDbEntity
  8
ASSEM_MEMBER
100
AcDbCircle
 62
9
  6
CONTINUOUS
 10
203.7640679796
 20
147.5348939564
 40
0.5004217288
100
AcDbArc
 50
270.0828657811
 51
359.9169188055
  0
ARC
  5
3F3
100
AcDbEntity
  8
ASSEM_MEMBER
100
AcDbCircle
 62
7
  6
CONTINUOUS
 10
197.6705386459
 20
162.0253358801
 40
0.269
100
AcDbArc
 50
285.1975048381
 51
72.8031536508
  0
ARC
  5
3F4
100
AcDbEntity
  8
ASSEM_MEMBER
100
AcDbCircle
 62
9
  6
CONTINUOUS
 10
190.9629672957
 20
211.6419846674
 40
3.4976002308
100
AcDbArc
 50
359.9957060162
 51
90.0042941615
  0
ARC
  5
3F5
100
AcDbEntity
  8
ASSEM_MEMBER
100
AcDbCircle
 62
7
  6
CONTINUOUS
 10
190.9634416852
 20
211.6424540025
 40
3.4973049254
100
AcDbArc
 50
359.9880165834
 51
90.0120661043
  0
ARC
  5
3F6
100
AcDbEntity
  8
ASSEM_MEMBER
100
AcDbCircle
 62
9
  6
CONTINUOUS
 10
196.8636541607
 20
202.3138002616
 40
2.0331888092
100
AcDbArc
 50
111.2937683676
 51
124.3197565041
  0
ARC
  5
3F7
100
AcDbEntity
  8
ASSEM_MEMBER
100
AcDbCircle
 62
9
  6
CONTINUOUS
 10
196.8470790704
 20
202.3565271386
 40
1.987359624
100
AcDbArc
 50
100.9330583626
 51
111.2958654671
  0
ARC
  5
3F8
100
AcDbEntity
  8
ASSEM_MEMBER
100
AcDbCircle
 62
9
  6
CONTINUOUS
 10
196.8363374699
 20
202.353644898
 40
1.9848795224
100
AcDbArc
 50
124.3169817946
 51
134.9541304813
  0
ARC
  5
3F9
100
AcDbEntity
  8
ASSEM_MEMBER
100
AcDbCircle
 62
9
  6
CONTINUOUS
 10
196.8364315555
 20
202.4038099762
 40
1.9389161372
100
AcDbArc
 50
100.4057936369
 51
100.8891316628
  0
ARC
  5
3FA
100
AcDbEntity
  8
ASSEM_MEMBER
100
AcDbCircle
 62
7
  6
CONTINUOUS
 10
196.2714149279
 20
205.4804323043
 40
1.1893409059
100
AcDbArc
 50
280.4082911402
 51
79.5918050133
  0
ARC
  5
3FB
100
AcDbEntity
  8
ASSEM_MEMBER
100
AcDbCircle
 62
7
  6
CONTINUOUS
 10
196.2714149279
 20
205.4804323043
 40
1.130158461
100
AcDbArc
 50
126.8530468909
 51
146.0338398719
  0
ARC
  5
3FC
100
AcDbEntity
  8
ASSEM_MEMBER
100
AcDbCircle
 62
7
  6
CONTINUOUS
 10
196.2714149279
 20
205.4804323043
 40
1.130158461
100
AcDbArc
 50
213.9661601281
 51
233.1300871241
  0
ARC
  5
3FD
100
AcDbEntity
  8
ASSEM_MEMBER
100
AcDbCircle
 62
7
  6
CONTINUOUS
 10
196.2714149279
 20
205.4804323043
 40
1.0882535376
100
AcDbArc
 50
146.5408639775
 51
213.4591360225
  0
CIRCLE
  5
3FE
100
AcDbEntity
  8
ASSEM_MEMBER
100
AcDbCircle
 62
7
  6
CONTINUOUS
 10
196.2714149279
 20
205.4804323043
 40
1.0672904395
  0
CIRCLE
  5
3FF
100
AcDbEntity
  8
ASSEM_MEMBER
100
AcDbCircle
 62
7
  6
CONTINUOUS
 10
196.2714149279
 20
205.4804323043
 40
0.5498406912
  0
ARC
  5
400
100
AcDbEntity
  8
ASSEM_MEMBER
100
AcDbCircle
 62
9
  6
CONTINUOUS
 10
197.4692696002
 20
201.5412107259
 40
3.0086655888
100
AcDbArc
 50
158.2329694023
 51
169.6464473112
  0
ARC
  5
401
100
AcDbEntity
  8
ASSEM_MEMBER
100
AcDbCircle
 62
9
  6
CONTINUOUS
 10
197.4657868074
 20
201.5379466805
 40
3.0066691437
100
AcDbArc
 50
145.4935121571
 51
157.5508134053
  0
ARC
  5
402
100
AcDbEntity
  8
ASSEM_MEMBER
100
AcDbCircle
 62
9
  6
CONTINUOUS
 10
197.4645760413
 20
201.5396056049
 40
3.0047316946
100
AcDbArc
 50
135.324572624
 51
145.5065008362
  0
ARC
  5
403
100
AcDbEntity
  8
ASSEM_MEMBER
100
AcDbCircle
 62
9
  6
CONTINUOUS
 10
197.4649051346
 20
201.5413963307
 40
3.0043388907
100
AcDbArc
 50
169.63497025
 51
179.723603334
  0
ARC
  5
404
100
AcDbEntity
  8
ASSEM_MEMBER
100
AcDbCircle
 62
9
  6
CONTINUOUS
 10
197.4200155533
 20
201.5429836798
 40
2.9594424918
100
AcDbArc
 50
179.7501421387
 51
179.9989204813
  0
ARC
  5
405
100
AcDbEntity
  8
ASSEM_MEMBER
100
AcDbCircle
 62
9
  6
CONTINUOUS
 10
197.4310383001
 20
201.5707965918
 40
2.9589532374
100
AcDbArc
 50
135.0006831385
 51
135.2974617592
  0
ARC
  5
406
100
AcDbEntity
  8
ASSEM_MEMBER
100
AcDbCircle
 62
9
  6
CONTINUOUS
 10
197.4219244247
 20
201.5582873999
 40
2.9583640388
100
AcDbArc
 50
157.590512844
 51
158.2000820138
  0
ARC
  5
407
100
AcDbEntity
  8
ASSEM_MEMBER
100
AcDbCircle
 62
9
  6
CONTINUOUS
 10
197.4688502728
 20
209.4247220059
 40
3.0102227903
100
AcDbArc
 50
203.419760177
 51
214.6539904631
  0
ARC
  5
408
100
AcDbEntity
  8
ASSEM_MEMBER
100
AcDbCircle
 62
9
  6
CONTINUOUS
 10
197.466205525
 20
209.4190716295
 40
3.0055833497
100
AcDbArc
 50
190.50486207
 51
202.5718477626
  0
ARC
  5
409
100
AcDbEntity
  8
ASSEM_MEMBER
100
AcDbCircle
 62
9
  6
CONTINUOUS
 10
197.464479393
 20
209.419224323
 40
3.0039140236
100
AcDbArc
 50
180.3218067137
 51
190.5137283088
  0
ARC
  5
40A
100
AcDbEntity
  8
ASSEM_MEMBER
100
AcDbCircle
 62
9
  6
CONTINUOUS
 10
197.463167457
 20
209.420139915
 40
3.0029426844
100
AcDbArc
 50
214.643727888
 51
224.7304480896
  0
ARC
  5
40B
100
AcDbEntity
  8
ASSEM_MEMBER
100
AcDbCircle
 62
9
  6
CONTINUOUS
 10
197.4258156717
 20
209.4043883612
 40
2.9626519907
100
AcDbArc
 50
202.6094588282
 51
203.3897108952
  0
ARC
  5
40C
100
AcDbEntity
  8
ASSEM_MEMBER
100
AcDbCircle
 62
9
  6
CONTINUOUS
 10
197.4230885921
 20
209.4176844531
 40
2.9625155152
100
AcDbArc
 50
179.9972785104
 51
180.2965218214
  0
ARC
  5
40D
100
AcDbEntity
  8
ASSEM_MEMBER
100
AcDbCircle
 62
9
  6
CONTINUOUS
 10
197.4302888023
 20
209.3895144426
 40
2.9580318098
100
AcDbArc
 50
224.7572162183
 51
225.0020001029
  0
ARC
  5
40E
100
AcDbEntity
  8
ASSEM_MEMBER
100
AcDbCircle
 62
9
  6
CONTINUOUS
 10
196.8636366914
 20
208.6470777523
 40
2.0331924697
100
AcDbArc
 50
235.8860686315
 51
248.9120948373
  0
ARC
  5
40F
100
AcDbEntity
  8
ASSEM_MEMBER
100
AcDbCircle
 62
7
  6
CONTINUOUS
 10
196.8352908681
 20
208.5930302317
 40
1.9982044036
100
AcDbArc
 50
224.9947604451
 51
259.7338304379
  0
ARC
  5
410
100
AcDbEntity
  8
ASSEM_MEMBER
100
AcDbCircle
 62
9
  6
CONTINUOUS
 10
196.8378426731
 20
208.6091334911
 40
1.9873111815
100
AcDbArc
 50
225.5125793387
 51
235.888225609
  0
ARC
  5
411
100
AcDbEntity
  8
ASSEM_MEMBER
100
AcDbCircle
 62
9
  6
CONTINUOUS
 10
196.846740054
 20
208.6031576337
 40
1.9861342957
100
AcDbArc
 50
248.9110161791
 51
259.1739228604
  0
ARC
  5
412
100
AcDbEntity
  8
ASSEM_MEMBER
100
AcDbCircle
 62
9
  6
CONTINUOUS
 10
196.8049431154
 20
208.5735116398
 40
1.9388445203
100
AcDbArc
 50
224.9986104595
 51
225.4685056142
  0
ARC
  5
413
100
AcDbEntity
  8
ASSEM_MEMBER
100
AcDbCircle
 62
9
  6
CONTINUOUS
 10
196.8363220986
 20
208.5564945834
 40
1.9383455289
100
AcDbArc
 50
259.2173124181
 51
259.5943980897
  0
ARC
  5
414
100
AcDbEntity
  8
ASSEM_MEMBER
100
AcDbCircle
 62
7
  6
CONTINUOUS
 10
309.1628331648
 20
341.6492655526
 40
201.2479721248
100
AcDbArc
 50
230.8122532933
 51
231.0084591857
  0
ARC
  5
415
100
AcDbEntity
  8
ASSEM_MEMBER
100
AcDbCircle
 62
7
  6
CONTINUOUS
 10
169.2714149279
 20
247.5504323043
 40
63.7393409059
100
AcDbArc
 50
282.3949927884
 51
291.1047079697
  0
ARC
  5
416
100
AcDbEntity
  8
ASSEM_MEMBER
100
AcDbCircle
 62
7
  6
CONTINUOUS
 10
169.2714149279
 20
247.5504323043
 40
63.7393409059
100
AcDbArc
 50
248.8952920298
 51
257.6050122931
  0
ARC
  5
417
100
AcDbEntity
  8
ASSEM_MEMBER
100
AcDbCircle
 62
7
  6
CONTINUOUS
 10
169.2714149279
 20
247.5504323043
 40
63.7150579577
100
AcDbArc
 50
248.9110203972
 51
257.6223106654
  0
ARC
  5
418
100
AcDbEntity
  8
ASSEM_MEMBER
100
AcDbCircle
 62
7
  6
CONTINUOUS
 10
169.2714149279
 20
247.5504323043
 40
63.7150579578
100
AcDbArc
 50
282.3776894505
 51
291.0889800329
  0
ARC
  5
419
100
AcDbEntity
  8
ASSEM_MEMBER
100
AcDbCircle
 62
7
  6
CONTINUOUS
 10
169.2714149279
 20
247.5504323043
 40
63.180158461
100
AcDbArc
 50
247.2590382649
 51
258.3759070906
  0
ARC
  5
41A
100
AcDbEntity
  8
ASSEM_MEMBER
100
AcDbCircle
 62
7
  6
CONTINUOUS
 10
169.2714149279
 20
247.5504323043
 40
63.1801584611
100
AcDbArc
 50
281.6240929094
 51
292.7409618323
  0
ARC
  5
41B
100
AcDbEntity
  8
ASSEM_MEMBER
100
AcDbCircle
 62
7
  6
CONTINUOUS
 10
144.2739121115
 20
54.8923116982
 40
10.0
100
AcDbArc
 50
151.8258061352
 51
178.0122875086
  0
ARC
  5
41C
100
AcDbEntity
  8
ASSEM_MEMBER
100
AcDbCircle
 62
7
  6
CONTINUOUS
 10
144.2739112264
 20
54.9006269383
 40
10.0
100
AcDbArc
 50
151.8260819259
 51
178.0126001956
  0
ARC
  5
41D
100
AcDbEntity
  8
ASSEM_MEMBER
100
AcDbCircle
 62
9
  6
CONTINUOUS
 10
144.2736705724
 20
54.9097367331
 40
9.4997589308
100
AcDbArc
 50
151.8258014316
 51
178.0130781445
  0
ARC
  5
41E
100
AcDbEntity
  8
ASSEM_MEMBER
100
AcDbCircle
 62
7
  6
CONTINUOUS
 10
147.4684124958
 20
43.5612486068
 40
0.5
100
AcDbArc
 50
178.0
 51
270.0
  0
ARC
  5
41F
100
AcDbEntity
  8
ASSEM_MEMBER
100
AcDbCircle
 62
7
  6
CONTINUOUS
 10
136.5820740221
 20
43.3612486068
 40
0.3
100
AcDbArc
 50
177.9999978001
 51
270.0
  0
ARC
  5
420
100
AcDbEntity
  8
ASSEM_MEMBER
100
AcDbCircle
 62
7
  6
CONTINUOUS
 10
169.2687936201
 20
66.5611000134
 40
21.9
100
AcDbArc
 50
0.0119400679
 51
180.0124555192
  0
ARC
  5
421
100
AcDbEntity
  8
ASSEM_MEMBER
100
AcDbCircle
 62
7
  6
CONTINUOUS
 10
158.9511270935
 20
78.0658127965
 40
12.0
100
AcDbArc
 50
90.0121979188
 51
151.8247498446
  0
ARC
  5
422
100
AcDbEntity
  8
ASSEM_MEMBER
100
AcDbCircle
 62
7
  6
CONTINUOUS
 10
158.9511278117
 20
78.059065661
 40
12.0
100
AcDbArc
 50
90.0121978081
 51
151.8258462133
  0
ARC
  5
423
100
AcDbEntity
  8
ASSEM_MEMBER
100
AcDbCircle
 62
9
  6
CONTINUOUS
 10
158.9511877427
 20
78.0761911641
 40
11.500197434
100
AcDbArc
 50
90.0199399576
 51
151.8301800417
  0
ARC
  5
424
100
AcDbEntity
  8
ASSEM_MEMBER
100
AcDbCircle
 62
9
  6
CONTINUOUS
 10
137.7714565828
 20
66.7561288801
 40
10.5003643118
100
AcDbArc
 50
358.0476304018
 51
359.6998643585
  0
ARC
  5
425
100
AcDbEntity
  8
ASSEM_MEMBER
100
AcDbCircle
 62
7
  6
CONTINUOUS
 10
137.7719949732
 20
66.7561181469
 40
10.0
100
AcDbArc
 50
358.0
 51
359.6522925512
  0
ARC
  5
426
100
AcDbEntity
  8
ASSEM_MEMBER
100
AcDbCircle
 62
7
  6
CONTINUOUS
 10
194.2706524883
 20
54.9112677145
 40
10.0
100
AcDbArc
 50
2.0124226021
 51
28.1983306832
  0
ARC
  5
427
100
AcDbEntity
  8
ASSEM_MEMBER
100
AcDbCircle
 62
7
  6
CONTINUOUS
 10
194.2706533731
 20
54.9029555882
 40
10.0
100
AcDbArc
 50
2.012108072
 51
28.1985894565
  0
ARC
  5
428
100
AcDbEntity
  8
ASSEM_MEMBER
100
AcDbCircle
 62
9
  6
CONTINUOUS
 10
194.2708554426
 20
54.9203720931
 40
9.4997912383
100
AcDbArc
 50
2.0113727379
 51
28.1985435003
  0
ARC
  5
429
100
AcDbEntity
  8
ASSEM_MEMBER
100
AcDbCircle
 62
7
  6
CONTINUOUS
 10
191.0744173601
 20
43.5612486068
 40
0.5
100
AcDbArc
 50
270.0
 51
2.0
  0
ARC
  5
42A
100
AcDbEntity
  8
ASSEM_MEMBER
100
AcDbCircle
 62
7
  6
CONTINUOUS
 10
201.9607558338
 20
43.3612486068
 40
0.3
100
AcDbArc
 50
269.9999998957
 51
2.0
  0
ARC
  5
42B
100
AcDbEntity
  8
ASSEM_MEMBER
100
AcDbCircle
 62
7
  6
CONTINUOUS
 10
169.2714149279
 20
66.5649571733
 40
21.5
100
AcDbArc
 50
0.3477074318
 51
179.6522925704
  0
CIRCLE
  5
42C
100
AcDbEntity
  8
ASSEM_MEMBER
100
AcDbCircle
 62
7
  6
CONTINUOUS
 10
169.2714149279
 20
66.5649571733
 40
13.8
  0
ARC
  5
42D
100
AcDbEntity
  8
ASSEM_MEMBER
100
AcDbCircle
 62
7
  6
CONTINUOUS
 10
179.5835743155
 20
78.0702028902
 40
12.0
100
AcDbArc
 50
28.1996562497
 51
90.0121979177
  0
ARC
  5
42E
100
AcDbEntity
  8
ASSEM_MEMBER
100
AcDbCircle
 62
7
  6
CONTINUOUS
 10
179.5835750335
 20
78.0634581434
 40
12.0
100
AcDbArc
 50
28.1985493596
 51
90.0121978082
  0
ARC
  5
42F
100
AcDbEntity
  8
ASSEM_MEMBER
100
AcDbCircle
 62
9
  6
CONTINUOUS
 10
179.5836157899
 20
78.0807649333
 40
11.5000105181
100
AcDbArc
 50
28.1905444694
 51
90.0079817758
  0
ARC
  5
430
100
AcDbEntity
  8
ASSEM_MEMBER
100
AcDbCircle
 62
9
  6
CONTINUOUS
 10
200.7713744297
 20
66.7561289029
 40
10.5003654685
100
AcDbArc
 50
180.3001357341
 51
181.9523695045
  0
ARC
  5
431
100
AcDbEntity
  8
ASSEM_MEMBER
100
AcDbCircle
 62
7
  6
CONTINUOUS
 10
200.7708348826
 20
66.7561181469
 40
10.0
100
AcDbArc
 50
180.3477074356
 51
181.9999999999
  0
ARC
  5
432
100
AcDbEntity
  8
ASSEM_MEMBER
100
AcDbCircle
 62
9
  6
CONTINUOUS
 10
1007.3139679926
 20
208.3578111394
 40
697.8677682232
100
AcDbArc
 50
179.9129715452
 51
180.0870284575
  0
ARC
  5
433
100
AcDbEntity
  8
ASSEM_MEMBER
100
AcDbCircle
 62
9
  6
CONTINUOUS
 10
897.8459844285
 20
202.6030534864
 40
588.3999349526
100
AcDbArc
 50
179.8967804702
 51
180.1032195287
  0
ARC
  5
434
100
AcDbEntity
  8
ASSEM_MEMBER
100
AcDbCircle
 62
7
  6
CONTINUOUS
 10
345.5505850947
 20
251.6646704862
 40
75.9381281062
100
AcDbArc
 50
241.4434849515
 51
241.6120853827
  0
ARC
  5
435
100
AcDbEntity
  8
ASSEM_MEMBER
100
AcDbCircle
 62
7
  6
CONTINUOUS
 10
309.2574747118
 20
148.824836686
 40
0.5
100
AcDbArc
 50
269.0
 51
360.0
  0
ARC
  5
436
100
AcDbEntity
  8
ASSEM_MEMBER
100
AcDbCircle
 62
7
  6
CONTINUOUS
 10
263.2552209153
 20
148.7257617556
 40
0.4999999816
100
AcDbArc
 50
180.0125574752
 51
268.0154156905
  0
ARC
  5
437
100
AcDbEntity
  8
ASSEM_MEMBER
100
AcDbCircle
 62
9
  6
CONTINUOUS
 10
309.4574750187
 20
185.6039591411
 40
0.3071732615
100
AcDbArc
 50
268.0466658181
 51
269.9999427601
  0
ARC
  5
438
100
AcDbEntity
  8
ASSEM_MEMBER
100
AcDbCircle
 62
9
  6
CONTINUOUS
 10
309.4574750455
 20
206.3451728917
 40
0.3050343019
100
AcDbArc
 50
90.000062672
 51
91.9670415393
  0
ARC
  5
439
100
AcDbEntity
  8
ASSEM_MEMBER
100
AcDbCircle
 62
9
  6
CONTINUOUS
 10
309.4574750455
 20
204.6156917216
 40
0.3050343009
100
AcDbArc
 50
268.0329584451
 51
269.9999373184
  0
ARC
  5
43A
100
AcDbEntity
  8
ASSEM_MEMBER
100
AcDbCircle
 62
7
  6
CONTINUOUS
 10
309.4574747118
 20
149.7681628082
 40
0.3
100
AcDbArc
 50
268.0
 51
360.0
  0
ARC
  5
43B
100
AcDbEntity
  8
ASSEM_MEMBER
100
AcDbCircle
 62
7
  6
CONTINUOUS
 10
309.4574656191
 20
214.839759089
 40
0.2999997641
100
AcDbArc
 50
0.0026968642
 51
91.9981704496
  0
ARC
  5
43C
100
AcDbEntity
  8
ASSEM_MEMBER
100
AcDbCircle
 62
7
  6
CONTINUOUS
 10
309.4574865031
 20
181.7003235678
 40
0.2999979204
100
AcDbArc
 50
0.0
 51
93.2019530482
  0
SPLINE
  5
43D
100
AcDbEntity
  8
ASSEM_MEMBER
100
AcDbSpline
 62
7
  6
CONTINUOUS
 70
0
 71
3
 72
41
 73
37
 74
0
 42
0.0000001
 43
0.0000001
 44
0.0000000001
 40
0.0
 40
0.0
 40
0.0
 40
0.0
 40
0.0010415715
 40
0.001903299
 40
0.0030341407
 40
0.0061418059
 40
0.0104042439
 40
0.02239832
 40
0.038957879
 40
0.0599374031
 40
0.0851432898
 40
0.1143368047
 40
0.1472387624
 40
0.183535232
 40
0.2228759305
 40
0.2648836934
 40
0.309154596
 40
0.4027625976
 40
0.5001053352
 40
0.5974435924
 40
0.6910383611
 40
0.7352996308
 40
0.777295881
 40
0.8166234771
 40
0.8529053147
 40
0.8857913811
 40
0.9149678524
 40
0.940155779
 40
0.9611165118
 40
0.9776566281
 40
0.9896309327
 40
0.9938833689
 40
0.9969811268
 40
0.9981071833
 40
0.9989644111
 40
1.0
 40
1.0
 40
1.0
 40
1.0
 10
191.1677479302
 20
147.4271724513
 30
0.0
 10
191.1676544292
 20
147.442415937
 30
0.0
 10
191.1434146105
 20
147.4654458752
 30
0.0
 10
191.1053920734
 20
147.485209568
 30
0.0
 10
191.0351442608
 20
147.5129083383
 30
0.0
 10
190.9149243987
 20
147.5440458708
 30
0.0
 10
190.636371055
 20
147.5980421752
 30
0.0
 10
190.1597490642
 20
147.6585893509
 30
0.0
 10
189.4379356669
 20
147.7264441991
 30
0.0
 10
188.5219124944
 20
147.7918266242
 30
0.0
 10
187.4204778029
 20
147.8545569828
 30
0.0
 10
186.1441297297
 20
147.913471935
 30
0.0
 10
184.7051489921
 20
147.9680042334
 30
0.0
 10
183.1174013087
 20
148.017504838
 30
0.0
 10
181.3961794752
 20
148.0614769563
 30
0.0
 10
179.5580808495
 20
148.0994619994
 30
0.0
 10
176.9257183088
 20
148.142393434
 30
0.0
 10
173.483312809
 20
148.1778555292
 30
0.0
 10
169.2640926074
 20
148.1920174416
 30
0.0
 10
165.0450660717
 20
148.1778558556
 30
0.0
 10
161.603060803
 20
148.1423934795
 30
0.0
 10
158.9712014741
 20
148.0994615547
 30
0.0
 10
157.1336041742
 20
148.0614768749
 30
0.0
 10
155.4129568893
 20
148.0175059423
 30
0.0
 10
153.8258479394
 20
147.9680063723
 30
0.0
 10
152.3875638203
 20
147.9134756524
 30
0.0
 10
151.1119611762
 20
147.8545627069
 30
0.0
 10
150.0113152477
 20
147.7918339365
 30
0.0
 10
149.0961151875
 20
147.7264576275
 30
0.0
 10
148.3751563628
 20
147.658601855
 30
0.0
 10
147.8992539222
 20
147.5980716996
 30
0.0
 10
147.6212979965
 20
147.5440558667
 30
0.0
 10
147.5014422193
 20
147.5129359238
 30
0.0
 10
147.4315064161
 20
147.4852092975
 30
0.0
 10
147.3937134326
 20
147.4654873973
 30
0.0
 10
147.3697463667
 20
147.4423293739
 30
0.0
 10
147.3698393307
 20
147.4271734438
 30
0.0
  0
SPLINE
  5
43E
100
AcDbEntity
  8
ASSEM_MEMBER
100
AcDbSpline
 62
7
  6
CONTINUOUS
 70
0
 71
3
 72
9
 73
5
 74
0
 42
0.0000001
 43
0.0000001
 44
0.0000000001
 40
0.0
 40
0.0
 40
0.0
 40
0.0
 40
0.4999165911
 40
1.0
 40
1.0
 40
1.0
 40
1.0
 10
134.1316563149
 20
187.0457293985
 30
0.0
 10
134.0551640173
 20
187.003117959
 30
0.0
 10
133.9225985696
 20
186.8745928395
 30
0.0
 10
133.8746498963
 20
186.6962182075
 30
0.0
 10
133.8746939981
 20
186.6086286992
 30
0.0
  0
SPLINE
  5
43F
100
AcDbEntity
  8
ASSEM_MEMBER
100
AcDbSpline
 62
7
  6
CONTINUOUS
 70
0
 71
3
 72
9
 73
5
 74
0
 42
0.0000001
 43
0.0000001
 44
0.0000000001
 40
0.0
 40
0.0
 40
0.0
 40
0.0
 40
0.5000823157
 40
1.0
 40
1.0
 40
1.0
 40
1.0
 10
204.6746923936
 20
186.6098620486
 30
0.0
 10
204.6747368538
 20
186.6978701403
 30
0.0
 10
204.6263083063
 20
186.877128435
 30
0.0
 10
204.4925329535
 20
187.0058129827
 30
0.0
 10
204.4154504502
 20
187.0482230637
 30
0.0
  0
SPLINE
  5
440
100
AcDbEntity
  8
ASSEM_MEMBER
100
AcDbSpline
 62
9
  6
CONTINUOUS
 70
0
 71
3
 72
12
 73
8
 74
0
 42
0.0000001
 43
0.0000001
 44
0.0000000001
 40
0.0
 40
0.0
 40
0.0
 40
0.0
 40
0.2173608023
 40
0.478658107
 40
0.6190223604
 40
0.7569946702
 40
1.0
 40
1.0
 40
1.0
 40
1.0
 10
202.4166771702
 20
186.7822746738
 30
0.0
 10
202.4765393962
 20
186.8126648451
 30
0.0
 10
202.6299261746
 20
186.8417149993
 30
0.0
 10
202.8179154639
 20
186.770244597
 30
0.0
 10
202.9426778551
 20
186.6580305164
 30
0.0
 10
203.0378529369
 20
186.5268966261
 30
0.0
 10
203.0753426823
 20
186.4110377311
 30
0.0
 10
203.0837967823
 20
186.3364601957
 30
0.0
  0
SPLINE
  5
441
100
AcDbEntity
  8
ASSEM_MEMBER
100
AcDbSpline
 62
9
  6
CONTINUOUS
 70
0
 71
3
 72
9
 73
5
 74
0
 42
0.0000001
 43
0.0000001
 44
0.0000000001
 40
0.0
 40
0.0
 40
0.0
 40
0.0
 40
0.5366360911
 40
1.0
 40
1.0
 40
1.0
 40
1.0
 10
204.0078238121
 20
187.2730766533
 30
0.0
 10
204.0899360428
 20
187.2274549692
 30
0.0
 10
204.2210557372
 20
187.0948380355
 30
0.0
 10
204.2645420792
 20
186.9172195737
 30
0.0
 10
204.2644862338
 20
186.8361105861
 30
0.0
  0
SPLINE
  5
442
100
AcDbEntity
  8
ASSEM_MEMBER
100
AcDbSpline
 62
9
  6
CONTINUOUS
 70
0
 71
3
 72
21
 73
17
 74
0
 42
0.0000001
 43
0.0000001
 44
0.0000000001
 40
0.0
 40
0.0
 40
0.0
 40
0.0
 40
0.0669663267
 40
0.1255475274
 40
0.1789955249
 40
0.2292230618
 40
0.3246075814
 40
0.4195024659
 40
0.4690626989
 40
0.5214612121
 40
0.5784707415
 40
0.6430226076
 40
0.7203433288
 40
0.8165793763
 40
0.9174135778
 40
1.0
 40
1.0
 40
1.0
 40
1.0
 10
145.3912825313
 20
160.1678485696
 30
0.0
 10
145.2617072528
 20
159.962529648
 30
0.0
 10
144.9778539583
 20
159.6015867162
 30
0.0
 10
144.4827921375
 20
159.1770677402
 30
0.0
 10
143.9752693509
 20
158.8739761018
 30
0.0
 10
143.3010509681
 20
158.6096161886
 30
0.0
 10
142.4257526758
 20
158.4761324944
 30
0.0
 10
141.5520769757
 20
158.6046705284
 30
0.0
 10
140.8842910305
 20
158.8630681751
 30
0.0
 10
140.3837510508
 20
159.1540163897
 30
0.0
 10
139.8972043997
 20
159.5603889046
 30
0.0
 10
139.4368174943
 20
160.1215362107
 30
0.0
 10
139.0439810492
 20
160.8993941557
 30
0.0
 10
138.8446079176
 20
161.8895076873
 30
0.0
 10
138.9548362161
 20
162.9142187935
 30
0.0
 10
139.2122330458
 20
163.5362908762
 30
0.0
 10
139.3609642184
 20
163.7961565757
 30
0.0
  0
SPLINE
  5
443
100
AcDbEntity
  8
ASSEM_MEMBER
100
AcDbSpline
 62
9
  6
CONTINUOUS
 70
0
 71
3
 72
9
 73
5
 74
0
 42
0.0000001
 43
0.0000001
 44
0.0000000001
 40
0.0
 40
0.0
 40
0.0
 40
0.0
 40
0.4286990211
 40
1.0
 40
1.0
 40
1.0
 40
1.0
 10
145.3912819617
 20
160.1678475961
 30
0.0
 10
145.3535498393
 20
160.1024762216
 30
0.0
 10
145.3015547791
 20
159.9275203501
 30
0.0
 10
145.3329869736
 20
159.7475217766
 30
0.0
 10
145.3668068656
 20
159.6527911183
 30
0.0
  0
SPLINE
  5
444
100
AcDbEntity
  8
ASSEM_MEMBER
100
AcDbSpline
 62
9
  6
CONTINUOUS
 70
0
 71
3
 72
14
 73
10
 74
0
 42
0.0000001
 43
0.0000001
 44
0.0000000001
 40
0.0
 40
0.0
 40
0.0
 40
0.0
 40
0.4038054433
 40
0.5682175753
 40
0.7068195393
 40
0.8193020227
 40
0.9054563238
 40
0.9653698834
 40
1.0
 40
1.0
 40
1.0
 40
1.0
 10
202.6431683691
 20
147.1787067874
 30
0.0
 10
202.7956588617
 20
147.1688338981
 30
0.0
 10
203.0101716372
 20
147.1534241555
 30
0.0
 10
203.2764596871
 20
147.1284072874
 30
0.0
 10
203.4327697633
 20
147.1107266253
 30
0.0
 10
203.5589919411
 20
147.0928643853
 30
0.0
 10
203.6556847304
 20
147.0752409038
 30
0.0
 10
203.7209996094
 20
147.0576179276
 30
0.0
 10
203.7554725813
 20
147.0436827004
 30
0.0
 10
203.7647936702
 20
147.0344710198
 30
0.0
  0
SPLINE
  5
445
100
AcDbEntity
  8
ASSEM_MEMBER
100
AcDbSpline
 62
9
  6
CONTINUOUS
 70
0
 71
3
 72
9
 73
5
 74
0
 42
0.0000001
 43
0.0000001
 44
0.0000000001
 40
0.0
 40
0.0
 40
0.0
 40
0.0
 40
0.5366535522
 40
1.0
 40
1.0
 40
1.0
 40
1.0
 10
134.5342957458
 20
187.2705662154
 30
0.0
 10
134.4528407357
 20
187.2246930763
 30
0.0
 10
134.3229077287
 20
187.0923553608
 30
0.0
 10
134.2798739752
 20
186.9156024849
 30
0.0
 10
134.2799288806
 20
186.8348884334
 30
0.0
  0
SPLINE
  5
446
100
AcDbEntity
  8
ASSEM_MEMBER
100
AcDbSpline
 62
9
  6
CONTINUOUS
 70
0
 71
3
 72
21
 73
17
 74
0
 42
0.0000001
 43
0.0000001
 44
0.0000000001
 40
0.0
 40
0.0
 40
0.0
 40
0.0
 40
0.0670527433
 40
0.1252863344
 40
0.1782430936
 40
0.227951892
 40
0.3224330989
 40
0.4167848019
 40
0.4662864473
 40
0.5188353471
 40
0.5763123893
 40
0.6418725467
 40
0.721156277
 40
0.8197312773
 40
0.9194495617
 40
1.0
 40
1.0
 40
1.0
 40
1.0
 10
199.1781060455
 20
160.3008615361
 30
0.0
 10
199.0538991321
 20
160.0839456213
 30
0.0
 10
198.7775456968
 20
159.7020418894
 30
0.0
 10
198.2861769966
 20
159.2497301777
 30
0.0
 10
197.7788763643
 20
158.9240738064
 30
0.0
 10
197.100444909
 20
158.634745059
 30
0.0
 10
196.2112662226
 20
158.4751703076
 30
0.0
 10
195.3154562789
 20
158.588107156
 30
0.0
 10
194.6262358852
 20
158.8425387384
 30
0.0
 10
194.106348752
 20
159.1371398383
 30
0.0
 10
193.5990011033
 20
159.5564034939
 30
0.0
 10
193.1187397057
 20
160.1450268021
 30
0.0
 10
192.7167771442
 20
160.9692268696
 30
0.0
 10
192.5391302079
 20
162.0065755869
 30
0.0
 10
192.6942842
 20
163.0522945533
 30
0.0
 10
192.9812217523
 20
163.6691708615
 30
0.0
 10
193.1415195948
 20
163.9230814944
 30
0.0
  0
SPLINE
  5
447
100
AcDbEntity
  8
ASSEM_MEMBER
100
AcDbSpline
 62
9
  6
CONTINUOUS
 70
0
 71
3
 72
12
 73
8
 74
0
 42
0.0000001
 43
0.0000001
 44
0.0000000001
 40
0.0
 40
0.0
 40
0.0
 40
0.0
 40
0.2140958794
 40
0.4735857934
 40
0.6142667578
 40
0.7533126126
 40
1.0
 40
1.0
 40
1.0
 40
1.0
 10
136.1261215754
 20
186.781034422
 30
0.0
 10
136.0671573971
 20
186.8110155692
 30
0.0
 10
135.9157122493
 20
186.8404244928
 30
0.0
 10
135.7284877856
 20
186.7712517419
 30
0.0
 10
135.602818388
 20
186.6601307981
 30
0.0
 10
135.5056863535
 20
186.5283913438
 30
0.0
 10
135.4673332476
 20
186.4110223089
 30
0.0
 10
135.4587556259
 20
186.3352881496
 30
0.0
  0
SPLINE
  5
448
100
AcDbEntity
  8
ASSEM_MEMBER
100
AcDbSpline
 62
9
  6
CONTINUOUS
 70
0
 71
3
 72
21
 73
17
 74
0
 42
0.0000001
 43
0.0000001
 44
0.0000000001
 40
0.0
 40
0.0
 40
0.0
 40
0.0
 40
0.0669910063
 40
0.1256058077
 40
0.1790904391
 40
0.2293540265
 40
0.3247996069
 40
0.4197277703
 40
0.4692901818
 40
0.521679175
 40
0.578665695
 40
0.6431791382
 40
0.7204448819
 40
0.8166168984
 40
0.9174125114
 40
1.0
 40
1.0
 40
1.0
 40
1.0
 10
193.1415186641
 20
163.9230798956
 30
0.0
 10
193.2712439285
 20
164.1285603642
 30
0.0
 10
193.5554212027
 20
164.4898181938
 30
0.0
 10
194.0509695628
 20
164.9148134423
 30
0.0
 10
194.5589945482
 20
165.2184082118
 30
0.0
 10
195.2338710059
 20
165.4834403881
 30
0.0
 10
196.1099487756
 20
165.6178223754
 30
0.0
 10
196.9845702983
 20
165.4902212444
 30
0.0
 10
197.6531192587
 20
165.2324935905
 30
0.0
 10
198.1541861603
 20
164.9420666507
 30
0.0
 10
198.6412545011
 20
164.5361966426
 30
0.0
 10
199.1021483401
 20
163.9755088756
 30
0.0
 10
199.4954372936
 20
163.1979863592
 30
0.0
 10
199.6950242595
 20
162.2079227506
 30
0.0
 10
199.5846089392
 20
161.1830370545
 30
0.0
 10
199.3269658003
 20
160.5608366655
 30
0.0
 10
199.1781050863
 20
160.3008599905
 30
0.0
  0
SPLINE
  5
449
100
AcDbEntity
  8
ASSEM_MEMBER
100
AcDbSpline
 62
9
  6
CONTINUOUS
 70
0
 71
3
 72
14
 73
10
 74
0
 42
0.0000001
 43
0.0000001
 44
0.0000000001
 40
0.0
 40
0.0
 40
0.0
 40
0.0
 40
0.0345039244
 40
0.0943136788
 40
0.1804016923
 40
0.2928588445
 40
0.4314775406
 40
0.595948929
 40
1.0
 40
1.0
 40
1.0
 40
1.0
 10
134.77962321
 20
147.0344725253
 30
0.0
 10
134.7888400601
 20
147.0436932272
 30
0.0
 10
134.8231863311
 20
147.0576341021
 30
0.0
 10
134.8882622585
 20
147.0752493332
 30
0.0
 10
134.9847388148
 20
147.0928706022
 30
0.0
 10
135.1107335733
 20
147.1107310213
 30
0.0
 10
135.2668244522
 20
147.1284108972
 30
0.0
 10
135.5328263588
 20
147.1534292344
 30
0.0
 10
135.7471282079
 20
147.1688366311
 30
0.0
 10
135.8994795424
 20
147.1787083265
 30
0.0
  0
SPLINE
  5
44A
100
AcDbEntity
  8
ASSEM_MEMBER
100
AcDbSpline
 62
9
  6
CONTINUOUS
 70
0
 71
3
 72
9
 73
5
 74
0
 42
0.0000001
 43
0.0000001
 44
0.0000000001
 40
0.0
 40
0.0
 40
0.0
 40
0.0
 40
0.4286399395
 40
1.0
 40
1.0
 40
1.0
 40
1.0
 10
193.1415192334
 20
163.9230808689
 30
0.0
 10
193.179221402
 20
163.9884241421
 30
0.0
 10
193.2311418922
 20
164.1633354826
 30
0.0
 10
193.1996434273
 20
164.343251053
 30
0.0
 10
193.1658006449
 20
164.437943662
 30
0.0
  0
SPLINE
  5
44B
100
AcDbEntity
  8
ASSEM_MEMBER
100
AcDbSpline
 62
9
  6
CONTINUOUS
 70
0
 71
3
 72
14
 73
10
 74
0
 42
0.0000001
 43
0.0000001
 44
0.0000000001
 40
0.0
 40
0.0
 40
0.0
 40
0.0
 40
0.0821350494
 40
0.1838172272
 40
0.310683528
 40
0.4602231855
 40
0.6190960081
 40
0.7693735448
 40
1.0
 40
1.0
 40
1.0
 40
1.0
 10
199.1781060557
 20
160.3008616092
 30
0.0
 10
199.208951829
 20
160.3501006714
 30
0.0
 10
199.2999132899
 20
160.4476976465
 30
0.0
 10
199.5025496752
 20
160.5442493716
 30
0.0
 10
199.7727495187
 20
160.5738152678
 30
0.0
 10
200.0795014999
 20
160.5207306046
 30
0.0
 10
200.3797374407
 20
160.3892090278
 30
0.0
 10
200.6887490537
 20
160.1626580148
 30
0.0
 10
200.8577595466
 20
159.9380255301
 30
0.0
 10
200.9164610687
 20
159.7858053236
 30
0.0
  0
SPLINE
  5
44C
100
AcDbEntity
  8
ASSEM_MEMBER
100
AcDbSpline
 62
9
  6
CONTINUOUS
 70
0
 71
3
 72
19
 73
15
 74
0
 42
0.0000001
 43
0.0000001
 44
0.0000000001
 40
0.0
 40
0.0
 40
0.0
 40
0.0
 40
0.0675946238
 40
0.1266690013
 40
0.2307088266
 40
0.3267904861
 40
0.4226510299
 40
0.5258913248
 40
0.5841712933
 40
0.6504730332
 40
0.7298579245
 40
0.8255903664
 40
0.9210074168
 40
1.0
 40
1.0
 40
1.0
 40
1.0
 10
200.9164605225
 20
159.7858043743
 30
0.0
 10
200.7549582725
 20
159.506848076
 30
0.0
 10
200.394638793
 20
159.0148665409
 30
0.0
 10
199.5772914101
 20
158.2709427872
 30
0.0
 10
198.458847821
 20
157.6888212278
 30
0.0
 10
197.0446080887
 20
157.4587001891
 30
0.0
 10
195.6300842326
 20
157.6611077675
 30
0.0
 10
194.5081891942
 20
158.2158292846
 30
0.0
 10
193.6843598389
 20
158.9320680943
 30
0.0
 10
193.0848313288
 20
159.7073002369
 30
0.0
 10
192.6032279169
 20
160.7662626337
 30
0.0
 10
192.4096429124
 20
162.0625921269
 30
0.0
 10
192.612711636
 20
163.3547011781
 30
0.0
 10
192.9662249494
 20
164.118470663
 30
0.0
 10
193.1658005998
 20
164.43794359
 30
0.0
  0
SPLINE
  5
44D
100
AcDbEntity
  8
ASSEM_MEMBER
100
AcDbSpline
 62
9
  6
CONTINUOUS
 70
0
 71
3
 72
14
 73
10
 74
0
 42
0.0000001
 43
0.0000001
 44
0.0000000001
 40
0.0
 40
0.0
 40
0.0
 40
0.0
 40
0.4041599817
 40
0.5686884472
 40
0.7073584891
 40
0.8198548402
 40
0.9059561897
 40
0.9657179286
 40
1.0
 40
1.0
 40
1.0
 40
1.0
 10
203.0837976583
 20
147.6783577366
 30
0.0
 10
203.2443071459
 20
147.6684886098
 30
0.0
 10
203.4700974104
 20
147.6530868603
 30
0.0
 10
203.7504182351
 20
147.6280750128
 30
0.0
 10
203.9149494928
 20
147.6104070472
 30
0.0
 10
204.047802219
 20
147.5925376498
 30
0.0
 10
204.1495533588
 20
147.5749666383
 30
0.0
 10
204.2182329327
 20
147.5572930802
 30
0.0
 10
204.2545400171
 20
147.5435022087
 30
0.0
 10
204.2644871204
 20
147.534168323
 30
0.0
  0
SPLINE
  5
44E
100
AcDbEntity
  8
ASSEM_MEMBER
100
AcDbSpline
 62
9
  6
CONTINUOUS
 70
0
 71
3
 72
11
 73
7
 74
0
 42
0.0000001
 43
0.0000001
 44
0.0000000001
 40
0.0
 40
0.0
 40
0.0
 40
0.0
 40
0.2349740717
 40
0.4797377365
 40
0.7363440292
 40
1.0
 40
1.0
 40
1.0
 40
1.0
 10
202.6431367404
 20
147.1787088351
 30
0.0
 10
202.7003793795
 20
147.1797723513
 30
0.0
 10
202.8180981798
 20
147.2088734058
 30
0.0
 10
202.9629111058
 20
147.322459502
 30
0.0
 10
203.0592478878
 20
147.4866032625
 30
0.0
 10
203.0828634213
 20
147.6141234617
 30
0.0
 10
203.0837976583
 20
147.6783576633
 30
0.0
  0
SPLINE
  5
44F
100
AcDbEntity
  8
ASSEM_MEMBER
100
AcDbSpline
 62
9
  6
CONTINUOUS
 70
0
 71
3
 72
16
 73
12
 74
0
 42
0.0000001
 43
0.0000001
 44
0.0000000001
 40
0.0
 40
0.0
 40
0.0
 40
0.0
 40
0.217053153
 40
0.4099271405
 40
0.5772194935
 40
0.717701052
 40
0.8305406783
 40
0.9150659679
 40
0.9710955231
 40
0.988690669
 40
1.0
 40
1.0
 40
1.0
 40
1.0
 10
203.0837967822
 20
186.3364601956
 30
0.0
 10
203.1676751347
 20
186.376946626
 30
0.0
 10
203.3262165362
 20
186.4531468443
 30
0.0
 10
203.550080904
 20
186.5591291054
 30
0.0
 10
203.7451058982
 20
186.649267185
 30
0.0
 10
203.9100246447
 20
186.7225260439
 30
0.0
 10
204.0439042117
 20
186.7784536491
 30
0.0
 10
204.145727949
 20
186.8160485926
 30
0.0
 10
204.2113089554
 20
186.8354589555
 30
0.0
 10
204.2473276822
 20
186.8397251123
 30
0.0
 10
204.2601891616
 20
186.8383655071
 30
0.0
 10
204.2644862298
 20
186.8361103873
 30
0.0
  0
SPLINE
  5
450
100
AcDbEntity
  8
ASSEM_MEMBER
100
AcDbSpline
 62
9
  6
CONTINUOUS
 70
0
 71
3
 72
21
 73
17
 74
0
 42
0.0000001
 43
0.0000001
 44
0.0000000001
 40
0.0
 40
0.0
 40
0.0
 40
0.0
 40
0.0814035789
 40
0.1784705828
 40
0.2731057489
 40
0.3513520062
 40
0.4171524492
 40
0.4752742416
 40
0.5286108029
 40
0.5789574475
 40
0.6750567533
 40
0.7712484876
 40
0.8217220556
 40
0.8752608029
 40
0.9336982396
 40
1.0
 40
1.0
 40
1.0
 40
1.0
 10
200.9164605225
 20
159.7858043743
 30
0.0
 10
201.1070012054
 20
160.1149064039
 30
0.0
 10
201.4346309436
 20
160.8925938473
 30
0.0
 10
201.5902040067
 20
162.1785369451
 30
0.0
 10
201.3630267995
 20
163.4381085851
 30
0.0
 10
200.8755170907
 20
164.4530590182
 30
0.0
 10
200.2836972884
 20
165.1975006159
 30
0.0
 10
199.6505498249
 20
165.7380882158
 30
0.0
 10
198.9966575762
 20
166.1243410291
 30
0.0
 10
198.1245762917
 20
166.4656858151
 30
0.0
 10
196.9852847165
 20
166.6332240166
 30
0.0
 10
195.8467564444
 20
166.4564227101
 30
0.0
 10
194.9756703267
 20
166.10722165
 30
0.0
 10
194.3224584657
 20
165.7137539778
 30
0.0
 10
193.690835988
 20
165.1644663799
 30
0.0
 10
193.3299068874
 20
164.7006283038
 30
0.0
 10
193.1658005998
 20
164.43794359
 30
0.0
  0
SPLINE
  5
451
100
AcDbEntity
  8
ASSEM_MEMBER
100
AcDbSpline
 62
9
  6
CONTINUOUS
 70
0
 71
3
 72
11
 73
7
 74
0
 42
0.0000001
 43
0.0000001
 44
0.0000000001
 40
0.0
 40
0.0
 40
0.0
 40
0.0
 40
0.2635347405
 40
0.5200100598
 40
0.7649148594
 40
1.0
 40
1.0
 40
1.0
 40
1.0
 10
190.1593481802
 20
148.5150986436
 30
0.0
 10
190.158414374
 20
148.4508940647
 30
0.0
 10
190.1348278214
 20
148.3234350865
 30
0.0
 10
190.0385441742
 20
148.1592968193
 30
0.0
 10
189.8937358273
 20
148.0456519743
 30
0.0
 10
189.7759568811
 20
148.0165138328
 30
0.0
 10
189.7186872623
 20
148.0154498154
 30
0.0
  0
SPLINE
  5
452
100
AcDbEntity
  8
ASSEM_MEMBER
100
AcDbSpline
 62
9
  6
CONTINUOUS
 70
0
 71
3
 72
11
 73
7
 74
0
 42
0.0000001
 43
0.0000001
 44
0.0000000001
 40
0.0
 40
0.0
 40
0.0
 40
0.0
 40
0.3022410062
 40
0.5826252498
 40
0.8209259616
 40
1.0
 40
1.0
 40
1.0
 40
1.0
 10
179.5810203318
 20
148.7256547541
 30
0.0
 10
180.6470792159
 20
148.7256491512
 30
0.0
 10
182.7021102387
 20
148.716657891
 30
0.0
 10
185.5974702451
 20
148.677269146
 30
0.0
 10
188.0578082085
 20
148.6149146653
 30
0.0
 10
189.5289336095
 20
148.5542074226
 30
0.0
 10
190.1593481807
 20
148.5150963788
 30
0.0
  0
SPLINE
  5
453
100
AcDbEntity
  8
ASSEM_MEMBER
100
AcDbSpline
 62
9
  6
CONTINUOUS
 70
0
 71
3
 72
11
 73
7
 74
0
 42
0.0000001
 43
0.0000001
 44
0.0000000001
 40
0.0
 40
0.0
 40
0.0
 40
0.0
 40
0.1790017805
 40
0.4172834081
 40
0.697689765
 40
1.0
 40
1.0
 40
1.0
 40
1.0
 10
148.8132086422
 20
148.0154192073
 30
0.0
 10
149.4168092503
 20
148.0545418194
 30
0.0
 10
150.8257794938
 20
148.1152756025
 30
0.0
 10
153.1825322907
 20
148.1776407818
 30
0.0
 10
155.9565739639
 20
148.2170513269
 30
0.0
 10
157.9256451628
 20
148.2260541737
 30
0.0
 10
158.9471854551
 20
148.2260599734
 30
0.0
  0
SPLINE
  5
454
100
AcDbEntity
  8
ASSEM_MEMBER
100
AcDbSpline
 62
9
  6
CONTINUOUS
 70
0
 71
3
 72
11
 73
7
 74
0
 42
0.0000001
 43
0.0000001
 44
0.0000000001
 40
0.0
 40
0.0
 40
0.0
 40
0.0
 40
0.3000941179
 40
0.5793796691
 40
0.8186378281
 40
1.0
 40
1.0
 40
1.0
 40
1.0
 10
179.5810196416
 20
179.1834666493
 30
0.0
 10
180.6507365328
 20
179.3478068569
 30
0.0
 10
182.7103135474
 20
179.7035047235
 30
0.0
 10
185.6004973976
 20
180.3086379372
 30
0.0
 10
188.0556731233
 20
180.8957251087
 30
0.0
 10
189.5248267887
 20
181.2735022216
 30
0.0
 10
190.1593474347
 20
181.432215741
 30
0.0
  0
SPLINE
  5
455
100
AcDbEntity
  8
ASSEM_MEMBER
100
AcDbSpline
 62
9
  6
CONTINUOUS
 70
0
 71
3
 72
11
 73
7
 74
0
 42
0.0000001
 43
0.0000001
 44
0.0000000001
 40
0.0
 40
0.0
 40
0.0
 40
0.0
 40
0.2236114569
 40
0.4818900917
 40
0.7528872154
 40
1.0
 40
1.0
 40
1.0
 40
1.0
 10
189.5925385819
 20
181.9160733114
 30
0.0
 10
189.6532745853
 20
181.9318647023
 30
0.0
 10
189.7948373423
 20
181.9323698302
 30
0.0
 10
189.9880245186
 20
181.8278721516
 30
0.0
 10
190.1197217635
 20
181.6462393731
 30
0.0
 10
190.1553189166
 20
181.5014494755
 30
0.0
 10
190.1593474473
 20
181.4322157441
 30
0.0
  0
SPLINE
  5
456
100
AcDbEntity
  8
ASSEM_MEMBER
100
AcDbSpline
 62
9
  6
CONTINUOUS
 70
0
 71
3
 72
11
 73
7
 74
0
 42
0.0000001
 43
0.0000001
 44
0.0000000001
 40
0.0
 40
0.0
 40
0.0
 40
0.0
 40
0.3022558777
 40
0.5826471155
 40
0.820947255
 40
1.0
 40
1.0
 40
1.0
 40
1.0
 10
179.5820137375
 20
148.2260595058
 30
0.0
 10
180.6037209262
 20
148.2260545734
 30
0.0
 10
182.5732331856
 20
148.2170531826
 30
0.0
 10
185.3480547458
 20
148.1776383445
 30
0.0
 10
187.7058008439
 20
148.1152643835
 30
0.0
 10
189.1154895893
 20
148.0545178875
 30
0.0
 10
189.7194711313
 20
148.015399067
 30
0.0
  0
SPLINE
  5
457
100
AcDbEntity
  8
ASSEM_MEMBER
100
AcDbSpline
 62
9
  6
CONTINUOUS
 70
0
 71
3
 72
11
 73
7
 74
0
 42
0.0000001
 43
0.0000001
 44
0.0000000001
 40
0.0
 40
0.0
 40
0.0
 40
0.0
 40
0.1790140497
 40
0.4172942336
 40
0.6976988067
 40
1.0
 40
1.0
 40
1.0
 40
1.0
 10
148.3729412831
 20
148.5150981944
 30
0.0
 10
149.002982366
 20
148.5542155781
 30
0.0
 10
150.4734488301
 20
148.614922728
 30
0.0
 10
152.9329475661
 20
148.6772726855
 30
0.0
 10
155.8277818358
 20
148.7166592156
 30
0.0
 10
157.8825734565
 20
148.7256505665
 30
0.0
 10
158.9485731101
 20
148.7256569656
 30
0.0
  0
SPLINE
  5
458
100
AcDbEntity
  8
ASSEM_MEMBER
100
AcDbSpline
 62
9
  6
CONTINUOUS
 70
0
 71
3
 72
11
 73
7
 74
0
 42
0.0000001
 43
0.0000001
 44
0.0000000001
 40
0.0
 40
0.0
 40
0.0
 40
0.0
 40
0.2350004722
 40
0.4797737978
 40
0.7363687942
 40
1.0
 40
1.0
 40
1.0
 40
1.0
 10
148.8136953517
 20
148.0154507423
 30
0.0
 10
148.7564406448
 20
148.0165142429
 30
0.0
 10
148.6387012633
 20
148.0456123454
 30
0.0
 10
148.4938553083
 20
148.1591951374
 30
0.0
 10
148.3974950942
 20
148.3233405741
 30
0.0
 10
148.3738747853
 20
148.4508650934
 30
0.0
 10
148.3729412831
 20
148.5150995905
 30
0.0
  0
SPLINE
  5
459
100
AcDbEntity
  8
ASSEM_MEMBER
100
AcDbSpline
 62
9
  6
CONTINUOUS
 70
0
 71
3
 72
11
 73
7
 74
0
 42
0.0000001
 43
0.0000001
 44
0.0000000001
 40
0.0
 40
0.0
 40
0.0
 40
0.0
 40
0.1813001506
 40
0.4204892876
 40
0.6998403679
 40
1.0
 40
1.0
 40
1.0
 40
1.0
 10
148.3729405372
 20
181.4315541225
 30
0.0
 10
149.0070615243
 20
181.2728362619
 30
0.0
 10
150.4753768807
 20
180.8952186131
 30
0.0
 10
152.9296410379
 20
180.3080317615
 30
0.0
 10
155.8193690941
 20
179.7032133549
 30
0.0
 10
157.8788836623
 20
179.3474469554
 30
0.0
 10
158.9485724198
 20
179.1831445884
 30
0.0
  0
SPLINE
  5
45A
100
AcDbEntity
  8
ASSEM_MEMBER
100
AcDbSpline
 62
9
  6
CONTINUOUS
 70
0
 71
3
 72
16
 73
12
 74
0
 42
0.0000001
 43
0.0000001
 44
0.0000000001
 40
0.0
 40
0.0
 40
0.0
 40
0.0
 40
0.0112259881
 40
0.0287248671
 40
0.0846312971
 40
0.169128539
 40
0.2819763433
 40
0.4224989395
 40
0.5897595794
 40
0.7826792678
 40
1.0
 40
1.0
 40
1.0
 40
1.0
 10
134.2799288807
 20
186.8348882314
 30
0.0
 10
134.2841772023
 20
186.8371450987
 30
0.0
 10
134.2969456933
 20
186.8385260696
 30
0.0
 10
134.332786766
 20
186.8342832665
 30
0.0
 10
134.398155283
 20
186.8148354778
 30
0.0
 10
134.499744482
 20
186.7772214396
 30
0.0
 10
134.6334274314
 20
186.721306081
 30
0.0
 10
134.7980910182
 20
186.6480581751
 30
0.0
 10
134.9928434874
 20
186.55796818
 30
0.0
 10
135.2164770652
 20
186.45200092
 30
0.0
 10
135.374899058
 20
186.3757927002
 30
0.0
 10
135.458755791
 20
186.3352880695
 30
0.0
  0
SPLINE
  5
45B
100
AcDbEntity
  8
ASSEM_MEMBER
100
AcDbSpline
 62
9
  6
CONTINUOUS
 70
0
 71
3
 72
11
 73
7
 74
0
 42
0.0000001
 43
0.0000001
 44
0.0000000001
 40
0.0
 40
0.0
 40
0.0
 40
0.0
 40
0.2635097738
 40
0.5199738438
 40
0.7648882644
 40
1.0
 40
1.0
 40
1.0
 40
1.0
 10
135.4587566651
 20
147.6783591956
 30
0.0
 10
135.459689736
 20
147.6141543731
 30
0.0
 10
135.4832810303
 20
147.4866911212
 30
0.0
 10
135.5795880318
 20
147.3225511835
 30
0.0
 10
135.7244294223
 20
147.2089095675
 30
0.0
 10
135.8422289969
 20
147.1797743502
 30
0.0
 10
135.8995107336
 20
147.1787103475
 30
0.0
  0
SPLINE
  5
45C
100
AcDbEntity
  8
ASSEM_MEMBER
100
AcDbSpline
 62
9
  6
CONTINUOUS
 70
0
 71
3
 72
14
 73
10
 74
0
 42
0.0000001
 43
0.0000001
 44
0.0000000001
 40
0.0
 40
0.0
 40
0.0
 40
0.0
 40
0.0341533151
 40
0.0938107849
 40
0.1798460139
 40
0.2923173078
 40
0.4310044637
 40
0.5955927411
 40
1.0
 40
1.0
 40
1.0
 40
1.0
 10
134.2799297714
 20
147.5341699102
 30
0.0
 10
134.2897675197
 20
147.5435148608
 30
0.0
 10
134.3259427457
 20
147.5573085992
 30
0.0
 10
134.3943693983
 20
147.5749757788
 30
0.0
 10
134.4958935134
 20
147.5925436369
 30
0.0
 10
134.6285066314
 20
147.6104115616
 30
0.0
 10
134.7928070213
 20
147.6280786067
 30
0.0
 10
135.072826153
 20
147.6530919803
 30
0.0
 10
135.298393966
 20
147.6684913462
 30
0.0
 10
135.458756667
 20
147.6783592706
 30
0.0
  0
SPLINE
  5
45D
100
AcDbEntity
  8
ASSEM_MEMBER
100
AcDbSpline
 62
9
  6
CONTINUOUS
 70
0
 71
3
 72
21
 73
17
 74
0
 42
0.0000001
 43
0.0000001
 44
0.0000000001
 40
0.0
 40
0.0
 40
0.0
 40
0.0
 40
0.0814029307
 40
0.1784980186
 40
0.2731813729
 40
0.3514711965
 40
0.417302905
 40
0.475443802
 40
0.5287886307
 40
0.5791340873
 40
0.6752076334
 40
0.7713512486
 40
0.8217963824
 40
0.8753062931
 40
0.9337174196
 40
1.0
 40
1.0
 40
1.0
 40
1.0
 10
137.6224150972
 20
164.3110185069
 30
0.0
 10
137.4320017525
 20
163.9820263526
 30
0.0
 10
137.104611962
 20
163.204470326
 30
0.0
 10
136.9492285379
 20
161.9187022681
 30
0.0
 10
137.1762253299
 20
160.6590959937
 30
0.0
 10
137.6633045645
 20
159.6438359694
 30
0.0
 10
138.2546220927
 20
158.8989451283
 30
0.0
 10
138.8872460248
 20
158.3578556602
 30
0.0
 10
139.5406068096
 20
157.9710777287
 30
0.0
 10
140.411915589
 20
157.6290571243
 30
0.0
 10
141.550247873
 20
157.4605685957
 30
0.0
 10
142.6879882934
 20
157.6364573235
 30
0.0
 10
143.5584091521
 20
157.9849782791
 30
0.0
 10
144.2111135986
 20
158.3779376262
 30
0.0
 10
144.8422464928
 20
158.9267465775
 30
0.0
 10
145.2028505168
 20
159.390268123
 30
0.0
 10
145.3668069107
 20
159.6527911902
 30
0.0
  0
SPLINE
  5
45E
100
AcDbEntity
  8
ASSEM_MEMBER
100
AcDbSpline
 62
9
  6
CONTINUOUS
 70
0
 71
3
 72
14
 73
10
 74
0
 42
0.0000001
 43
0.0000001
 44
0.0000000001
 40
0.0
 40
0.0
 40
0.0
 40
0.0
 40
0.0821721599
 40
0.183888328
 40
0.3107715648
 40
0.4603049669
 40
0.6191540965
 40
0.7694035028
 40
1.0
 40
1.0
 40
1.0
 40
1.0
 10
139.3609632492
 20
163.7961549572
 30
0.0
 10
139.3300909936
 20
163.7468893965
 30
0.0
 10
139.2390800081
 20
163.6492418654
 30
0.0
 10
139.0363745003
 20
163.5526042619
 30
0.0
 10
138.7661024512
 20
163.5229563452
 30
0.0
 10
138.4592918941
 20
163.5759877206
 30
0.0
 10
138.1590280381
 20
163.7074951492
 30
0.0
 10
137.8500202937
 20
163.9340735273
 30
0.0
 10
137.6810625766
 20
164.1587685778
 30
0.0
 10
137.6224145515
 20
164.3110175581
 30
0.0
  0
SPLINE
  5
45F
100
AcDbEntity
  8
ASSEM_MEMBER
100
AcDbSpline
 62
9
  6
CONTINUOUS
 70
0
 71
3
 72
21
 73
17
 74
0
 42
0.0000001
 43
0.0000001
 44
0.0000000001
 40
0.0
 40
0.0
 40
0.0
 40
0.0
 40
0.0675297601
 40
0.1265371616
 40
0.1802980646
 40
0.2308022445
 40
0.3267682697
 40
0.4225358396
 40
0.4727597226
 40
0.5260591067
 40
0.5843179123
 40
0.6506052909
 40
0.729979001
 40
0.8256917717
 40
0.9210663668
 40
1.0
 40
1.0
 40
1.0
 40
1.0
 10
137.6224150972
 20
164.3110185069
 30
0.0
 10
137.7837686631
 20
164.589811256
 30
0.0
 10
138.1435678576
 20
165.0814185161
 30
0.0
 10
138.7832798551
 20
165.6631606997
 30
0.0
 10
139.4468873069
 20
166.0783514869
 30
0.0
 10
140.3319650554
 20
166.4463842553
 30
0.0
 10
141.4913089972
 20
166.6356683212
 30
0.0
 10
142.6523407495
 20
166.4670228624
 30
0.0
 10
143.5398735988
 20
166.1171152219
 30
0.0
 10
144.2053488216
 20
165.7189389501
 30
0.0
 10
144.8488890913
 20
165.158899814
 30
0.0
 10
145.4476691281
 20
164.3832826919
 30
0.0
 10
145.9289269224
 20
163.3240037092
 30
0.0
 10
146.122340343
 20
162.0276803077
 30
0.0
 10
145.9195098105
 20
160.7357645264
 30
0.0
 10
145.5662485942
 20
159.9721449049
 30
0.0
 10
145.3668069107
 20
159.6527911902
 30
0.0
  0
SPLINE
  5
460
100
AcDbEntity
  8
ASSEM_MEMBER
100
AcDbSpline
 62
9
  6
CONTINUOUS
 70
0
 71
3
 72
21
 73
17
 74
0
 42
0.0000001
 43
0.0000001
 44
0.0000000001
 40
0.0
 40
0.0
 40
0.0
 40
0.0
 40
0.0670303673
 40
0.1252314263
 40
0.178151964
 40
0.2278247104
 40
0.3222442082
 40
0.4165618424
 40
0.4660611344
 40
0.5186196995
 40
0.5761203779
 40
0.641720254
 40
0.721060882
 40
0.8197002858
 40
0.919453311
 40
1.0
 40
1.0
 40
1.0
 40
1.0
 10
139.3609632587
 20
163.7961550296
 30
0.0
 10
139.4850210785
 20
164.0129066954
 30
0.0
 10
139.7610462875
 20
164.3944900002
 30
0.0
 10
140.2519209927
 20
164.8463212919
 30
0.0
 10
140.7587108257
 20
165.1714671647
 30
0.0
 10
141.4364708816
 20
165.4601119108
 30
0.0
 10
142.3248575346
 20
165.6187730307
 30
0.0
 10
143.2197059721
 20
165.5048783332
 30
0.0
 10
143.9081483685
 20
165.249763892
 30
0.0
 10
144.4274989099
 20
164.9546310992
 30
0.0
 10
144.9343151807
 20
164.5348558947
 30
0.0
 10
145.4140608757
 20
163.9457693408
 30
0.0
 10
145.8155719344
 20
163.1212506415
 30
0.0
 10
145.9930451116
 20
162.0838910643
 30
0.0
 10
145.8381234067
 20
161.0383671214
 30
0.0
 10
145.5514441502
 20
160.4216371897
 30
0.0
 10
145.3912816001
 20
160.1678469702
 30
0.0
  0
SPLINE
  5
461
100
AcDbEntity
  8
ASSEM_MEMBER
100
AcDbSpline
 62
9
  6
CONTINUOUS
 70
0
 71
3
 72
11
 73
7
 74
0
 42
0.0000001
 43
0.0000001
 44
0.0000000001
 40
0.0
 40
0.0
 40
0.0
 40
0.0
 40
0.2159072172
 40
0.4702413655
 40
0.744183428
 40
1.0
 40
1.0
 40
1.0
 40
1.0
 10
148.9399941774
 20
181.9153851775
 30
0.0
 10
148.8813452172
 20
181.9306891728
 30
0.0
 10
148.743574478
 20
181.9324250536
 30
0.0
 10
148.5507112759
 20
181.8328830338
 30
0.0
 10
148.4145260098
 20
181.6513963541
 30
0.0
 10
148.3771084465
 20
181.5032498588
 30
0.0
 10
148.3729405371
 20
181.4315541225
 30
0.0
  0
LINE
  5
462
100
AcDbEntity
  8
ASSEM_MEMBER
100
AcDbLine
 62
7
  6
CONTINUOUS
 10
155.9811703198
 20
184.8411984625
 11
155.9818865146
 21
183.4364409991
  0
SPLINE
  5
463
100
AcDbEntity
  8
ASSEM_MEMBER
100
AcDbSpline
 62
7
  6
CONTINUOUS
 70
0
 71
3
 72
9
 73
5
 74
0
 42
0.0000001
 43
0.0000001
 44
0.0000000001
 40
0.0
 40
0.0
 40
0.0
 40
0.0
 40
0.2173027379
 40
1.0
 40
1.0
 40
1.0
 40
1.0
 10
155.9828049701
 20
184.8426507499
 30
0.0
 10
155.9826357706
 20
184.8440102798
 30
0.0
 10
155.9818303363
 20
184.8502650999
 30
0.0
 10
155.9819474074
 20
184.8566157674
 30
0.0
 10
155.9823098256
 20
184.861537075
 30
0.0
  0
SPLINE
  5
464
100
AcDbEntity
  8
ASSEM_MEMBER
100
AcDbSpline
 62
7
  6
CONTINUOUS
 70
0
 71
3
 72
9
 73
5
 74
0
 42
0.0000001
 43
0.0000001
 44
0.0000000001
 40
0.0
 40
0.0
 40
0.0
 40
0.0
 40
0.250692689
 40
1.0
 40
1.0
 40
1.0
 40
1.0
 10
156.0514204954
 20
180.216066109
 30
0.0
 10
156.1316590998
 20
180.3941689445
 30
0.0
 10
156.414362154
 20
181.1205554423
 30
0.0
 10
156.5467022352
 20
181.9078728576
 30
0.0
 10
156.5412564873
 20
182.4917171917
 30
0.0
  0
SPLINE
  5
465
100
AcDbEntity
  8
ASSEM_MEMBER
100
AcDbSpline
 62
7
  6
CONTINUOUS
 70
0
 71
3
 72
8
 73
4
 74
0
 42
0.0000001
 43
0.0000001
 44
0.0000000001
 40
0.0
 40
0.0
 40
0.0
 40
0.0
 40
1.0
 40
1.0
 40
1.0
 40
1.0
 10
143.4988432074
 20
204.1588816774
 30
0.0
 10
143.3372176981
 20
204.3225448372
 30
0.0
 10
143.1498736713
 20
204.4637018116
 30
0.0
 10
142.9491436703
 20
204.5760223433
 30
0.0
  0
SPLINE
  5
466
100
AcDbEntity
  8
ASSEM_MEMBER
100
AcDbSpline
 62
7
  6
CONTINUOUS
 70
0
 71
3
 72
8
 73
4
 74
0
 42
0.0000001
 43
0.0000001
 44
0.0000000001
 40
0.0
 40
0.0
 40
0.0
 40
0.0
 40
1.0
 40
1.0
 40
1.0
 40
1.0
 10
142.9498111745
 20
206.3843331408
 30
0.0
 10
143.1509196633
 20
206.4958193108
 30
0.0
 10
143.3393924529
 20
206.6363013121
 30
0.0
 10
143.4988414938
 20
206.8019811049
 30
0.0
  0
SPLINE
  5
467
100
AcDbEntity
  8
ASSEM_MEMBER
100
AcDbSpline
 62
7
  6
CONTINUOUS
 70
0
 71
3
 72
8
 73
4
 74
0
 42
0.0000001
 43
0.0000001
 44
0.0000000001
 40
0.0
 40
0.0
 40
0.0
 40
0.0
 40
1.0
 40
1.0
 40
1.0
 40
1.0
 10
195.0439866484
 20
206.8019829311
 30
0.0
 10
195.2056053953
 20
206.6383266193
 30
0.0
 10
195.3928685938
 20
206.4970813284
 30
0.0
 10
195.5935860572
 20
206.3847580999
 30
0.0
  0
SPLINE
  5
468
100
AcDbEntity
  8
ASSEM_MEMBER
100
AcDbSpline
 62
7
  6
CONTINUOUS
 70
0
 71
3
 72
8
 73
4
 74
0
 42
0.0000001
 43
0.0000001
 44
0.0000000001
 40
0.0
 40
0.0
 40
0.0
 40
0.0
 40
1.0
 40
1.0
 40
1.0
 40
1.0
 10
195.5933209483
 20
204.5763074989
 30
0.0
 10
195.3921701498
 20
204.4648254183
 30
0.0
 10
195.2034616886
 20
204.3245885312
 30
0.0
 10
195.0439883621
 20
204.1588835037
 30
0.0
  0
SPLINE
  5
469
100
AcDbEntity
  8
ASSEM_MEMBER
100
AcDbSpline
 62
7
  6
CONTINUOUS
 70
0
 71
3
 72
9
 73
5
 74
0
 42
0.0000001
 43
0.0000001
 44
0.0000000001
 40
0.0
 40
0.0
 40
0.0
 40
0.0
 40
0.4999985399
 40
1.0
 40
1.0
 40
1.0
 40
1.0
 10
182.0015733911
 20
182.4917181024
 30
0.0
 10
181.9996685406
 20
182.1022377317
 30
0.0
 10
182.0839318566
 20
181.320844743
 30
0.0
 10
182.3295488279
 20
180.5749554076
 30
0.0
 10
182.4893442536
 20
180.2197571792
 30
0.0
  0
SPLINE
  5
46A
100
AcDbEntity
  8
ASSEM_MEMBER
100
AcDbSpline
 62
7
  6
CONTINUOUS
 70
0
 71
3
 72
9
 73
5
 74
0
 42
0.0000001
 43
0.0000001
 44
0.0000000001
 40
0.0
 40
0.0
 40
0.0
 40
0.0
 40
0.5501697757
 40
1.0
 40
1.0
 40
1.0
 40
1.0
 10
155.8197344697
 20
185.2116091881
 30
0.0
 10
155.8735494252
 20
185.1637213645
 30
0.0
 10
155.9512166183
 20
185.051301608
 30
0.0
 10
155.9773823871
 20
184.9202894155
 30
0.0
 10
155.9795495718
 20
184.8614305599
 30
0.0
  0
SPLINE
  5
46B
100
AcDbEntity
  8
ASSEM_MEMBER
100
AcDbSpline
 62
7
  6
CONTINUOUS
 70
0
 71
3
 72
9
 73
5
 74
0
 42
0.0000001
 43
0.0000001
 44
0.0000000001
 40
0.0
 40
0.0
 40
0.0
 40
0.0
 40
0.5487037823
 40
1.0
 40
1.0
 40
1.0
 40
1.0
 10
146.3456335852
 20
188.1028390194
 30
0.0
 10
146.0167331042
 20
188.22967819
 30
0.0
 10
145.4504392366
 20
188.561434269
 30
0.0
 10
145.0129057319
 20
189.0432070544
 30
0.0
 10
144.8481476059
 20
189.2817761653
 30
0.0
  0
SPLINE
  5
46C
100
AcDbEntity
  8
ASSEM_MEMBER
100
AcDbSpline
 62
7
  6
CONTINUOUS
 70
0
 71
3
 72
10
 73
6
 74
0
 42
0.0000001
 43
0.0000001
 44
0.0000000001
 40
0.0
 40
0.0
 40
0.0
 40
0.0
 40
0.405145132
 40
0.6606869364
 40
1.0
 40
1.0
 40
1.0
 40
1.0
 10
142.949125469
 20
204.5760172616
 30
0.0
 10
142.8518901118
 20
204.4934166509
 30
0.0
 10
142.6675078211
 20
204.3854812811
 30
0.0
 10
142.3598122121
 20
204.3102249956
 30
0.0
 10
142.1688132742
 20
204.3150095233
 30
0.0
 10
142.0636701764
 20
204.3340461315
 30
0.0
  0
SPLINE
  5
46D
100
AcDbEntity
  8
ASSEM_MEMBER
100
AcDbSpline
 62
7
  6
CONTINUOUS
 70
0
 71
3
 72
9
 73
5
 74
0
 42
0.0000001
 43
0.0000001
 44
0.0000000001
 40
0.0
 40
0.0
 40
0.0
 40
0.0
 40
0.5000116478
 40
1.0
 40
1.0
 40
1.0
 40
1.0
 10
143.1206109873
 20
207.18021447
 30
0.0
 10
142.9782004398
 20
207.0381536835
 30
0.0
 10
142.6488791531
 20
206.7952380314
 30
0.0
 10
142.2616007451
 20
206.6626208367
 30
0.0
 10
142.0636713681
 20
206.626812701
 30
0.0
  0
SPLINE
  5
46E
100
AcDbEntity
  8
ASSEM_MEMBER
100
AcDbSpline
 62
7
  6
CONTINUOUS
 70
0
 71
3
 72
10
 73
6
 74
0
 42
0.0000001
 43
0.0000001
 44
0.0000000001
 40
0.0
 40
0.0
 40
0.0
 40
0.0
 40
0.338955352
 40
0.5947282143
 40
1.0
 40
1.0
 40
1.0
 40
1.0
 10
196.479159818
 20
204.3340478659
 30
0.0
 10
196.3740777579
 20
204.3150370998
 30
0.0
 10
196.1830440819
 20
204.3102770549
 30
0.0
 10
195.8751896446
 20
204.3855004162
 30
0.0
 10
195.6906390533
 20
204.4935890295
 30
0.0
 10
195.5933532614
 20
204.5762804789
 30
0.0
  0
SPLINE
  5
46F
100
AcDbEntity
  8
ASSEM_MEMBER
100
AcDbSpline
 62
7
  6
CONTINUOUS
 70
0
 71
3
 72
10
 73
6
 74
0
 42
0.0000001
 43
0.0000001
 44
0.0000000001
 40
0.0
 40
0.0
 40
0.0
 40
0.0
 40
0.4052142441
 40
0.6607248039
 40
1.0
 40
1.0
 40
1.0
 40
1.0
 10
195.5935855688
 20
206.3847583002
 30
0.0
 10
195.6908415321
 20
206.4673990728
 30
0.0
 10
195.8752638914
 20
206.5753638672
 30
0.0
 10
196.1830044626
 20
206.650639957
 30
0.0
 10
196.3740118846
 20
206.6458559357
 30
0.0
 10
196.4791596794
 20
206.626818477
 30
0.0
  0
SPLINE
  5
470
100
AcDbEntity
  8
ASSEM_MEMBER
100
AcDbSpline
 62
7
  6
CONTINUOUS
 70
0
 71
3
 72
9
 73
5
 74
0
 42
0.0000001
 43
0.0000001
 44
0.0000000001
 40
0.0
 40
0.0
 40
0.0
 40
0.0
 40
0.5000116941
 40
1.0
 40
1.0
 40
1.0
 40
1.0
 10
195.4222188685
 20
203.7806501387
 30
0.0
 10
195.564629427
 20
203.9227109361
 30
0.0
 10
195.8939503583
 20
204.1656279343
 30
0.0
 10
196.2812303515
 20
204.2982403459
 30
0.0
 10
196.4791596969
 20
204.3340485349
 30
0.0
  0
LINE
  5
471
100
AcDbEntity
  8
ASSEM_MEMBER
100
AcDbLine
 62
7
  6
CONTINUOUS
 10
155.9818865146
 20
183.4364409991
 11
155.9822567739
 21
182.5240900373
  0
SPLINE
  5
472
100
AcDbEntity
  8
ASSEM_MEMBER
100
AcDbSpline
 62
7
  6
CONTINUOUS
 70
0
 71
3
 72
9
 73
5
 74
0
 42
0.0000001
 43
0.0000001
 44
0.0000000001
 40
0.0
 40
0.0
 40
0.0
 40
0.0
 40
0.4526887832
 40
1.0
 40
1.0
 40
1.0
 40
1.0
 10
182.5629781903
 20
184.8580653346
 30
0.0
 10
182.5647866848
 20
184.9177606281
 30
0.0
 10
182.5909423025
 20
185.0498946245
 30
0.0
 10
182.6689141286
 20
185.1633170149
 30
0.0
 10
182.7228167665
 20
185.2113610279
 30
0.0
  0
SPLINE
  5
473
100
AcDbEntity
  8
ASSEM_MEMBER
100
AcDbSpline
 62
7
  6
CONTINUOUS
 70
0
 71
3
 72
9
 73
5
 74
0
 42
0.0000001
 43
0.0000001
 44
0.0000000001
 40
0.0
 40
0.0
 40
0.0
 40
0.0
 40
0.2186101822
 40
1.0
 40
1.0
 40
1.0
 40
1.0
 10
182.7228167665
 20
185.2113610279
 30
0.0
 10
182.7354778371
 20
185.2226459791
 30
0.0
 10
182.7961630965
 20
185.2710506183
 30
0.0
 10
182.869843124
 20
185.3033839138
 30
0.0
 10
182.9290562117
 20
185.316378577
 30
0.0
  0
LINE
  5
474
100
AcDbEntity
  8
ASSEM_MEMBER
100
AcDbLine
 62
7
  6
CONTINUOUS
 10
182.5364728856
 20
185.2315198625
 11
182.5605611663
 21
184.8581875953
  0
SPLINE
  5
475
100
AcDbEntity
  8
ASSEM_MEMBER
100
AcDbSpline
 62
7
  6
CONTINUOUS
 70
0
 71
3
 72
9
 73
5
 74
0
 42
0.0000001
 43
0.0000001
 44
0.0000000001
 40
0.0
 40
0.0
 40
0.0
 40
0.0
 40
0.4512962292
 40
1.0
 40
1.0
 40
1.0
 40
1.0
 10
193.6946823488
 20
189.2817762068
 30
0.0
 10
193.5299242048
 20
189.0432070534
 30
0.0
 10
193.0923906461
 20
188.5614341981
 30
0.0
 10
192.5260966934
 20
188.2296780915
 30
0.0
 10
192.1971961722
 20
188.1028389177
 30
0.0
  0
SPLINE
  5
476
100
AcDbEntity
  8
ASSEM_MEMBER
100
AcDbSpline
 62
7
  6
CONTINUOUS
 70
0
 71
3
 72
9
 73
5
 74
0
 42
0.0000001
 43
0.0000001
 44
0.0000000001
 40
0.0
 40
0.0
 40
0.0
 40
0.0
 40
0.5505380272
 40
1.0
 40
1.0
 40
1.0
 40
1.0
 10
194.4364728856
 20
191.3664234239
 30
0.0
 10
194.4364721713
 20
191.0219564197
 30
0.0
 10
194.3354888896
 20
190.3912765863
 30
0.0
 10
194.0568463684
 20
189.8224795336
 30
0.0
 10
193.9015733889
 20
189.5880065929
 30
0.0
  0
SPLINE
  5
477
100
AcDbEntity
  8
ASSEM_MEMBER
100
AcDbSpline
 62
7
  6
CONTINUOUS
 70
0
 71
3
 72
11
 73
7
 74
0
 42
0.0000001
 43
0.0000001
 44
0.0000000001
 40
0.0
 40
0.0
 40
0.0
 40
0.0
 40
0.2103976922
 40
0.4452801415
 40
0.7114992598
 40
1.0
 40
1.0
 40
1.0
 40
1.0
 10
193.9015733889
 20
213.3854797865
 30
0.0
 10
193.9760798197
 20
213.2771069613
 30
0.0
 10
194.1190740582
 20
213.0374186163
 30
0.0
 10
194.2967304267
 20
212.627895862
 30
0.0
 10
194.4127667141
 20
212.1455079401
 30
0.0
 10
194.4367483576
 20
211.7979560093
 30
0.0
 10
194.4364728856
 20
211.6176223674
 30
0.0
  0
SPLINE
  5
478
100
AcDbEntity
  8
ASSEM_MEMBER
100
AcDbSpline
 62
7
  6
CONTINUOUS
 70
0
 71
3
 72
11
 73
7
 74
0
 42
0.0000001
 43
0.0000001
 44
0.0000000001
 40
0.0
 40
0.0
 40
0.0
 40
0.0
 40
0.2885006661
 40
0.5547197641
 40
0.7896022864
 40
1.0
 40
1.0
 40
1.0
 40
1.0
 10
190.9386049911
 20
215.115490262
 30
0.0
 10
191.1189385846
 20
215.1157665403
 30
0.0
 10
191.4664904531
 20
215.0917836563
 30
0.0
 10
191.9488783546
 20
214.9757479163
 30
0.0
 10
192.3584012814
 20
214.7980915949
 30
0.0
 10
192.5980893706
 20
214.6550969072
 30
0.0
 10
192.7064624101
 20
214.5805907653
 30
0.0
  0
SPLINE
  5
479
100
AcDbEntity
  8
ASSEM_MEMBER
100
AcDbSpline
 62
7
  6
CONTINUOUS
 70
0
 71
3
 72
11
 73
7
 74
0
 42
0.0000001
 43
0.0000001
 44
0.0000000001
 40
0.0
 40
0.0
 40
0.0
 40
0.0
 40
0.2103976922
 40
0.4452801415
 40
0.7114992598
 40
1.0
 40
1.0
 40
1.0
 40
1.0
 10
145.8363674458
 20
214.5805907653
 30
0.0
 10
145.9447402709
 20
214.6550971961
 30
0.0
 10
146.1844286159
 20
214.7980914346
 30
0.0
 10
146.5939513702
 20
214.9757478031
 30
0.0
 10
147.0763392921
 20
215.0917840904
 30
0.0
 10
147.4238912229
 20
215.1157657339
 30
0.0
 10
147.6042248648
 20
215.115490262
 30
0.0
  0
SPLINE
  5
47A
100
AcDbEntity
  8
ASSEM_MEMBER
100
AcDbSpline
 62
7
  6
CONTINUOUS
 70
0
 71
3
 72
11
 73
7
 74
0
 42
0.0000001
 43
0.0000001
 44
0.0000000001
 40
0.0
 40
0.0
 40
0.0
 40
0.0
 40
0.2885006661
 40
0.5547197641
 40
0.7896022864
 40
1.0
 40
1.0
 40
1.0
 40
1.0
 10
144.1063569702
 20
211.6176223674
 30
0.0
 10
144.1060806919
 20
211.797955961
 30
0.0
 10
144.1300635759
 20
212.1455078295
 30
0.0
 10
144.2460993159
 20
212.627895731
 30
0.0
 10
144.4237556373
 20
213.0374186577
 30
0.0
 10
144.566750325
 20
213.277106747
 30
0.0
 10
144.6412564669
 20
213.3854797865
 30
0.0
  0
SPLINE
  5
47B
100
AcDbEntity
  8
ASSEM_MEMBER
100
AcDbSpline
 62
7
  6
CONTINUOUS
 70
0
 71
3
 72
10
 73
6
 74
0
 42
0.0000001
 43
0.0000001
 44
0.0000000001
 40
0.0
 40
0.0
 40
0.0
 40
0.0
 40
0.3388555355
 40
0.5945371759
 40
1.0
 40
1.0
 40
1.0
 40
1.0
 10
142.063671247
 20
206.6268133693
 30
0.0
 10
142.1687685137
 20
206.6458268267
 30
0.0
 10
142.3598270914
 20
206.6505893955
 30
0.0
 10
142.6678075057
 20
206.5753070817
 30
0.0
 10
142.8524686337
 20
206.4671368249
 30
0.0
 10
142.9498114482
 20
206.3843329119
 30
0.0
  0
SPLINE
  5
47C
100
AcDbEntity
  8
ASSEM_MEMBER
100
AcDbSpline
 62
7
  6
CONTINUOUS
 70
0
 71
3
 72
9
 73
5
 74
0
 42
0.0000001
 43
0.0000001
 44
0.0000000001
 40
0.0
 40
0.0
 40
0.0
 40
0.0
 40
0.4677963181
 40
1.0
 40
1.0
 40
1.0
 40
1.0
 10
143.8622172424
 20
202.6937797858
 30
0.0
 10
143.7971099805
 20
202.8647806712
 30
0.0
 10
143.6244936734
 20
203.2190089923
 30
0.0
 10
143.3754103953
 20
203.5258529443
 30
0.0
 10
143.2282125817
 20
203.6730501606
 30
0.0
  0
SPLINE
  5
47D
100
AcDbEntity
  8
ASSEM_MEMBER
100
AcDbSpline
 62
7
  6
CONTINUOUS
 70
0
 71
3
 72
9
 73
5
 74
0
 42
0.0000001
 43
0.0000001
 44
0.0000000001
 40
0.0
 40
0.0
 40
0.0
 40
0.0
 40
0.449461849
 40
1.0
 40
1.0
 40
1.0
 40
1.0
 10
144.6412564669
 20
189.5880066823
 30
0.0
 10
144.4859835339
 20
189.8224795449
 30
0.0
 10
144.2073410295
 20
190.3912765548
 30
0.0
 10
144.1063576343
 20
191.0219563585
 30
0.0
 10
144.1063569702
 20
191.3664234239
 30
0.0
  0
SPLINE
  5
47E
100
AcDbEntity
  8
ASSEM_MEMBER
100
AcDbSpline
 62
7
  6
CONTINUOUS
 70
0
 71
3
 72
9
 73
5
 74
0
 42
0.0000001
 43
0.0000001
 44
0.0000000001
 40
0.0
 40
0.0
 40
0.0
 40
0.0
 40
0.5000131694
 40
1.0
 40
1.0
 40
1.0
 40
1.0
 10
156.0063559233
 20
182.4917179029
 30
0.0
 10
156.0061782148
 20
182.1184117908
 30
0.0
 10
155.9225464591
 20
181.3694633586
 30
0.0
 10
155.6737766394
 20
180.6579716593
 30
0.0
 10
155.5118757694
 20
180.3216222696
 30
0.0
  0
LINE
  5
47F
100
AcDbEntity
  8
ASSEM_MEMBER
100
AcDbLine
 62
7
  6
CONTINUOUS
 10
155.9811703198
 20
184.8411984625
 11
155.9978070589
 21
185.099475352
  0
SPLINE
  5
480
100
AcDbEntity
  8
ASSEM_MEMBER
100
AcDbSpline
 62
9
  6
CONTINUOUS
 70
0
 71
3
 72
28
 73
24
 74
0
 42
0.0000001
 43
0.0000001
 44
0.0000000001
 40
0.0
 40
0.0
 40
0.0
 40
0.0
 40
0.0624737901
 40
0.0937461839
 40
0.1250192702
 40
0.1874932468
 40
0.2499696617
 40
0.2812461001
 40
0.3125228081
 40
0.3750026193
 40
0.4374834089
 40
0.4999646233
 40
0.5624456338
 40
0.6249258199
 40
0.6874047244
 40
0.7186809424
 40
0.7499568898
 40
0.8124325192
 40
0.874905854
 40
0.90617911
 40
0.9374518927
 40
0.9687325628
 40
1.0
 40
1.0
 40
1.0
 40
1.0
 10
148.2720341619
 20
66.7011226513
 30
0.0
 10
148.2810520183
 20
68.0679866452
 30
0.0
 10
148.4942869142
 20
70.125205734
 30
0.0
 10
149.1736992901
 20
72.77812343
 30
0.0
 10
150.108395519
 20
75.35304639
 30
0.0
 10
151.7425141874
 20
78.3815568075
 30
0.0
 10
153.9352022279
 20
81.0340146955
 30
0.0
 10
155.970415362
 20
82.8676613631
 30
0.0
 10
158.1745778721
 20
84.4943277395
 30
0.0
 10
161.2132120051
 20
86.1114110764
 30
0.0
 10
165.1637546644
 20
87.3045742893
 30
0.0
 10
169.2715148216
 20
87.7076906692
 30
0.0
 10
173.3792585037
 20
87.3045414614
 30
0.0
 10
177.3297546055
 20
86.1113540696
 30
0.0
 10
180.3683365511
 20
84.4942689663
 30
0.0
 10
182.5724638619
 20
82.8676259512
 30
0.0
 10
184.607638564
 20
81.0339883806
 30
0.0
 10
186.8003156021
 20
78.381628319
 30
0.0
 10
188.4343838308
 20
75.3529350943
 30
0.0
 10
189.3690994988
 20
72.7784027542
 30
0.0
 10
189.879256137
 20
70.7863240766
 30
0.0
 10
190.190660466
 20
68.7541725212
 30
0.0
 10
190.2658073333
 20
67.3852195814
 30
0.0
 10
190.27079538
 20
66.7011226495
 30
0.0
  0
SPLINE
  5
481
100
AcDbEntity
  8
ASSEM_MEMBER
100
AcDbSpline
 62
9
  6
CONTINUOUS
 70
0
 71
3
 72
18
 73
14
 74
0
 42
0.0000001
 43
0.0000001
 44
0.0000000001
 40
0.0
 40
0.0
 40
0.0
 40
0.0
 40
0.0056920849
 40
0.0217524552
 40
0.0478434821
 40
0.0831010086
 40
0.1265179917
 40
0.1768694424
 40
0.2932414731
 40
0.4330306437
 40
0.6020606631
 40
0.7944078787
 40
1.0
 40
1.0
 40
1.0
 40
1.0
 10
147.7718123839
 20
66.6954309764
 30
0.0
 10
147.7718222235
 20
66.6963809324
 30
0.0
 10
147.7773304967
 20
66.6961455137
 30
0.0
 10
147.7835038558
 20
66.6976472577
 30
0.0
 10
147.7973840166
 20
66.6979256121
 30
0.0
 10
147.8144436412
 20
66.6987865687
 30
0.0
 10
147.8361202555
 20
66.6993312325
 30
0.0
 10
147.8711199922
 20
66.7001165075
 30
0.0
 10
147.9223107994
 20
66.7008167689
 30
0.0
 10
147.993257417
 20
66.7013972223
 30
0.0
 10
148.0769071652
 20
66.701676026
 30
0.0
 10
148.171532537
 20
66.7016161766
 30
0.0
 10
148.23794847
 20
66.7013298082
 30
0.0
 10
148.2722610881
 20
66.7011212087
 30
0.0
  0
SPLINE
  5
482
100
AcDbEntity
  8
ASSEM_MEMBER
100
AcDbSpline
 62
9
  6
CONTINUOUS
 70
0
 71
3
 72
18
 73
14
 74
0
 42
0.0000001
 43
0.0000001
 44
0.0000000001
 40
0.0
 40
0.0
 40
0.0
 40
0.0
 40
0.205648209
 40
0.3979881621
 40
0.5669798506
 40
0.7067303129
 40
0.8231119544
 40
0.8734638481
 40
0.9168799324
 40
0.9521373165
 40
0.9782307799
 40
0.9942974441
 40
1.0
 40
1.0
 40
1.0
 40
1.0
 10
148.2655986573
 20
66.3983996065
 30
0.0
 10
148.2313456979
 20
66.3995952575
 30
0.0
 10
148.1650518247
 20
66.4017922454
 30
0.0
 10
148.0706001689
 20
66.4045749161
 30
0.0
 10
147.9871101022
 20
66.4067036135
 30
0.0
 10
147.9162881666
 20
66.4081659637
 30
0.0
 10
147.8651763201
 20
66.4089404918
 30
0.0
 10
147.8302161828
 20
66.409164099
 30
0.0
 10
147.8085650895
 20
66.409244655
 30
0.0
 10
147.7915082581
 20
66.4088758963
 30
0.0
 10
147.777652349
 20
66.4089990919
 30
0.0
 10
147.7714296984
 20
66.407675049
 30
0.0
 10
147.7659491833
 20
66.4080724904
 30
0.0
 10
147.7659048105
 20
66.4071231252
 30
0.0
  0
SPLINE
  5
483
100
AcDbEntity
  8
ASSEM_MEMBER
100
AcDbSpline
 62
9
  6
CONTINUOUS
 70
0
 71
3
 72
18
 73
14
 74
0
 42
0.0000001
 43
0.0000001
 44
0.0000000001
 40
0.0
 40
0.0
 40
0.0
 40
0.0
 40
0.0056926913
 40
0.0217535987
 40
0.0478450462
 40
0.0831028726
 40
0.1265200359
 40
0.1768715524
 40
0.2932434423
 40
0.4330325123
 40
0.6020621642
 40
0.7944087332
 40
1.0
 40
1.0
 40
1.0
 40
1.0
 10
190.7710174713
 20
66.6954310394
 30
0.0
 10
190.7710072675
 20
66.6963810939
 30
0.0
 10
190.7654994525
 20
66.696145431
 30
0.0
 10
190.7593251353
 20
66.697647371
 30
0.0
 10
190.7454451495
 20
66.6979256262
 30
0.0
 10
190.7283851794
 20
66.6987866164
 30
0.0
 10
190.7067085121
 20
66.6993312614
 30
0.0
 10
190.6717086874
 20
66.7001165343
 30
0.0
 10
190.6205178644
 20
66.7008167857
 30
0.0
 10
190.5495712559
 20
66.7013972342
 30
0.0
 10
190.4659215951
 20
66.7016760323
 30
0.0
 10
190.3712964202
 20
66.7016161794
 30
0.0
 10
190.3048806578
 20
66.70132981
 30
0.0
 10
190.2705681408
 20
66.7011212103
 30
0.0
  0
SPLINE
  5
484
100
AcDbEntity
  8
ASSEM_MEMBER
100
AcDbSpline
 62
9
  6
CONTINUOUS
 70
0
 71
3
 72
18
 73
14
 74
0
 42
0.0000001
 43
0.0000001
 44
0.0000000001
 40
0.0
 40
0.0
 40
0.0
 40
0.0
 40
0.0057025559
 40
0.0217692202
 40
0.0478626836
 40
0.0831200677
 40
0.1265361521
 40
0.1768880457
 40
0.2932696873
 40
0.4330201495
 40
0.6020118381
 40
0.7943517911
 40
1.0
 40
1.0
 40
1.0
 40
1.0
 10
190.7769250453
 20
66.4071231252
 30
0.0
 10
190.7768806725
 20
66.4080724904
 30
0.0
 10
190.7714001575
 20
66.407675049
 30
0.0
 10
190.7651775068
 20
66.4089990918
 30
0.0
 10
190.7513215977
 20
66.4088758963
 30
0.0
 10
190.7342647663
 20
66.409244655
 30
0.0
 10
190.712613673
 20
66.409164099
 30
0.0
 10
190.6776535357
 20
66.4089404917
 30
0.0
 10
190.6265416891
 20
66.4081659636
 30
0.0
 10
190.5557197536
 20
66.4067036135
 30
0.0
 10
190.4722296868
 20
66.4045749161
 30
0.0
 10
190.3777780311
 20
66.4017922454
 30
0.0
 10
190.3114841579
 20
66.3995952575
 30
0.0
 10
190.2772311986
 20
66.3983996065
 30
0.0
  0
SPLINE
  5
485
100
AcDbEntity
  8
ASSEM_MEMBER
100
AcDbSpline
 62
7
  6
CONTINUOUS
 70
0
 71
3
 72
25
 73
21
 74
0
 42
0.0000001
 43
0.0000001
 44
0.0000000001
 40
0.0
 40
0.0
 40
0.0
 40
0.0
 40
0.0624815088
 40
0.1249659302
 40
0.1562473393
 40
0.1875283961
 40
0.2500200286
 40
0.3125128791
 40
0.3750078575
 40
0.4375036782
 40
0.499999587
 40
0.5624950765
 40
0.6249898734
 40
0.687483544
 40
0.749976014
 40
0.8124666821
 40
0.8437481257
 40
0.8750297776
 40
0.937515028
 40
1.0
 40
1.0
 40
1.0
 40
1.0
 10
154.4714149182
 20
66.5824089276
 30
0.0
 10
154.4662332457
 20
65.6154614046
 30
0.0
 10
154.6627161222
 20
63.6760448808
 30
0.0
 10
155.3703284179
 20
61.3478659559
 30
0.0
 10
156.1972545478
 20
59.5950299316
 30
0.0
 10
157.1937863598
 20
57.9328548983
 30
0.0
 10
158.7381594041
 20
56.0499073258
 30
0.0
 10
160.9955885224
 20
54.1982148546
 30
0.0
 10
163.5706154622
 20
52.8208299784
 30
0.0
 10
166.3652296952
 20
51.9734078086
 30
0.0
 10
169.2713789534
 20
51.6871363364
 30
0.0
 10
172.177588281
 20
51.9732856446
 30
0.0
 10
174.9719510264
 20
52.8211213327
 30
0.0
 10
177.5474988948
 20
54.1975876267
 30
0.0
 10
179.8039887864
 20
56.0503358943
 30
0.0
 10
181.3491988282
 20
57.9325017777
 30
0.0
 10
182.3455228592
 20
59.594837331
 30
0.0
 10
183.1725115675
 20
61.3476204093
 30
0.0
 10
183.8805029879
 20
63.6759626403
 30
0.0
 10
184.0754050312
 20
65.6154034591
 30
0.0
 10
184.0714149376
 20
66.5824102309
 30
0.0
  0
SPLINE
  5
486
100
AcDbEntity
  8
ASSEM_MEMBER
100
AcDbSpline
 62
7
  6
CONTINUOUS
 70
0
 71
3
 72
25
 73
21
 74
0
 42
0.0000001
 43
0.0000001
 44
0.0000000001
 40
0.0
 40
0.0
 40
0.0
 40
0.0
 40
0.0624815088
 40
0.1249659302
 40
0.1562473393
 40
0.1875283961
 40
0.2500200286
 40
0.3125128791
 40
0.3750078575
 40
0.4375036782
 40
0.499999587
 40
0.5624950765
 40
0.6249898734
 40
0.687483544
 40
0.749976014
 40
0.8124666821
 40
0.8437481257
 40
0.8750297776
 40
0.937515028
 40
1.0
 40
1.0
 40
1.0
 40
1.0
 10
184.0714149376
 20
66.5824102309
 30
0.0
 10
184.0765966102
 20
67.549357754
 30
0.0
 10
183.8801137338
 20
69.4887742779
 30
0.0
 10
183.1725014381
 20
71.8169532029
 30
0.0
 10
182.3455753083
 20
73.5697892274
 30
0.0
 10
181.3490434964
 20
75.2319642608
 30
0.0
 10
179.8046704521
 20
77.1149118334
 30
0.0
 10
177.5472413338
 20
78.9666043048
 30
0.0
 10
174.9722143939
 20
80.3439891811
 30
0.0
 10
172.1776001607
 20
81.1914113509
 30
0.0
 10
169.2714509025
 20
81.4776828232
 30
0.0
 10
166.3652415748
 20
81.191533515
 30
0.0
 10
163.5708788292
 20
80.3436978268
 30
0.0
 10
160.9953309608
 20
78.9672315326
 30
0.0
 10
158.7388410691
 20
77.114483265
 30
0.0
 10
157.1936310272
 20
75.2323173814
 30
0.0
 10
156.1973069965
 20
73.5699818279
 30
0.0
 10
155.3703182867
 20
71.8171987499
 30
0.0
 10
154.6623268746
 20
69.4888565181
 30
0.0
 10
154.4674248142
 20
67.5494156995
 30
0.0
 10
154.4714149182
 20
66.5824089276
 30
0.0
  0
SPLINE
  5
487
100
AcDbEntity
  8
ASSEM_MEMBER
100
AcDbSpline
 62
9
  6
CONTINUOUS
 70
0
 71
3
 72
16
 73
12
 74
0
 42
0.0000001
 43
0.0000001
 44
0.0000000001
 40
0.0
 40
0.0
 40
0.0
 40
0.0
 40
0.3819176985
 40
0.5545112049
 40
0.7056803254
 40
0.8297676459
 40
0.9222207559
 40
0.9553237055
 40
0.9793111939
 40
0.9940892618
 40
1.0
 40
1.0
 40
1.0
 40
1.0
 10
201.9607558338
 20
43.3717184559
 30
0.0
 10
201.9989644492
 20
43.373051105
 30
0.0
 10
202.0544579847
 20
43.3746362427
 30
0.0
 10
202.1250806119
 20
43.3758135568
 30
0.0
 10
202.1699367981
 20
43.3761366659
 30
0.0
 10
202.2066792689
 20
43.3759147366
 30
0.0
 10
202.231812427
 20
43.3752955052
 30
0.0
 10
202.2465572266
 20
43.3744264423
 30
0.0
 10
202.2540625161
 20
43.3737301298
 30
0.0
 10
202.2578509051
 20
43.3730275821
 30
0.0
 10
202.2605524321
 20
43.3723097895
 30
0.0
 10
202.2605730819
 20
43.3717184559
 30
0.0
  0
SPLINE
  5
488
100
AcDbEntity
  8
ASSEM_MEMBER
100
AcDbSpline
 62
9
  6
CONTINUOUS
 70
0
 71
3
 72
18
 73
14
 74
0
 42
0.0000001
 43
0.0000001
 44
0.0000000001
 40
0.0
 40
0.0
 40
0.0
 40
0.0
 40
0.0051349992
 40
0.0196470794
 40
0.0435052217
 40
0.0765504537
 40
0.1185491479
 40
0.1690242531
 40
0.293248092
 40
0.4446330272
 40
0.6174937384
 40
0.8053951015
 40
1.0
 40
1.0
 40
1.0
 40
1.0
 10
146.9687170823
 20
43.5786983552
 30
0.0
 10
146.9687469499
 20
43.5795536514
 30
0.0
 10
146.9736900092
 20
43.5792762684
 30
0.0
 10
146.9793450454
 20
43.5804683231
 30
0.0
 10
146.9921273862
 20
43.5804245174
 30
0.0
 10
147.0082249343
 20
43.5807995999
 30
0.0
 10
147.0292913259
 20
43.5807539733
 30
0.0
 10
147.0653388268
 20
43.5805545933
 30
0.0
 10
147.1197225273
 20
43.5797392923
 30
0.0
 10
147.1944325012
 20
43.5781771623
 30
0.0
 10
147.2797664017
 20
43.5759737477
 30
0.0
 10
147.3722833315
 20
43.5732213794
 30
0.0
 10
147.4359986848
 20
43.5711063805
 30
0.0
 10
147.4684124958
 20
43.5699748101
 30
0.0
  0
SPLINE
  5
489
100
AcDbEntity
  8
ASSEM_MEMBER
100
AcDbSpline
 62
9
  6
CONTINUOUS
 70
0
 71
3
 72
16
 73
12
 74
0
 42
0.0000001
 43
0.0000001
 44
0.0000000001
 40
0.0
 40
0.0
 40
0.0
 40
0.0
 40
0.0059107385
 40
0.0206888071
 40
0.0446762961
 40
0.0777792462
 40
0.170232358
 40
0.2943196803
 40
0.4454888014
 40
0.6180823061
 40
1.0
 40
1.0
 40
1.0
 40
1.0
 10
136.282256774
 20
43.3717184559
 30
0.0
 10
136.2822774238
 20
43.3723097895
 30
0.0
 10
136.2849789509
 20
43.3730275821
 30
0.0
 10
136.28876734
 20
43.3737301298
 30
0.0
 10
136.2962726298
 20
43.3744264423
 30
0.0
 10
136.3110174296
 20
43.3752955053
 30
0.0
 10
136.3361505881
 20
43.3759147366
 30
0.0
 10
136.3728930593
 20
43.3761366659
 30
0.0
 10
136.4177492456
 20
43.3758135568
 30
0.0
 10
136.4883718723
 20
43.3746362427
 30
0.0
 10
136.5438654071
 20
43.373051105
 30
0.0
 10
136.5820740221
 20
43.3717184559
 30
0.0
  0
SPLINE
  5
48A
100
AcDbEntity
  8
ASSEM_MEMBER
100
AcDbSpline
 62
9
  6
CONTINUOUS
 70
0
 71
3
 72
18
 73
14
 74
0
 42
0.0000001
 43
0.0000001
 44
0.0000000001
 40
0.0
 40
0.0
 40
0.0
 40
0.0
 40
0.1946048984
 40
0.3825062614
 40
0.5553669726
 40
0.7067519078
 40
0.8309757467
 40
0.881450852
 40
0.9234495461
 40
0.9564947782
 40
0.9803529206
 40
0.9948650007
 40
1.0
 40
1.0
 40
1.0
 40
1.0
 10
191.0744173601
 20
43.5699748101
 30
0.0
 10
191.106831171
 20
43.5711063805
 30
0.0
 10
191.1705465243
 20
43.5732213794
 30
0.0
 10
191.2630634541
 20
43.5759737477
 30
0.0
 10
191.3483973546
 20
43.5781771623
 30
0.0
 10
191.4231073285
 20
43.5797392923
 30
0.0
 10
191.4774910289
 20
43.5805545933
 30
0.0
 10
191.5135385299
 20
43.5807539733
 30
0.0
 10
191.5346049215
 20
43.5807995999
 30
0.0
 10
191.5507024696
 20
43.5804245174
 30
0.0
 10
191.5634848104
 20
43.5804683231
 30
0.0
 10
191.5691398467
 20
43.5792762684
 30
0.0
 10
191.574082906
 20
43.5795536514
 30
0.0
 10
191.5741127736
 20
43.5786983552
 30
0.0
  0
SPLINE
  5
48B
100
AcDbEntity
  8
ASSEM_MEMBER
100
AcDbSpline
 62
9
  6
CONTINUOUS
 70
0
 71
3
 72
17
 73
13
 74
0
 42
0.0000001
 43
0.0000001
 44
0.0000000001
 40
0.0
 40
0.0
 40
0.0
 40
0.0
 40
0.1943057533
 40
0.3818741897
 40
0.5544134131
 40
0.7055527197
 40
0.8296803047
 40
0.9221859526
 40
0.9553020045
 40
0.9793055168
 40
0.9940949478
 40
1.0
 40
1.0
 40
1.0
 40
1.0
 10
134.7796251849
 20
55.2391633697
 30
0.0
 10
134.7472269513
 20
55.2402864657
 30
0.0
 10
134.6835471178
 20
55.2422764782
 30
0.0
 10
134.5910721865
 20
55.2445364545
 30
0.0
 10
134.5058006744
 20
55.2459457392
 30
0.0
 10
134.4310485566
 20
55.246482341
 30
0.0
 10
134.369802638
 20
55.2461144649
 30
0.0
 10
134.3278949541
 20
55.2450916305
 30
0.0
 10
134.3033095222
 20
55.2436482283
 30
0.0
 10
134.290788657
 20
55.2424985766
 30
0.0
 10
134.2844790412
 20
55.241327637
 30
0.0
 10
134.2799641547
 20
55.24014796
 30
0.0
 10
134.2799297714
 20
55.2391633697
 30
0.0
  0
SPLINE
  5
48C
100
AcDbEntity
  8
ASSEM_MEMBER
100
AcDbSpline
 62
9
  6
CONTINUOUS
 70
0
 71
3
 72
17
 73
13
 74
0
 42
0.0000001
 43
0.0000001
 44
0.0000000001
 40
0.0
 40
0.0
 40
0.0
 40
0.0
 40
0.005681116
 40
0.0203264568
 40
0.0441812652
 40
0.0771361518
 40
0.1692300276
 40
0.2929866143
 40
0.4439742325
 40
0.6166741095
 40
0.8047705114
 40
1.0
 40
1.0
 40
1.0
 40
1.0
 10
135.4587566651
 20
59.6138768349
 30
0.0
 10
135.4591998916
 20
59.6146978467
 30
0.0
 10
135.4636453216
 20
59.6134886461
 30
0.0
 10
135.4695544694
 20
59.611817789
 30
0.0
 10
135.4810117394
 20
59.6071816918
 30
0.0
 10
135.5031322626
 20
59.5976478375
 30
0.0
 10
135.5403567073
 20
59.5801423542
 30
0.0
 10
135.5943597414
 20
59.5537137689
 30
0.0
 10
135.6600141662
 20
59.5206049869
 30
0.0
 10
135.7347365049
 20
59.4821515554
 30
0.0
 10
135.8156419338
 20
59.4397967113
 30
0.0
 10
135.8712394293
 20
59.4102669703
 30
0.0
 10
135.8995107336
 20
59.3951427062
 30
0.0
  0
SPLINE
  5
48D
100
AcDbEntity
  8
ASSEM_MEMBER
100
AcDbSpline
 62
9
  6
CONTINUOUS
 70
0
 71
3
 72
10
 73
6
 74
0
 42
0.0000001
 43
0.0000001
 44
0.0000000001
 40
0.0
 40
0.0
 40
0.0
 40
0.0
 40
0.4229772478
 40
0.7066370459
 40
1.0
 40
1.0
 40
1.0
 40
1.0
 10
171.960906634
 20
88.2517722218
 30
0.0
 10
171.5809673739
 20
88.24922337
 30
0.0
 10
170.9461819426
 20
88.2510408629
 30
0.0
 10
170.0480001419
 20
88.2634216221
 30
0.0
 10
169.5296760859
 20
88.2665826769
 30
0.0
 10
169.2661569318
 20
88.2666642983
 30
0.0
  0
SPLINE
  5
48E
100
AcDbEntity
  8
ASSEM_MEMBER
100
AcDbSpline
 62
9
  6
CONTINUOUS
 70
0
 71
3
 72
17
 73
13
 74
0
 42
0.0000001
 43
0.0000001
 44
0.0000000001
 40
0.0
 40
0.0
 40
0.0
 40
0.0
 40
0.195187395
 40
0.3831584148
 40
0.555756102
 40
0.7067299224
 40
0.830578802
 40
0.9227841605
 40
0.9557653789
 40
0.9796464684
 40
0.9943118249
 40
1.0
 40
1.0
 40
1.0
 40
1.0
 10
148.8136953517
 20
83.5061631044
 30
0.0
 10
148.7854301809
 20
83.5212840872
 30
0.0
 10
148.7298572956
 20
83.5508013465
 30
0.0
 10
148.6489911758
 20
83.5931355277
 30
0.0
 10
148.5743045736
 20
83.631571509
 30
0.0
 10
148.5086542721
 20
83.6646797058
 30
0.0
 10
148.4546237485
 20
83.6911223608
 30
0.0
 10
148.4173658705
 20
83.7086469503
 30
0.0
 10
148.3952209062
 20
83.7181900754
 30
0.0
 10
148.3837519432
 20
83.7228327723
 30
0.0
 10
148.3778367193
 20
83.7245042793
 30
0.0
 10
148.3733850598
 20
83.7257192639
 30
0.0
 10
148.3729412831
 20
83.7248972331
 30
0.0
  0
SPLINE
  5
48F
100
AcDbEntity
  8
ASSEM_MEMBER
100
AcDbSpline
 62
9
  6
CONTINUOUS
 70
0
 71
3
 72
17
 73
13
 74
0
 42
0.0000001
 43
0.0000001
 44
0.0000000001
 40
0.0
 40
0.0
 40
0.0
 40
0.0
 40
0.0056811623
 40
0.0203266068
 40
0.0441815068
 40
0.0771364064
 40
0.1692302441
 40
0.2929867147
 40
0.4439740739
 40
0.6166738704
 40
0.8047704218
 40
1.0
 40
1.0
 40
1.0
 40
1.0
 10
190.1593481802
 20
83.7337932116
 30
0.0
 10
190.1589045994
 20
83.7346140407
 30
0.0
 10
190.1544596519
 20
83.733402914
 30
0.0
 10
190.1485511867
 20
83.731729542
 30
0.0
 10
190.1370958581
 20
83.727088545
 30
0.0
 10
190.1149793824
 20
83.7175452791
 30
0.0
 10
190.0777624155
 20
83.7000239522
 30
0.0
 10
190.0237706992
 20
83.6735724038
 30
0.0
 10
189.9581304403
 20
83.6404357059
 30
0.0
 10
189.8834245065
 20
83.6019504752
 30
0.0
 10
189.8025370928
 20
83.5595611737
 30
0.0
 10
189.7469521383
 20
83.5300077447
 30
0.0
 10
189.7186872623
 20
83.514871437
 30
0.0
  0
SPLINE
  5
490
100
AcDbEntity
  8
ASSEM_MEMBER
100
AcDbSpline
 62
9
  6
CONTINUOUS
 70
0
 71
3
 72
10
 73
6
 74
0
 42
0.0000001
 43
0.0000001
 44
0.0000000001
 40
0.0
 40
0.0
 40
0.0
 40
0.0
 40
0.2896039641
 40
0.5701412863
 40
1.0
 40
1.0
 40
1.0
 40
1.0
 10
169.2661569318
 20
88.2666642983
 30
0.0
 10
169.0105892536
 20
88.2681142731
 30
0.0
 10
168.50744103
 20
88.2623998024
 30
0.0
 10
167.625043141
 20
88.2518342659
 30
0.0
 10
166.9980953969
 20
88.2475828585
 30
0.0
 10
166.6187603756
 20
88.2503083937
 30
0.0
  0
SPLINE
  5
491
100
AcDbEntity
  8
ASSEM_MEMBER
100
AcDbSpline
 62
9
  6
CONTINUOUS
 70
0
 71
3
 72
17
 73
13
 74
0
 42
0.0000001
 43
0.0000001
 44
0.0000000001
 40
0.0
 40
0.0
 40
0.0
 40
0.0
 40
0.1951875815
 40
0.3831589385
 40
0.5557565327
 40
0.7067299939
 40
0.8305787165
 40
0.9227840244
 40
0.9557652535
 40
0.9796463908
 40
0.9943118002
 40
1.0
 40
1.0
 40
1.0
 40
1.0
 10
202.6431367404
 20
59.4093518711
 30
0.0
 10
202.6713954984
 20
59.4244849025
 30
0.0
 10
202.7269558902
 20
59.45402586
 30
0.0
 10
202.8078040431
 20
59.4963945034
 30
0.0
 10
202.882474259
 20
59.5348622749
 30
0.0
 10
202.9481103734
 20
59.5679983723
 30
0.0
 10
203.0021295519
 20
59.5944639902
 30
0.0
 10
203.0393799368
 20
59.6120044293
 30
0.0
 10
203.0615208398
 20
59.6215569782
 30
0.0
 10
203.0729878426
 20
59.6262045691
 30
0.0
 10
203.0789023709
 20
59.6278785944
 30
0.0
 10
203.0833535286
 20
59.6290954905
 30
0.0
 10
203.0837976583
 20
59.6282736457
 30
0.0
  0
SPLINE
  5
492
100
AcDbEntity
  8
ASSEM_MEMBER
100
AcDbSpline
 62
9
  6
CONTINUOUS
 70
0
 71
3
 72
17
 73
13
 74
0
 42
0.0000001
 43
0.0000001
 44
0.0000000001
 40
0.0
 40
0.0
 40
0.0
 40
0.0
 40
0.0058979279
 40
0.0206666207
 40
0.0446428187
 40
0.0777314578
 40
0.1701203326
 40
0.2941518079
 40
0.4453055098
 40
0.6179512991
 40
0.8056503302
 40
1.0
 40
1.0
 40
1.0
 40
1.0
 10
204.2644871202
 20
55.2540625034
 30
0.0
 10
204.2644523584
 20
55.2550458927
 30
0.0
 10
204.2599456387
 20
55.2562259717
 30
0.0
 10
204.2536415028
 20
55.257392249
 30
0.0
 10
204.2411343393
 20
55.2585371469
 30
0.0
 10
204.2165758656
 20
55.2599671933
 30
0.0
 10
204.174708559
 20
55.2609748157
 30
0.0
 10
204.1134952212
 20
55.2613170907
 30
0.0
 10
204.038739113
 20
55.2607502313
 30
0.0
 10
203.9534260669
 20
55.2593049179
 30
0.0
 10
203.8609050717
 20
55.257004313
 30
0.0
 10
203.79719686
 20
55.2549868908
 30
0.0
 10
203.7647917294
 20
55.2538497414
 30
0.0
  0
SPLINE
  5
493
100
AcDbEntity
  8
ASSEM_MEMBER
100
AcDbSpline
 62
9
  6
CONTINUOUS
 70
0
 71
3
 72
17
 73
13
 74
0
 42
0.0000001
 43
0.0000001
 44
0.0000000001
 40
0.0
 40
0.0
 40
0.0
 40
0.0
 40
0.0414020412
 40
0.0698512062
 40
0.1045548822
 40
0.1458122428
 40
0.1937128923
 40
0.3091060787
 40
0.4495664651
 40
0.6131850883
 40
0.7976363413
 40
1.0
 40
1.0
 40
1.0
 40
1.0
 10
262.7487645911
 20
179.1835569593
 30
0.0
 10
262.7486518109
 20
179.2787075539
 30
0.0
 10
262.8320688155
 20
179.4336151983
 30
0.0
 10
263.0007656158
 20
179.6016288744
 30
0.0
 10
263.1925898299
 20
179.74814521
 30
0.0
 10
263.4348839686
 20
179.8976076391
 30
0.0
 10
263.8519210573
 20
180.1154915654
 30
0.0
 10
264.4975701793
 20
180.3838566221
 30
0.0
 10
265.4135249581
 20
180.6864050226
 30
0.0
 10
266.4995170993
 20
180.9737800398
 30
0.0
 10
267.7383834395
 20
181.232184929
 30
0.0
 10
268.6169749398
 20
181.3703946419
 30
0.0
 10
269.0779223282
 20
181.432215741
 30
0.0
  0
SPLINE
  5
494
100
AcDbEntity
  8
ASSEM_MEMBER
100
AcDbSpline
 62
9
  6
CONTINUOUS
 70
0
 71
3
 72
16
 73
12
 74
0
 42
0.0000001
 43
0.0000001
 44
0.0000000001
 40
0.0
 40
0.0
 40
0.0
 40
0.0
 40
0.0067906888
 40
0.0230317262
 40
0.0492864365
 40
0.0857658489
 40
0.1896823282
 40
0.3287800177
 40
0.4906488598
 40
0.6629107168
 40
1.0
 40
1.0
 40
1.0
 40
1.0
 10
297.583539396
 20
187.3358195092
 30
0.0
 10
297.5824312893
 20
187.3355759419
 30
0.0
 10
297.5811678503
 20
187.3309174739
 30
0.0
 10
297.5793265982
 20
187.3237342091
 30
0.0
 10
297.5774715454
 20
187.3102032674
 30
0.0
 10
297.5743774442
 20
187.2828078324
 30
0.0
 10
297.5709232811
 20
187.2360245248
 30
0.0
 10
297.5670651794
 20
187.1685819673
 30
0.0
 10
297.5635099665
 20
187.0895629482
 30
0.0
 10
297.5595097275
 20
186.9775006804
 30
0.0
 10
297.5573860731
 20
186.8924194494
 30
0.0
 10
297.5562938791
 20
186.8361105861
 30
0.0
  0
SPLINE
  5
495
100
AcDbEntity
  8
ASSEM_MEMBER
100
AcDbSpline
 62
9
  6
CONTINUOUS
 70
0
 71
3
 72
22
 73
18
 74
0
 42
0.0000001
 43
0.0000001
 44
0.0000000001
 40
0.0
 40
0.0
 40
0.0
 40
0.0
 40
0.2545119639
 40
0.3815020411
 40
0.5079177798
 40
0.5708417814
 40
0.6333334549
 40
0.6952166223
 40
0.7258884708
 40
0.7562801164
 40
0.7864443429
 40
0.8164093146
 40
0.8464647011
 40
0.876705909
 40
0.9072375676
 40
0.9379871345
 40
1.0
 40
1.0
 40
1.0
 40
1.0
 10
282.5748448963
 20
158.5310859708
 30
0.0
 10
281.5207333588
 20
158.5126080997
 30
0.0
 10
279.9334721881
 20
158.6043930047
 30
0.0
 10
277.8660376263
 20
159.0072463934
 30
0.0
 10
276.6122366791
 20
159.4042352892
 30
0.0
 10
275.6631597258
 20
159.8411594389
 30
0.0
 10
274.9983839381
 20
160.2447143298
 30
0.0
 10
274.5045186923
 20
160.6631139093
 30
0.0
 10
274.1834324539
 20
161.0605408533
 30
0.0
 10
273.9950735215
 20
161.3905927527
 30
0.0
 10
273.8787820958
 20
161.7503907553
 30
0.0
 10
273.8510811341
 20
162.1269173399
 30
0.0
 10
273.9189135652
 20
162.4984182263
 30
0.0
 10
274.0685626222
 20
162.8465115394
 30
0.0
 10
274.2813703639
 20
163.1623714789
 30
0.0
 10
274.6255398245
 20
163.5413489167
 30
0.0
 10
274.9306339946
 20
163.7798424561
 30
0.0
 10
275.1438683139
 20
163.9230814944
 30
0.0
  0
SPLINE
  5
496
100
AcDbEntity
  8
ASSEM_MEMBER
100
AcDbSpline
 62
9
  6
CONTINUOUS
 70
0
 71
3
 72
11
 73
7
 74
0
 42
0.0000001
 43
0.0000001
 44
0.0000000001
 40
0.0
 40
0.0
 40
0.0
 40
0.0
 40
0.1699838076
 40
0.4077145558
 40
0.701724181
 40
1.0
 40
1.0
 40
1.0
 40
1.0
 10
269.2448848933
 20
181.9274988107
 30
0.0
 10
269.2134959517
 20
181.9230932423
 30
0.0
 10
269.1451462346
 20
181.8751044683
 30
0.0
 10
269.0926607505
 20
181.7522859076
 30
0.0
 10
269.068132461
 20
181.5985564322
 30
0.0
 10
269.0719098963
 20
181.4875088197
 30
0.0
 10
269.0779223517
 20
181.4322157441
 30
0.0
  0
SPLINE
  5
497
100
AcDbEntity
  8
ASSEM_MEMBER
100
AcDbSpline
 62
9
  6
CONTINUOUS
 70
0
 71
3
 72
12
 73
8
 74
0
 42
0.0000001
 43
0.0000001
 44
0.0000000001
 40
0.0
 40
0.0
 40
0.0
 40
0.0
 40
0.1757249009
 40
0.2881549138
 40
0.4181273293
 40
0.7081063143
 40
1.0
 40
1.0
 40
1.0
 40
1.0
 10
293.2871645332
 20
186.8185559571
 30
0.0
 10
293.2574327132
 20
186.810073214
 30
0.0
 10
293.2152463063
 20
186.7732347332
 30
0.0
 10
293.1850423982
 20
186.7060999439
 30
0.0
 10
293.1619383579
 20
186.6147968242
 30
0.0
 10
293.1572957199
 20
186.4884570749
 30
0.0
 10
293.1715858718
 20
186.386705035
 30
0.0
 10
293.1822196854
 20
186.3364601957
 30
0.0
  0
SPLINE
  5
498
100
AcDbEntity
  8
ASSEM_MEMBER
100
AcDbSpline
 62
9
  6
CONTINUOUS
 70
0
 71
3
 72
13
 73
9
 74
0
 42
0.0000001
 43
0.0000001
 44
0.0000000001
 40
0.0
 40
0.0
 40
0.0
 40
0.0
 40
0.0819519448
 40
0.1767228062
 40
0.2895158723
 40
0.4189658757
 40
0.707375594
 40
1.0
 40
1.0
 40
1.0
 40
1.0
 10
288.9385227168
 20
160.519475605
 30
0.0
 10
288.9223060403
 20
160.5045054387
 30
0.0
 10
288.8960444246
 20
160.4624258555
 30
0.0
 10
288.883873513
 20
160.3841365272
 30
0.0
 10
288.8932573523
 20
160.2932324418
 30
0.0
 10
288.9314107774
 20
160.1550708112
 30
0.0
 10
289.0144293288
 20
159.9813362049
 30
0.0
 10
289.0995579486
 20
159.8497747364
 30
0.0
 10
289.1455813965
 20
159.7858053236
 30
0.0
  0
SPLINE
  5
499
100
AcDbEntity
  8
ASSEM_MEMBER
100
AcDbSpline
 62
9
  6
CONTINUOUS
 70
0
 71
3
 72
12
 73
8
 74
0
 42
0.0000001
 43
0.0000001
 44
0.0000000001
 40
0.0
 40
0.0
 40
0.0
 40
0.0
 40
0.3240071136
 40
0.6099829459
 40
0.730548888
 40
0.8344171247
 40
1.0
 40
1.0
 40
1.0
 40
1.0
 10
269.0849301071
 20
148.5150986436
 30
0.0
 10
269.0832286201
 20
148.4518781561
 30
0.0
 10
269.0905395785
 20
148.3323813293
 30
0.0
 10
269.1266635409
 20
148.1928761677
 30
0.0
 10
269.1733507779
 20
148.1041163533
 30
0.0
 10
269.2203576373
 20
148.0443813596
 30
0.0
 10
269.2715509736
 20
148.0165704559
 30
0.0
 10
269.3038518816
 20
148.0154498154
 30
0.0
  0
SPLINE
  5
49A
100
AcDbEntity
  8
ASSEM_MEMBER
100
AcDbSpline
 62
9
  6
CONTINUOUS
 70
0
 71
3
 72
26
 73
22
 74
0
 42
0.0000001
 43
0.0000001
 44
0.0000000001
 40
0.0
 40
0.0
 40
0.0
 40
0.0
 40
0.0322281694
 40
0.0651318976
 40
0.0987966258
 40
0.1329713164
 40
0.1670062198
 40
0.2003763003
 40
0.2329966572
 40
0.2650019502
 40
0.3276863348
 40
0.3893878477
 40
0.450524151
 40
0.5113276158
 40
0.5719440931
 40
0.6324772642
 40
0.7535355718
 40
0.814352412
 40
0.8755107244
 40
0.937249365
 40
1.0
 40
1.0
 40
1.0
 40
1.0
 10
289.1455803781
 20
159.7858043743
 30
0.0
 10
289.3079032588
 20
159.9361526697
 30
0.0
 10
289.6165127001
 20
160.2622881817
 30
0.0
 10
289.9952948772
 20
160.8298422429
 30
0.0
 10
290.2459354737
 20
161.4823231732
 30
0.0
 10
290.3097397779
 20
162.1890661809
 30
0.0
 10
290.1660748141
 20
162.8810506746
 30
0.0
 10
289.8576883555
 20
163.5012230563
 30
0.0
 10
289.4425854729
 20
164.0349344481
 30
0.0
 10
288.8055290296
 20
164.636899525
 30
0.0
 10
287.9017190261
 20
165.2305863241
 30
0.0
 10
286.7373540086
 20
165.7548959267
 30
0.0
 10
285.5317749588
 20
166.132318294
 30
0.0
 10
284.3030325121
 20
166.387547795
 30
0.0
 10
283.0610315902
 20
166.5348638114
 30
0.0
 10
281.3981981113
 20
166.5967952076
 30
0.0
 10
279.7304482658
 20
166.4629918553
 30
0.0
 10
278.0966352375
 20
166.1155814866
 30
0.0
 10
276.8925599791
 20
165.7311636957
 30
0.0
 10
275.7311485075
 20
165.1985728049
 30
0.0
 10
275.0157555092
 20
164.7185299663
 30
0.0
 10
274.6888638892
 20
164.43794359
 30
0.0
  0
SPLINE
  5
49B
100
AcDbEntity
  8
ASSEM_MEMBER
100
AcDbSpline
 62
9
  6
CONTINUOUS
 70
0
 71
3
 72
9
 73
5
 74
0
 42
0.0000001
 43
0.0000001
 44
0.0000000001
 40
0.0
 40
0.0
 40
0.0
 40
0.0
 40
0.5006890629
 40
1.0
 40
1.0
 40
1.0
 40
1.0
 10
293.182219685
 20
186.3364601956
 30
0.0
 10
289.219245987
 20
185.2568552204
 30
0.0
 10
281.2274155917
 20
183.3751001116
 30
0.0
 10
273.134487544
 20
181.9998794182
 30
0.0
 10
269.0779223282
 20
181.432215741
 30
0.0
  0
SPLINE
  5
49C
100
AcDbEntity
  8
ASSEM_MEMBER
100
AcDbSpline
 62
9
  6
CONTINUOUS
 70
0
 71
3
 72
9
 73
5
 74
0
 42
0.0000001
 43
0.0000001
 44
0.0000000001
 40
0.0
 40
0.0
 40
0.0
 40
0.0
 40
0.2377049457
 40
1.0
 40
1.0
 40
1.0
 40
1.0
 10
293.1822196852
 20
186.3364601956
 30
0.0
 10
293.5205017482
 20
186.4240110225
 30
0.0
 10
294.9564698171
 20
186.7413223103
 30
0.0
 10
296.4359050445
 20
186.8567687315
 30
0.0
 10
297.5562937648
 20
186.8361103873
 30
0.0
  0
SPLINE
  5
49D
100
AcDbEntity
  8
ASSEM_MEMBER
100
AcDbSpline
 62
9
  6
CONTINUOUS
 70
0
 71
3
 72
12
 73
8
 74
0
 42
0.0000001
 43
0.0000001
 44
0.0000000001
 40
0.0
 40
0.0
 40
0.0
 40
0.0
 40
0.165493867
 40
0.2692639535
 40
0.3897588859
 40
0.6758505657
 40
1.0
 40
1.0
 40
1.0
 40
1.0
 10
293.4093714475
 20
147.1787088351
 30
0.0
 10
293.3770876999
 20
147.1798288803
 30
0.0
 10
293.3259240873
 20
147.207601245
 30
0.0
 10
293.2789277036
 20
147.2672828866
 30
0.0
 10
293.2322219687
 20
147.356021712
 30
0.0
 10
293.1960697472
 20
147.4955610195
 30
0.0
 10
293.1887474279
 20
147.6151090089
 30
0.0
 10
293.1904496729
 20
147.6783576633
 30
0.0
  0
SPLINE
  5
49E
100
AcDbEntity
  8
ASSEM_MEMBER
100
AcDbSpline
 62
9
  6
CONTINUOUS
 70
0
 71
3
 72
17
 73
13
 74
0
 42
0.0000001
 43
0.0000001
 44
0.0000000001
 40
0.0
 40
0.0
 40
0.0
 40
0.0
 40
0.1942939288
 40
0.3818458276
 40
0.5543754479
 40
0.705511985
 40
0.8296392501
 40
0.9221454413
 40
0.9552636509
 40
0.9792726412
 40
0.9940716987
 40
1.0
 40
1.0
 40
1.0
 40
1.0
 10
297.5646608153
 20
147.5341683279
 30
0.0
 10
297.5635377617
 20
147.5017708328
 30
0.0
 10
297.5615504392
 20
147.4380931977
 30
0.0
 10
297.559302239
 20
147.3456208289
 30
0.0
 10
297.5579118489
 20
147.2603503893
 30
0.0
 10
297.5574008303
 20
147.1855978455
 30
0.0
 10
297.5577978986
 20
147.1243487356
 30
0.0
 10
297.5588538132
 20
147.0824428152
 30
0.0
 10
297.5603218488
 20
147.0578522607
 30
0.0
 10
297.5614973707
 20
147.0453370987
 30
0.0
 10
297.5626743065
 20
147.0390107986
 30
0.0
 10
297.5638850583
 20
147.0345070374
 30
0.0
 10
297.5648735772
 20
147.0344729371
 30
0.0
  0
SPLINE
  5
49F
100
AcDbEntity
  8
ASSEM_MEMBER
100
AcDbSpline
 62
9
  6
CONTINUOUS
 70
0
 71
3
 72
26
 73
22
 74
0
 42
0.0000001
 43
0.0000001
 44
0.0000000001
 40
0.0
 40
0.0
 40
0.0
 40
0.0
 40
0.0629237861
 40
0.1247377925
 40
0.18592452
 40
0.2467455813
 40
0.3677756367
 40
0.4282897051
 40
0.4888869288
 40
0.5496749068
 40
0.6108049351
 40
0.6725219933
 40
0.7352715071
 40
0.7673526415
 40
0.8000863831
 40
0.8335917602
 40
0.8676987559
 40
0.9017869552
 40
0.9352524399
 40
0.9679473142
 40
1.0
 40
1.0
 40
1.0
 40
1.0
 10
289.1455803781
 20
159.7858043743
 30
0.0
 10
288.8226851652
 20
159.4866952098
 30
0.0
 10
288.1048440984
 20
158.9763964469
 30
0.0
 10
286.928673243
 20
158.4132108798
 30
0.0
 10
285.705329272
 20
158.007651682
 30
0.0
 10
284.043287521
 20
157.6408671127
 30
0.0
 10
282.3445451184
 20
157.4971721065
 30
0.0
 10
280.6506077913
 20
157.5565036054
 30
0.0
 10
279.3853475084
 20
157.7055605321
 30
0.0
 10
278.1338247437
 20
157.9665496775
 30
0.0
 10
276.9065119286
 20
158.3546998168
 30
0.0
 10
275.7228591371
 20
158.8965265195
 30
0.0
 10
274.8077043485
 20
159.5133912568
 30
0.0
 10
274.1704818199
 20
160.1420331274
 30
0.0
 10
273.763048465
 20
160.7009584508
 30
0.0
 10
273.4765594502
 20
161.3493779782
 30
0.0
 10
273.3735186705
 20
162.0638495074
 30
0.0
 10
273.4871466059
 20
162.7762912046
 30
0.0
 10
273.7810911174
 20
163.4204260106
 30
0.0
 10
274.1929335257
 20
163.9748899803
 30
0.0
 10
274.5187428726
 20
164.2919068379
 30
0.0
 10
274.6888638892
 20
164.43794359
 30
0.0
  0
SPLINE
  5
4A0
100
AcDbEntity
  8
ASSEM_MEMBER
100
AcDbSpline
 62
9
  6
CONTINUOUS
 70
0
 71
3
 72
9
 73
5
 74
0
 42
0.0000001
 43
0.0000001
 44
0.0000000001
 40
0.0
 40
0.0
 40
0.0
 40
0.0
 40
0.449461608
 40
1.0
 40
1.0
 40
1.0
 40
1.0
 10
275.1438690245
 20
163.9230808689
 30
0.0
 10
275.0655018105
 20
163.9901837686
 30
0.0
 10
274.9014592527
 20
164.1516202727
 30
0.0
 10
274.7589717832
 20
164.3328015903
 30
0.0
 10
274.6888639733
 20
164.437943662
 30
0.0
  0
SPLINE
  5
4A1
100
AcDbEntity
  8
ASSEM_MEMBER
100
AcDbSpline
 62
9
  6
CONTINUOUS
 70
0
 71
3
 72
12
 73
8
 74
0
 42
0.0000001
 43
0.0000001
 44
0.0000000001
 40
0.0
 40
0.0
 40
0.0
 40
0.0
 40
0.1235265314
 40
0.247908306
 40
0.4977165383
 40
0.7486742577
 40
1.0
 40
1.0
 40
1.0
 40
1.0
 10
275.1438697826
 20
163.9230798956
 30
0.0
 10
275.407232809
 20
164.0999895652
 30
0.0
 10
275.9677773858
 20
164.4080463849
 30
0.0
 10
277.1557188873
 20
164.8846900311
 30
0.0
 10
278.7175237306
 20
165.2849953213
 30
0.0
 10
280.6360116417
 20
165.5348453825
 30
0.0
 10
281.9278970497
 20
165.5740638371
 30
0.0
 10
282.5733052576
 20
165.5629411554
 30
0.0
  0
SPLINE
  5
4A2
100
AcDbEntity
  8
ASSEM_MEMBER
100
AcDbSpline
 62
9
  6
CONTINUOUS
 70
0
 71
3
 72
26
 73
22
 74
0
 42
0.0000001
 43
0.0000001
 44
0.0000000001
 40
0.0
 40
0.0
 40
0.0
 40
0.0
 40
0.0003107052
 40
0.0012192063
 40
0.0027282899
 40
0.0048368666
 40
0.0108462433
 40
0.01923408
 40
0.029986278
 40
0.0430780171
 40
0.0584715847
 40
0.0761284742
 40
0.1180755673
 40
0.1685233133
 40
0.2269726348
 40
0.2928782308
 40
0.3655895599
 40
0.4444233655
 40
0.6173020557
 40
0.8049280894
 40
1.0
 40
1.0
 40
1.0
 40
1.0
 10
309.4470040728
 20
215.1395904307
 30
0.0
 10
309.4466417974
 20
215.1395906143
 30
0.0
 10
309.4469343647
 20
215.1373695528
 30
0.0
 10
309.4462789294
 20
215.1349647861
 30
0.0
 10
309.4463079889
 20
215.1292584264
 30
0.0
 10
309.44581578
 20
215.1183012773
 30
0.0
 10
309.4455565325
 20
215.098864156
 30
0.0
 10
309.4450992458
 20
215.0696369989
 30
0.0
 10
309.4447444496
 20
215.0320208406
 30
0.0
 10
309.4443870569
 20
214.9862851785
 30
0.0
 10
309.4440696071
 20
214.9324808678
 30
0.0
 10
309.4436590704
 20
214.845038186
 30
0.0
 10
309.4432541473
 20
214.716719705
 30
0.0
 10
309.4429167941
 20
214.5408394577
 30
0.0
 10
309.4427148029
 20
214.3370232825
 30
0.0
 10
309.4426517967
 20
214.1072483757
 30
0.0
 10
309.442728641
 20
213.8537055455
 30
0.0
 10
309.443028626
 20
213.4754345469
 30
0.0
 10
309.4437613598
 20
212.96317586
 30
0.0
 10
309.4451217639
 20
212.315386999
 30
0.0
 10
309.4463303187
 20
211.8691711417
 30
0.0
 10
309.4470042061
 20
211.6417225423
 30
0.0
  0
SPLINE
  5
4A3
100
AcDbEntity
  8
ASSEM_MEMBER
100
AcDbSpline
 62
7
  6
CONTINUOUS
 70
0
 71
3
 72
23
 73
19
 74
0
 42
0.0000001
 43
0.0000001
 44
0.0000000001
 40
0.0
 40
0.0
 40
0.0
 40
0.0
 40
0.0012412279
 40
0.0048757462
 40
0.0109025737
 40
0.0193036058
 40
0.0300594282
 40
0.0431502694
 40
0.0762294619
 40
0.1181974334
 40
0.1686545718
 40
0.2271298778
 40
0.2930362333
 40
0.3657635389
 40
0.4445915608
 40
0.6174209008
 40
0.8050343443
 40
1.0
 40
1.0
 40
1.0
 40
1.0
 10
309.4407285484
 20
181.9997317758
 30
0.0
 10
309.4399025329
 20
181.9996901406
 30
0.0
 10
309.4407709205
 20
181.9946694384
 30
0.0
 10
309.4392549964
 20
181.9891146393
 30
0.0
 10
309.4395290146
 20
181.9761221744
 30
0.0
 10
309.4388976345
 20
181.9597680037
 30
0.0
 10
309.438696212
 20
181.9381197314
 30
0.0
 10
309.4382545295
 20
181.9002674648
 30
0.0
 10
309.4379582737
 20
181.8414893841
 30
0.0
 10
309.4377419662
 20
181.7578841102
 30
0.0
 10
309.4377280914
 20
181.6573273715
 30
0.0
 10
309.437890445
 20
181.5408301205
 30
0.0
 10
309.4382411486
 20
181.4094906463
 30
0.0
 10
309.4387781223
 20
181.2645912041
 30
0.0
 10
309.4397638962
 20
181.0484469659
 30
0.0
 10
309.4413679958
 20
180.7557531665
 30
0.0
 10
309.4439422911
 20
180.3856781333
 30
0.0
 10
309.446029931
 20
180.1307637416
 30
0.0
 10
309.4470032252
 20
180.0008564386
 30
0.0
  0
SPLINE
  5
4A4
100
AcDbEntity
  8
ASSEM_MEMBER
100
AcDbSpline
 62
9
  6
CONTINUOUS
 70
0
 71
3
 72
11
 73
7
 74
0
 42
0.0000001
 43
0.0000001
 44
0.0000000001
 40
0.0
 40
0.0
 40
0.0
 40
0.0
 40
0.2000121743
 40
0.4445038783
 40
0.7241462871
 40
1.0
 40
1.0
 40
1.0
 40
1.0
 10
309.7574747117
 20
207.0857942758
 30
0.0
 10
309.757474716
 20
207.1133238765
 30
0.0
 10
309.7391891914
 20
207.1752142693
 30
0.0
 10
309.6653172907
 20
207.2470413371
 30
0.0
 10
309.5620557339
 20
207.2904257006
 30
0.0
 10
309.4849616945
 20
207.2987343413
 30
0.0
 10
309.4470048628
 20
207.2977970842
 30
0.0
  0
SPLINE
  5
4A5
100
AcDbEntity
  8
ASSEM_MEMBER
100
AcDbSpline
 62
9
  6
CONTINUOUS
 70
0
 71
3
 72
9
 73
5
 74
0
 42
0.0000001
 43
0.0000001
 44
0.0000000001
 40
0.0
 40
0.0
 40
0.0
 40
0.0
 40
0.3548054039
 40
1.0
 40
1.0
 40
1.0
 40
1.0
 10
309.4470047347
 20
207.2025747811
 30
0.0
 10
309.4468542131
 20
207.1372259636
 30
0.0
 10
309.4466318304
 20
206.9530449441
 30
0.0
 10
309.4459330485
 20
206.768856243
 30
0.0
 10
309.4470047347
 20
206.6500274409
 30
0.0
  0
SPLINE
  5
4A6
100
AcDbEntity
  8
ASSEM_MEMBER
100
AcDbSpline
 62
7
  6
CONTINUOUS
 70
0
 71
3
 72
9
 73
5
 74
0
 42
0.0000001
 43
0.0000001
 44
0.0000000001
 40
0.0
 40
0.0
 40
0.0
 40
0.0
 40
0.1836931985
 40
1.0
 40
1.0
 40
1.0
 40
1.0
 10
308.7568543304
 20
206.6268162001
 30
0.0
 10
308.7566812321
 20
206.633638642
 30
0.0
 10
308.7559636611
 20
206.6707846273
 30
0.0
 10
308.7558633475
 20
206.7079399829
 30
0.0
 10
308.7559273857
 20
206.7382676466
 30
0.0
  0
SPLINE
  5
4A7
100
AcDbEntity
  8
ASSEM_MEMBER
100
AcDbSpline
 62
7
  6
CONTINUOUS
 70
0
 71
3
 72
9
 73
5
 74
0
 42
0.0000001
 43
0.0000001
 44
0.0000000001
 40
0.0
 40
0.0
 40
0.0
 40
0.0
 40
0.1911640224
 40
1.0
 40
1.0
 40
1.0
 40
1.0
 10
308.7559273857
 20
206.7382676466
 30
0.0
 10
308.7559868501
 20
206.7664292025
 30
0.0
 10
308.7570442498
 20
206.9137404701
 30
0.0
 10
308.758473802
 20
207.061071516
 30
0.0
 10
308.7568655113
 20
207.1802155638
 30
0.0
  0
SPLINE
  5
4A8
100
AcDbEntity
  8
ASSEM_MEMBER
100
AcDbSpline
 62
9
  6
CONTINUOUS
 70
0
 71
3
 72
9
 73
5
 74
0
 42
0.0000001
 43
0.0000001
 44
0.0000000001
 40
0.0
 40
0.0
 40
0.0
 40
0.0
 40
0.5213854944
 40
1.0
 40
1.0
 40
1.0
 40
1.0
 10
309.4470048628
 20
207.2025747841
 30
0.0
 10
309.5028995073
 20
207.2039549741
 30
0.0
 10
309.6114736269
 20
207.1865900605
 30
0.0
 10
309.7048610545
 20
207.1194689785
 30
0.0
 10
309.7320815798
 20
207.0759568554
 30
0.0
  0
SPLINE
  5
4A9
100
AcDbEntity
  8
ASSEM_MEMBER
100
AcDbSpline
 62
9
  6
CONTINUOUS
 70
0
 71
3
 72
9
 73
5
 74
0
 42
0.0000001
 43
0.0000001
 44
0.0000000001
 40
0.0
 40
0.0
 40
0.0
 40
0.0
 40
0.2710929209
 40
1.0
 40
1.0
 40
1.0
 40
1.0
 10
309.7320815798
 20
207.0759568554
 30
0.0
 10
309.7363830074
 20
207.0690810056
 30
0.0
 10
309.7505690048
 20
207.0427103221
 30
0.0
 10
309.7574747117
 20
207.012379158
 30
0.0
 10
309.7574747117
 20
206.9905719749
 30
0.0
  0
SPLINE
  5
4AA
100
AcDbEntity
  8
ASSEM_MEMBER
100
AcDbSpline
 62
9
  6
CONTINUOUS
 70
0
 71
3
 72
11
 73
7
 74
0
 42
0.0000001
 43
0.0000001
 44
0.0000000001
 40
0.0
 40
0.0
 40
0.0
 40
0.0
 40
0.2369732476
 40
0.4954983393
 40
0.7567409868
 40
1.0
 40
1.0
 40
1.0
 40
1.0
 10
309.7574747117
 20
206.3551425386
 30
0.0
 10
309.7574747117
 20
206.391822784
 30
0.0
 10
309.7425925305
 20
206.4692741723
 30
0.0
 10
309.6757741847
 20
206.5694443933
 30
0.0
 10
309.5739657604
 20
206.6354601193
 30
0.0
 10
309.4951279085
 20
206.6502071936
 30
0.0
 10
309.4574747118
 20
206.6502071936
 30
0.0
  0
SPLINE
  5
4AB
100
AcDbEntity
  8
ASSEM_MEMBER
100
AcDbSpline
 62
7
  6
CONTINUOUS
 70
0
 71
3
 72
10
 73
6
 74
0
 42
0.0000001
 43
0.0000001
 44
0.0000000001
 40
0.0
 40
0.0
 40
0.0
 40
0.0
 40
0.3406688927
 40
0.6285205117
 40
1.0
 40
1.0
 40
1.0
 40
1.0
 10
308.756806242
 20
204.3340478659
 30
0.0
 10
308.7564548751
 20
204.3266255852
 30
0.0
 10
308.7393665731
 20
204.3190905721
 30
0.0
 10
308.7191706732
 20
204.3173371829
 30
0.0
 10
308.7043664411
 20
204.3172071098
 30
0.0
 10
308.696268766
 20
204.3174903311
 30
0.0
  0
SPLINE
  5
4AC
100
AcDbEntity
  8
ASSEM_MEMBER
100
AcDbSpline
 62
9
  6
CONTINUOUS
 70
0
 71
3
 72
9
 73
5
 74
0
 42
0.0000001
 43
0.0000001
 44
0.0000000001
 40
0.0
 40
0.0
 40
0.0
 40
0.0
 40
0.1393447321
 40
1.0
 40
1.0
 40
1.0
 40
1.0
 10
309.4470047286
 20
204.3108371708
 30
0.0
 10
309.4467732783
 20
204.2851733137
 30
0.0
 10
309.4462134869
 20
204.1009898867
 30
0.0
 10
309.4466396044
 20
203.9168073046
 30
0.0
 10
309.4470047286
 20
203.7582898415
 30
0.0
  0
SPLINE
  5
4AD
100
AcDbEntity
  8
ASSEM_MEMBER
100
AcDbSpline
 62
7
  6
CONTINUOUS
 70
0
 71
3
 72
9
 73
5
 74
0
 42
0.0000001
 43
0.0000001
 44
0.0000000001
 40
0.0
 40
0.0
 40
0.0
 40
0.0
 40
0.3057894427
 40
1.0
 40
1.0
 40
1.0
 40
1.0
 10
308.7568655994
 20
203.7806501387
 30
0.0
 10
308.7591081339
 20
203.8256344898
 30
0.0
 10
308.7626737845
 20
203.9729536936
 30
0.0
 10
308.7567197242
 20
204.1201956423
 30
0.0
 10
308.755536057
 20
204.2224401676
 30
0.0
  0
SPLINE
  5
4AE
100
AcDbEntity
  8
ASSEM_MEMBER
100
AcDbSpline
 62
7
  6
CONTINUOUS
 70
0
 71
3
 72
9
 73
5
 74
0
 42
0.0000001
 43
0.0000001
 44
0.0000000001
 40
0.0
 40
0.0
 40
0.0
 40
0.0
 40
0.3156961719
 40
1.0
 40
1.0
 40
1.0
 40
1.0
 10
308.755536057
 20
204.2224401676
 30
0.0
 10
308.7554000808
 20
204.2341857231
 30
0.0
 10
308.7551914617
 20
204.2713905758
 30
0.0
 10
308.7556024086
 20
204.3086156088
 30
0.0
 10
308.7568062658
 20
204.3340485349
 30
0.0
  0
SPLINE
  5
4AF
100
AcDbEntity
  8
ASSEM_MEMBER
100
AcDbSpline
 62
9
  6
CONTINUOUS
 70
0
 71
3
 72
11
 73
7
 74
0
 42
0.0000001
 43
0.0000001
 44
0.0000000001
 40
0.0
 40
0.0
 40
0.0
 40
0.0
 40
0.2432590138
 40
0.5045016615
 40
0.763026753
 40
1.0
 40
1.0
 40
1.0
 40
1.0
 10
309.4574747118
 20
204.3106574207
 30
0.0
 10
309.4951279086
 20
204.3106574207
 30
0.0
 10
309.5739657608
 20
204.3254044951
 30
0.0
 10
309.675774185
 20
204.3914202215
 30
0.0
 10
309.7425925305
 20
204.4915904428
 30
0.0
 10
309.7574747117
 20
204.5690418311
 30
0.0
 10
309.7574747117
 20
204.6057220764
 30
0.0
  0
SPLINE
  5
4B0
100
AcDbEntity
  8
ASSEM_MEMBER
100
AcDbSpline
 62
9
  6
CONTINUOUS
 70
0
 71
3
 72
9
 73
5
 74
0
 42
0.0000001
 43
0.0000001
 44
0.0000000001
 40
0.0
 40
0.0
 40
0.0
 40
0.0
 40
0.4508544564
 40
1.0
 40
1.0
 40
1.0
 40
1.0
 10
309.7574747117
 20
203.9702926673
 30
0.0
 10
309.7574747116
 20
203.9433642459
 30
0.0
 10
309.7401643918
 20
203.8829981384
 30
0.0
 10
309.6962582005
 20
203.8391472788
 30
0.0
 10
309.6694811827
 20
203.8202059854
 30
0.0
  0
SPLINE
  5
4B1
100
AcDbEntity
  8
ASSEM_MEMBER
100
AcDbSpline
 62
9
  6
CONTINUOUS
 70
0
 71
3
 72
9
 73
5
 74
0
 42
0.0000001
 43
0.0000001
 44
0.0000000001
 40
0.0
 40
0.0
 40
0.0
 40
0.0
 40
0.7552702312
 40
1.0
 40
1.0
 40
1.0
 40
1.0
 10
309.6694811827
 20
203.8202059854
 30
0.0
 10
309.6216149827
 20
203.7863468101
 30
0.0
 10
309.5434425457
 20
203.7610766469
 30
0.0
 10
309.4659973047
 20
203.757820879
 30
0.0
 10
309.4470048628
 20
203.7582898538
 30
0.0
  0
SPLINE
  5
4B2
100
AcDbEntity
  8
ASSEM_MEMBER
100
AcDbSpline
 62
9
  6
CONTINUOUS
 70
0
 71
3
 72
11
 73
7
 74
0
 42
0.0000001
 43
0.0000001
 44
0.0000000001
 40
0.0
 40
0.0
 40
0.0
 40
0.0
 40
0.2758539987
 40
0.5554964794
 40
0.7999880456
 40
1.0
 40
1.0
 40
1.0
 40
1.0
 10
309.4470048628
 20
203.6630675325
 30
0.0
 10
309.484961734
 20
203.6621302757
 30
0.0
 10
309.5620558245
 20
203.6704389308
 30
0.0
 10
309.6653173967
 20
203.7138233456
 30
0.0
 10
309.7391892291
 20
203.7856504289
 30
0.0
 10
309.7574747118
 20
203.8475407713
 30
0.0
 10
309.7574747118
 20
203.8750703418
 30
0.0
  0
SPLINE
  5
4B3
100
AcDbEntity
  8
ASSEM_MEMBER
100
AcDbSpline
 62
7
  6
CONTINUOUS
 70
0
 71
3
 72
9
 73
5
 74
0
 42
0.0000001
 43
0.0000001
 44
0.0000000001
 40
0.0
 40
0.0
 40
0.0
 40
0.0
 40
0.6063131436
 40
1.0
 40
1.0
 40
1.0
 40
1.0
 10
309.4470047047
 20
191.3498897448
 30
0.0
 10
309.4458443448
 20
190.6903748149
 30
0.0
 10
309.4443478102
 20
189.6026295037
 30
0.0
 10
309.4449122848
 20
188.5148757016
 30
0.0
 10
309.4470048339
 20
188.0866486968
 30
0.0
  0
SPLINE
  5
4B4
100
AcDbEntity
  8
ASSEM_MEMBER
100
AcDbSpline
 62
7
  6
CONTINUOUS
 70
0
 71
3
 72
11
 73
7
 74
0
 42
0.0000001
 43
0.0000001
 44
0.0000000001
 40
0.0
 40
0.0
 40
0.0
 40
0.0
 40
0.2418912531
 40
0.4885349786
 40
0.7419538868
 40
1.0
 40
1.0
 40
1.0
 40
1.0
 10
309.7574665318
 20
188.3663560187
 30
0.0
 10
309.7574656076
 20
188.329859949
 30
0.0
 10
309.7414562264
 20
188.2552736144
 30
0.0
 10
309.6739412989
 20
188.162284502
 30
0.0
 10
309.5743399515
 20
188.1007381617
 30
0.0
 10
309.4964083177
 20
188.086487509
 30
0.0
 10
309.457474835
 20
188.0864866699
 30
0.0
  0
LINE
  5
4B5
100
AcDbEntity
  8
ASSEM_MEMBER
100
AcDbLine
 62
9
  6
CONTINUOUS
 10
309.457474835
 20
188.0864866699
 11
309.4470123185
 21
188.0867411985
  0
SPLINE
  5
4B6
100
AcDbEntity
  8
ASSEM_MEMBER
100
AcDbSpline
 62
9
  6
CONTINUOUS
 70
0
 71
3
 72
10
 73
6
 74
0
 42
0.0000001
 43
0.0000001
 44
0.0000000001
 40
0.0
 40
0.0
 40
0.0
 40
0.0
 40
0.129749968
 40
0.3553630126
 40
1.0
 40
1.0
 40
1.0
 40
1.0
 10
309.4470049001
 20
185.2969644587
 30
0.0
 10
309.4456334803
 20
185.2780293805
 30
0.0
 10
309.4445213039
 20
185.2260120683
 30
0.0
 10
309.4434881548
 20
185.0797241683
 30
0.0
 10
309.4446648753
 20
184.9523675803
 30
0.0
 10
309.4465758079
 20
184.8580653346
 30
0.0
  0
SPLINE
  5
4B7
100
AcDbEntity
  8
ASSEM_MEMBER
100
AcDbSpline
 62
7
  6
CONTINUOUS
 70
0
 71
3
 72
8
 73
4
 74
0
 42
0.0000001
 43
0.0000001
 44
0.0000000001
 40
0.0
 40
0.0
 40
0.0
 40
0.0
 40
1.0
 40
1.0
 40
1.0
 40
1.0
 10
309.4465758079
 20
184.8580653346
 30
0.0
 10
309.3743412013
 20
184.8978418068
 30
0.0
 10
309.3034212897
 20
184.9399614089
 30
0.0
 10
309.2320160808
 20
184.9812082546
 30
0.0
  0
SPLINE
  5
4B8
100
AcDbEntity
  8
ASSEM_MEMBER
100
AcDbSpline
 62
9
  6
CONTINUOUS
 70
0
 71
3
 72
11
 73
7
 74
0
 42
0.0000001
 43
0.0000001
 44
0.0000000001
 40
0.0
 40
0.0
 40
0.0
 40
0.0
 40
0.2437156743
 40
0.5051981383
 40
0.7634905974
 40
1.0
 40
1.0
 40
1.0
 40
1.0
 10
309.4574747118
 20
185.2967858796
 30
0.0
 10
309.4950688438
 20
185.2967858796
 30
0.0
 10
309.5737332256
 20
185.3113636813
 30
0.0
 10
309.6755186077
 20
185.3767363585
 30
0.0
 10
309.7425219913
 20
185.4762238987
 30
0.0
 10
309.7574747288
 20
185.553310701
 30
0.0
 10
309.7574747269
 20
185.5897932364
 30
0.0
  0
LINE
  5
4B9
100
AcDbEntity
  8
ASSEM_MEMBER
100
AcDbLine
 62
9
  6
CONTINUOUS
 10
309.4470025489
 20
182.5240915576
 11
309.4455825029
 21
181.9969138586
  0
SPLINE
  5
4BA
100
AcDbEntity
  8
ASSEM_MEMBER
100
AcDbSpline
 62
9
  6
CONTINUOUS
 70
0
 71
3
 72
16
 73
12
 74
0
 42
0.0000001
 43
0.0000001
 44
0.0000000001
 40
0.0
 40
0.0
 40
0.0
 40
0.0
 40
0.0059107385
 40
0.0206888071
 40
0.0446762961
 40
0.0777792462
 40
0.170232358
 40
0.2943196803
 40
0.4454888014
 40
0.6180823061
 40
1.0
 40
1.0
 40
1.0
 40
1.0
 10
309.4470048628
 20
149.46834556
 30
0.0
 10
309.4464135291
 20
149.4683662099
 30
0.0
 10
309.4456957365
 20
149.471067737
 30
0.0
 10
309.4449931888
 20
149.4748561261
 30
0.0
 10
309.4442968763
 20
149.4823614159
 30
0.0
 10
309.4434278134
 20
149.4971062157
 30
0.0
 10
309.442808582
 20
149.5222393742
 30
0.0
 10
309.4425866527
 20
149.5589818455
 30
0.0
 10
309.4429097619
 20
149.6038380317
 30
0.0
 10
309.444087076
 20
149.6744606584
 30
0.0
 10
309.4456722137
 20
149.7299541932
 30
0.0
 10
309.4470048628
 20
149.7681628082
 30
0.0
  0
SPLINE
  5
4BB
100
AcDbEntity
  8
ASSEM_MEMBER
100
AcDbSpline
 62
7
  6
CONTINUOUS
 70
0
 71
3
 72
10
 73
6
 74
0
 42
0.0000001
 43
0.0000001
 44
0.0000000001
 40
0.0
 40
0.0
 40
0.0
 40
0.0
 40
0.375685792
 40
0.6678877012
 40
1.0
 40
1.0
 40
1.0
 40
1.0
 10
308.6974843969
 20
206.6434164485
 30
0.0
 10
308.705562483
 20
206.6436986767
 30
0.0
 10
308.7203173595
 20
206.6434708504
 30
0.0
 10
308.7403792389
 20
206.6421062763
 30
0.0
 10
308.756673428
 20
206.6339617002
 30
0.0
 10
308.7568544044
 20
206.626818477
 30
0.0
  0
SPLINE
  5
4BC
100
AcDbEntity
  8
ASSEM_MEMBER
100
AcDbSpline
 62
7
  6
CONTINUOUS
 70
0
 71
3
 72
13
 73
9
 74
0
 42
0.0000001
 43
0.0000001
 44
0.0000000001
 40
0.0
 40
0.0
 40
0.0
 40
0.0
 40
0.3154644285
 40
0.6014404288
 40
0.7271893776
 40
0.8370502405
 40
0.9281114786
 40
1.0
 40
1.0
 40
1.0
 40
1.0
 10
307.7574747692
 20
189.2817762068
 30
0.0
 10
307.8856347573
 20
189.1770991066
 30
0.0
 10
308.1254793211
 20
188.9719987378
 30
0.0
 10
308.3984729228
 20
188.7045769112
 30
0.0
 10
308.5747789315
 20
188.4950728467
 30
0.0
 10
308.6726717932
 20
188.3539027494
 30
0.0
 10
308.7372382381
 20
188.2256771873
 30
0.0
 10
308.7568659534
 20
188.1405478245
 30
0.0
 10
308.7568657966
 20
188.1028389177
 30
0.0
  0
SPLINE
  5
4BD
100
AcDbEntity
  8
ASSEM_MEMBER
100
AcDbSpline
 62
7
  6
CONTINUOUS
 70
0
 71
3
 72
11
 73
7
 74
0
 42
0.0000001
 43
0.0000001
 44
0.0000000001
 40
0.0
 40
0.0
 40
0.0
 40
0.0
 40
0.2581000843
 40
0.5111375611
 40
0.7580319569
 40
1.0
 40
1.0
 40
1.0
 40
1.0
 10
308.7568655388
 20
191.3664234239
 30
0.0
 10
308.7568648369
 20
191.1852534166
 30
0.0
 10
308.6991349267
 20
190.824251282
 30
0.0
 10
308.4670324658
 20
190.339408087
 30
0.0
 10
308.143486944
 20
189.9274868132
 30
0.0
 10
307.8895705961
 20
189.6947701317
 30
0.0
 10
307.7574747118
 20
189.5880065929
 30
0.0
  0
SPLINE
  5
4BE
100
AcDbEntity
  8
ASSEM_MEMBER
100
AcDbSpline
 62
7
  6
CONTINUOUS
 70
0
 71
3
 72
11
 73
7
 74
0
 42
0.0000001
 43
0.0000001
 44
0.0000000001
 40
0.0
 40
0.0
 40
0.0
 40
0.0
 40
0.2413052206
 40
0.4877636861
 40
0.7411412196
 40
1.0
 40
1.0
 40
1.0
 40
1.0
 10
307.7574747118
 20
213.3854797865
 30
0.0
 10
307.8910324026
 20
213.2815039632
 30
0.0
 10
308.1476516686
 20
213.0536535107
 30
0.0
 10
308.48136569
 20
212.6505142528
 30
0.0
 10
308.7091826592
 20
212.1614287767
 30
0.0
 10
308.757383754
 20
211.7991933035
 30
0.0
 10
308.7568655388
 20
211.6176223674
 30
0.0
  0
ELLIPSE
  5
4BF
100
AcDbEntity
  8
ASSEM_MEMBER
100
AcDbEllipse
 62
7
  6
CONTINUOUS
 10
204.1743885275
 20
147.1295428006
 30
0.0
 11
0.3539842723
 21
-0.3539842723
 31
0.0
 40
0.9987827207
 41
-0.7847891758
 42
0.7847891758
  0
ELLIPSE
  5
4C0
100
AcDbEntity
  8
ASSEM_MEMBER
100
AcDbEllipse
 62
7
  6
CONTINUOUS
 10
134.3749996535
 20
147.1295443823
 30
0.0
 11
0.3539842563
 21
0.3539842563
 31
0.0
 40
0.9987828112
 41
-3.9263818295
 42
-2.3568034778
  0
ELLIPSE
  5
4C1
100
AcDbEntity
  8
ASSEM_MEMBER
100
AcDbEllipse
 62
7
  6
CONTINUOUS
 10
147.6433898719
 20
211.5784573603
 30
0.0
 11
2.4778899061
 21
-2.4778899061
 31
0.0
 40
0.998782766
 41
2.8977340258
 42
3.3854512814
  0
ELLIPSE
  5
4C2
100
AcDbEntity
  8
ASSEM_MEMBER
100
AcDbEllipse
 62
7
  6
CONTINUOUS
 10
190.8994399839
 20
211.5784573603
 30
0.0
 11
2.4778899061
 21
2.4778899061
 31
0.0
 40
0.998782766
 41
-0.2438586278
 42
0.2438586278
  0
ELLIPSE
  5
4C3
100
AcDbEntity
  8
ASSEM_MEMBER
100
AcDbEllipse
 62
7
  6
CONTINUOUS
 10
197.6478261355
 20
201.4647197024
 30
0.0
 11
3.1529343423
 21
-0.6563749597
 31
0.0
 40
0.928965551
 41
2.9401788211
 42
3.3326255883
  0
ELLIPSE
  5
4C4
100
AcDbEntity
  8
ASSEM_MEMBER
100
AcDbEllipse
 62
7
  6
CONTINUOUS
 10
197.6478261355
 20
201.4647197024
 30
0.0
 11
2.6935884391
 21
-1.7653340691
 31
0.0
 40
0.928965551
 41
2.9505597188
 42
3.3430064861
  0
ELLIPSE
  5
4C5
100
AcDbEntity
  8
ASSEM_MEMBER
100
AcDbEllipse
 62
7
  6
CONTINUOUS
 10
197.6478261355
 20
209.4961449061
 30
0.0
 11
2.6935884391
 21
1.7653340691
 31
0.0
 40
0.928965551
 41
2.9401788211
 42
3.3326255883
  0
ELLIPSE
  5
4C6
100
AcDbEntity
  8
ASSEM_MEMBER
100
AcDbEllipse
 62
7
  6
CONTINUOUS
 10
197.6478261355
 20
209.4961449061
 30
0.0
 11
3.1529343423
 21
0.6563749597
 31
0.0
 40
0.928965551
 41
2.9505597189
 42
3.3430064861
  0
ELLIPSE
  5
4C7
100
AcDbEntity
  8
ASSEM_MEMBER
100
AcDbEllipse
 62
7
  6
CONTINUOUS
 10
140.8950037204
 20
209.4961449061
 30
0.0
 11
3.1529343423
 21
-0.6563749597
 31
0.0
 40
0.928965551
 41
-0.2014138325
 42
0.1910329347
  0
ELLIPSE
  5
4C8
100
AcDbEntity
  8
ASSEM_MEMBER
100
AcDbEllipse
 62
7
  6
CONTINUOUS
 10
140.8950037204
 20
209.4961449061
 30
0.0
 11
2.6935884391
 21
-1.7653340691
 31
0.0
 40
0.928965551
 41
-0.1910329346
 42
0.2014138325
  0
ELLIPSE
  5
4C9
100
AcDbEntity
  8
ASSEM_MEMBER
100
AcDbEllipse
 62
7
  6
CONTINUOUS
 10
140.8950037204
 20
201.4647197024
 30
0.0
 11
3.1529343423
 21
0.6563749597
 31
0.0
 40
0.928965551
 41
-0.1910329347
 42
0.2014138325
  0
ELLIPSE
  5
4CA
100
AcDbEntity
  8
ASSEM_MEMBER
100
AcDbEllipse
 62
7
  6
CONTINUOUS
 10
314.7568655388
 20
201.4647197024
 30
0.0
 11
5.9997113534
 21
-0.1177276925
 31
0.0
 40
0.499907876
 41
2.7589548772
 42
3.1514016443
  0
ELLIPSE
  5
4CB
100
AcDbEntity
  8
ASSEM_MEMBER
100
AcDbEllipse
 62
7
  6
CONTINUOUS
 10
314.7568655387
 20
201.4647197024
 30
0.0
 11
5.9523928395
 21
-2.4575335389
 31
0.0
 40
0.3069475104
 41
-3.0155367788
 42
-2.6230900116
  0
ELLIPSE
  5
4CC
100
AcDbEntity
  8
ASSEM_MEMBER
100
AcDbEllipse
 62
7
  6
CONTINUOUS
 10
314.7568655387
 20
209.4961449061
 30
0.0
 11
5.9523928395
 21
2.4575335389
 31
0.0
 40
0.3069475104
 41
2.6230900116
 42
3.0155367787
  0
ELLIPSE
  5
4CD
100
AcDbEntity
  8
ASSEM_MEMBER
100
AcDbEllipse
 62
7
  6
CONTINUOUS
 10
314.7568655388
 20
209.4961449061
 30
0.0
 11
5.9997113534
 21
0.1177276925
 31
0.0
 40
0.499907876
 41
3.1317836628
 42
3.52423043
  0
ENDSEC
  0
SECTION
  2
OBJECTS
  0
DICTIONARY
  5
C
100
AcDbDictionary
280
0
281
1
  3
ACAD_GROUP
350
D
  3
ACAD_MLINESTYLE
350
17
  3
ACAD_LAYOUT
350
1A
  3
ACAD_PLOTSETTINGS
350
19
  3
ACAD_PLOTSTYLENAME
350
E
  0
DICTIONARY
  5
D
102
{ACAD_REACTORS
330
C
102
}
100
AcDbDictionary
280
0
281
1
  0
ACDBDICTIONARYWDFLT
  5
E
102
{ACAD_REACTORS
330
C
102
}
100
AcDbDictionary
281
1
  3
Normal
350
F
100
AcDbDictionaryWithDefault
340
F
  0
DICTIONARY
  5
17
102
{ACAD_REACTORS
330
C
102
}
100
AcDbDictionary
280
0
281
1
  3
Standard
350
18
  0
DICTIONARY
  5
19
102
{ACAD_REACTORS
330
C
102
}
100
AcDbDictionary
281
1
  0
DICTIONARY
  5
1A
102
{ACAD_REACTORS
330
C
102
}
100
AcDbDictionary
281
1
  3
Model
350
4CE
  3
Layout1
350
4CF
  0
ACDBPLACEHOLDER
  5
F
102
{ACAD_REACTORS
330
E
102
}
  0
MLINESTYLE
  5
18
102
{ACAD_REACTORS
330
17
102
}
100
AcDbMlineStyle
  2
STANDARD
 70
0
  3

 62
256
 51
90.0
 52
90.0
 71
2
 49
0.5
 62
256
  6
BYLAYER
 49
-0.5
 62
256
  6
BYLAYER
  0
LAYOUT
  5
4CE
102
{ACAD_REACTORS
330
1A
102
}
100
AcDbPlotSettings
  1

  2
none_device
  4
ISO_A3_(420.00_x_297.00_MM)
  6

 40
0.0
 41
0.0
 42
0.0
 43
0.0
 44
420.0
 45
297.0
 46
0.0
 47
0.0
 48
0.0
 49
0.0
140
0.0
141
0.0
142
1.0
143
1.0
 70
1024
 72
1
 73
0
 74
0
  7

 75
0
147
1.0
148
0.0
149
0.0
100
AcDbLayout
  1
Model
 70
0
 71
0
 10
0.0
 20
0.0
 11
420.0
 21
297.0
 12
0.0
 22
0.0
 32
0.0
 14
0.0
 24
0.0
 34
0.0
 15
0.0
 25
0.0
 35
0.0
146
0.0
 13
0.0
 23
0.0
 33
0.0
 16
1.0
 26
0.0
 36
0.0
 17
0.0
 27
1.0
 37
0.0
 76
0
330
213
345
0
346
0
  0
LAYOUT
  5
4CF
102
{ACAD_REACTORS
330
1A
102
}
100
AcDbPlotSettings
  1

  2
none_device
  4
ISO_A3_(420.00_x_297.00_MM)
  6

 40
0.0
 41
0.0
 42
0.0
 43
0.0
 44
420.0
 45
297.0
 46
0.0
 47
0.0
 48
0.0
 49
0.0
140
0.0
141
0.0
142
1.0
143
1.0
 70
0
 72
1
 73
0
 74
0
  7

 75
0
147
1.0
148
0.0
149
0.0
100
AcDbLayout
  1
Layout1
 70
0
 71
1
 10
0.0
 20
0.0
 11
420.0
 21
297.0
 12
0.0
 22
0.0
 32
0.0
 14
0.0
 24
0.0
 34
0.0
 15
0.0
 25
0.0
 35
0.0
146
0.0
 13
0.0
 23
0.0
 33
0.0
 16
1.0
 26
0.0
 36
0.0
 17
0.0
 27
1.0
 37
0.0
 76
0
330
214
345
0
346
0
  0
ENDSEC
  0
EOF
