999
DXF file: ds9360.dxf
999
Pro/ENGINEER 2009380 by Parametric Technology Corporation
  0
SECTION
  2
HEADER
  9
$ACADVER
  1
AC1015
  9
$DWGCODEPAGE
  3
ANSI_1252
  9
$EXTMAX
 10
11.0
 20
8.5
 30
0.0
  9
$EXTMIN
 10
0.0
 20
0.0
 30
0.0
  9
$LIMMIN
 10
0.0
 20
0.0
  9
$LIMMAX
 10
11.0
 20
8.5
  9
$VIEWCTR
 10
5.5
 20
4.25
  9
$VIEWSIZE
 40
8.5
  9
$CLAYER
  8
0
  9
$LTSCALE
 40
0.605
  9
$CELTYPE
  6
BYLAYER
  9
$DIMSCALE
 40
1.0
  9
$DIMASZ
 40
0.1875
  9
$DIMEXO
 40
0.06875
  9
$DIMDLI
 40
0.418
  9
$DIMEXE
 40
0.198
  9
$DIMCEN
 40
0.099
  9
$DIMLFAC
 40
1.0
  9
$DIMBLK
  1
_CLOSED
  9
$DIMTXT
 40
0.15625
  9
$DIMTOL
 70
0
  9
$DIMLIM
 70
0
  9
$DIMTFAC
 40
1.0
  9
$PDMODE
 70
3
  9
$PDSIZE
 40
0.3125
  9
$HANDSEED
  5
458
  9
$TILEMODE
 70
1
  9
$MEASUREMENT
 70
0
  9
$INSUNITS
 70
1
  0
ENDSEC
  0
SECTION
  2
CLASSES
  0
CLASS
  1
ACDBDICTIONARYWDFLT
  2
AcDbDictionaryWithDefault
  3
AutoCAD 2000
 90
0
280
0
281
0
  0
CLASS
  1
ACDBPLACEHOLDER
  2
AcDbPlaceHolder
  3
AutoCAD 2000
 90
0
280
0
281
0
  0
CLASS
  1
LAYOUT
  2
AcDbLayout
  3
AutoCAD 2000
 90
0
280
0
281
0
  0
ENDSEC
  0
SECTION
  2
TABLES
  0
TABLE
  2
VPORT
  5
8
100
AcDbSymbolTable
 70
2
  0
VPORT
  5
1F4
100
AcDbSymbolTableRecord
100
AcDbViewportTableRecord
  2
*ACTIVE
 70
0
 10
0.0
 20
0.0
 11
1.0
 21
1.0
 12
5.5
 22
4.25
 13
0.0
 23
0.0
 14
1.0
 24
1.0
 15
0.0
 25
0.0
 16
0.0
 26
0.0
 36
1.0
 17
0.0
 27
0.0
 37
0.0
 40
8.5
 41
1.2941176471
 42
50.0
 43
0.0
 44
0.0
 50
0.0
 51
0.0
 71
0
 72
100
 73
1
 74
1
 75
0
 76
0
 77
0
 78
0
  0
ENDTAB
  0
TABLE
  2
LTYPE
  5
5
100
AcDbSymbolTable
 70
6
  0
LTYPE
  5
14
100
AcDbSymbolTableRecord
100
AcDbLinetypeTableRecord
  2
BYBLOCK
 70
0
  3

 72
65
 73
0
 40
0.0
  0
LTYPE
  5
15
100
AcDbSymbolTableRecord
100
AcDbLinetypeTableRecord
  2
BYLAYER
 70
0
  3

 72
65
 73
0
 40
0.0
  0
LTYPE
  5
16
100
AcDbSymbolTableRecord
100
AcDbLinetypeTableRecord
  2
CONTINUOUS
 70
64
  3
Solid line
 72
65
 73
0
 40
0.0
  0
LTYPE
  5
1F5
100
AcDbSymbolTableRecord
100
AcDbLinetypeTableRecord
  2
CENTER
 70
64
  3
____ _ ____ _ ____ _ ____ _ ____ _ ____ _ ____
 72
65
 73
4
 40
0.6
 49
0.375
 74
0
 49
-0.075
 74
0
 49
0.075
 74
0
 49
-0.075
 74
0
  0
LTYPE
  5
1F6
100
AcDbSymbolTableRecord
100
AcDbLinetypeTableRecord
  2
HIDDEN
 70
64
  3
- - - - - - - - - - - - - - - - - - - -
 72
65
 73
2
 40
0.2
 49
0.1
 74
0
 49
-0.1
 74
0
  0
LTYPE
  5
1F7
100
AcDbSymbolTableRecord
100
AcDbLinetypeTableRecord
  2
PHANTOM
 70
64
  3
_____ _ _ _____ _ _ _____ _ _ _____
 72
65
 73
6
 40
0.8
 49
0.45
 74
0
 49
-0.05
 74
0
 49
0.1
 74
0
 49
-0.05
 74
0
 49
0.1
 74
0
 49
-0.05
 74
0
  0
LTYPE
  5
1F8
100
AcDbSymbolTableRecord
100
AcDbLinetypeTableRecord
  2
DOT
 70
64
  3
. . . . . . . . . . . . . . . . . . . .
 72
65
 73
2
 40
0.2
 49
0.1
 74
0
 49
-0.1
 74
0
  0
LTYPE
  5
1F9
100
AcDbSymbolTableRecord
100
AcDbLinetypeTableRecord
  2
DASHED
 70
64
  3
- - - - - - - - - - - - - - - - - - - -
 72
65
 73
2
 40
0.2
 49
0.1
 74
0
 49
-0.1
 74
0
  0
ENDTAB
  0
TABLE
  2
LAYER
  5
2
100
AcDbSymbolTable
 70
36
  0
LAYER
  5
10
100
AcDbSymbolTableRecord
100
AcDbLayerTableRecord
  2
0
 70
0
 62
7
  6
CONTINUOUS
370
-3
390
F
  0
LAYER
  5
1FA
100
AcDbSymbolTableRecord
100
AcDbLayerTableRecord
  2
DEFAULT_1
 70
0
 62
7
  6
CENTER
370
-3
390
F
  0
LAYER
  5
1FB
100
AcDbSymbolTableRecord
100
AcDbLayerTableRecord
  2
DEFAULT_2
 70
0
 62
8
  6
HIDDEN
370
-3
390
F
  0
LAYER
  5
1FC
100
AcDbSymbolTableRecord
100
AcDbLayerTableRecord
  2
DEFAULT_3
 70
0
 62
7
  6
PHANTOM
370
-3
390
F
  0
LAYER
  5
1FD
100
AcDbSymbolTableRecord
100
AcDbLayerTableRecord
  2
1
 70
0
 62
7
  6
CONTINUOUS
370
-3
390
F
  0
LAYER
  5
1FE
100
AcDbSymbolTableRecord
100
AcDbLayerTableRecord
  2
ASSY_AXIS
 70
0
 62
7
  6
CONTINUOUS
370
-3
390
F
  0
LAYER
  5
1FF
100
AcDbSymbolTableRecord
100
AcDbLayerTableRecord
  2
ASSY_COORDS
 70
0
 62
7
  6
CONTINUOUS
370
-3
390
F
  0
LAYER
  5
200
100
AcDbSymbolTableRecord
100
AcDbLayerTableRecord
  2
ASSY_PLANES
 70
0
 62
7
  6
CONTINUOUS
370
-3
390
F
  0
LAYER
  5
201
100
AcDbSymbolTableRecord
100
AcDbLayerTableRecord
  2
AXIS
 70
0
 62
7
  6
CONTINUOUS
370
-3
390
F
  0
LAYER
  5
202
100
AcDbSymbolTableRecord
100
AcDbLayerTableRecord
  2
B
 70
0
 62
7
  6
CONTINUOUS
370
-3
390
F
  0
LAYER
  5
203
100
AcDbSymbolTableRecord
100
AcDbLayerTableRecord
  2
BASE
 70
0
 62
7
  6
CONTINUOUS
370
-3
390
F
  0
LAYER
  5
204
100
AcDbSymbolTableRecord
100
AcDbLayerTableRecord
  2
Border
 70
0
 62
7
  6
CONTINUOUS
370
-3
390
F
  0
LAYER
  5
205
100
AcDbSymbolTableRecord
100
AcDbLayerTableRecord
  2
C
 70
0
 62
7
  6
CONTINUOUS
370
-3
390
F
  0
LAYER
  5
206
100
AcDbSymbolTableRecord
100
AcDbLayerTableRecord
  2
COORDS
 70
0
 62
7
  6
CONTINUOUS
370
-3
390
F
  0
LAYER
  5
207
100
AcDbSymbolTableRecord
100
AcDbLayerTableRecord
  2
COSMETIC
 70
0
 62
7
  6
CONTINUOUS
370
-3
390
F
  0
LAYER
  5
208
100
AcDbSymbolTableRecord
100
AcDbLayerTableRecord
  2
Center
 70
0
 62
7
  6
CONTINUOUS
370
-3
390
F
  0
LAYER
  5
209
100
AcDbSymbolTableRecord
100
AcDbLayerTableRecord
  2
Cutting_Plane
 70
0
 62
7
  6
CONTINUOUS
370
-3
390
F
  0
LAYER
  5
20A
100
AcDbSymbolTableRecord
100
AcDbLayerTableRecord
  2
DIM
 70
0
 62
7
  6
CONTINUOUS
370
-3
390
F
  0
LAYER
  5
20B
100
AcDbSymbolTableRecord
100
AcDbLayerTableRecord
  2
DRIVEN
 70
0
 62
7
  6
CONTINUOUS
370
-3
390
F
  0
LAYER
  5
20C
100
AcDbSymbolTableRecord
100
AcDbLayerTableRecord
  2
DRIVING
 70
0
 62
7
  6
CONTINUOUS
370
-3
390
F
  0
LAYER
  5
20D
100
AcDbSymbolTableRecord
100
AcDbLayerTableRecord
  2
Defpoints_
 70
0
 62
7
  6
CONTINUOUS
370
-3
390
F
  0
LAYER
  5
20E
100
AcDbSymbolTableRecord
100
AcDbLayerTableRecord
  2
Dimension
 70
0
 62
7
  6
CONTINUOUS
370
-3
390
F
  0
LAYER
  5
20F
100
AcDbSymbolTableRecord
100
AcDbLayerTableRecord
  2
ERASE-DIMS
 70
0
 62
7
  6
CONTINUOUS
370
-3
390
F
  0
LAYER
  5
210
100
AcDbSymbolTableRecord
100
AcDbLayerTableRecord
  2
FUNC_PLANES
 70
0
 62
7
  6
CONTINUOUS
370
-3
390
F
  0
LAYER
  5
211
100
AcDbSymbolTableRecord
100
AcDbLayerTableRecord
  2
G
 70
0
 62
7
  6
CONTINUOUS
370
-3
390
F
  0
LAYER
  5
212
100
AcDbSymbolTableRecord
100
AcDbLayerTableRecord
  2
H
 70
0
 62
7
  6
CONTINUOUS
370
-3
390
F
  0
LAYER
  5
213
100
AcDbSymbolTableRecord
100
AcDbLayerTableRecord
  2
Hidden
 70
0
 62
7
  6
CONTINUOUS
370
-3
390
F
  0
LAYER
  5
214
100
AcDbSymbolTableRecord
100
AcDbLayerTableRecord
  2
M
 70
0
 62
7
  6
CONTINUOUS
370
-3
390
F
  0
LAYER
  5
215
100
AcDbSymbolTableRecord
100
AcDbLayerTableRecord
  2
MIDDLE
 70
0
 62
7
  6
CONTINUOUS
370
-3
390
F
  0
LAYER
  5
216
100
AcDbSymbolTableRecord
100
AcDbLayerTableRecord
  2
Notes
 70
0
 62
7
  6
CONTINUOUS
370
-3
390
F
  0
LAYER
  5
217
100
AcDbSymbolTableRecord
100
AcDbLayerTableRecord
  2
Object
 70
0
 62
7
  6
CONTINUOUS
370
-3
390
F
  0
LAYER
  5
218
100
AcDbSymbolTableRecord
100
AcDbLayerTableRecord
  2
PLANES
 70
0
 62
7
  6
CONTINUOUS
370
-3
390
F
  0
LAYER
  5
219
100
AcDbSymbolTableRecord
100
AcDbLayerTableRecord
  2
PLANES_DEF
 70
0
 62
7
  6
CONTINUOUS
370
-3
390
F
  0
LAYER
  5
21A
100
AcDbSymbolTableRecord
100
AcDbLayerTableRecord
  2
PLANES_FUNC
 70
0
 62
7
  6
CONTINUOUS
370
-3
390
F
  0
LAYER
  5
21B
100
AcDbSymbolTableRecord
100
AcDbLayerTableRecord
  2
R
 70
0
 62
7
  6
CONTINUOUS
370
-3
390
F
  0
LAYER
  5
21C
100
AcDbSymbolTableRecord
100
AcDbLayerTableRecord
  2
SUPPRESS
 70
0
 62
7
  6
CONTINUOUS
370
-3
390
F
  0
LAYER
  5
21D
100
AcDbSymbolTableRecord
100
AcDbLayerTableRecord
  2
Section
 70
0
 62
7
  6
CONTINUOUS
370
-3
390
F
  0
LAYER
  5
21E
100
AcDbSymbolTableRecord
100
AcDbLayerTableRecord
  2
W
 70
0
 62
7
  6
CONTINUOUS
370
-3
390
F
  0
LAYER
  5
21F
100
AcDbSymbolTableRecord
100
AcDbLayerTableRecord
  2
W2
 70
0
 62
7
  6
CONTINUOUS
370
-3
390
F
  0
LAYER
  5
220
100
AcDbSymbolTableRecord
100
AcDbLayerTableRecord
  2
Y
 70
0
 62
7
  6
CONTINUOUS
370
-3
390
F
  0
LAYER
  5
221
100
AcDbSymbolTableRecord
100
AcDbLayerTableRecord
  2
Y2
 70
0
 62
7
  6
CONTINUOUS
370
-3
390
F
  0
ENDTAB
  0
TABLE
  2
STYLE
  5
3
100
AcDbSymbolTable
 70
1
  0
STYLE
  5
11
100
AcDbSymbolTableRecord
100
AcDbTextStyleTableRecord
  2
STANDARD
 70
0
 40
0.0
 41
0.8
 50
0.0
 71
0
 42
0.2
  3
txt
  4

  0
STYLE
  5
222
100
AcDbSymbolTableRecord
100
AcDbTextStyleTableRecord
  2
TEXTSTYLE_1
 70
0
 40
0.0
 41
0.8
 50
0.0
 71
0
 42
0.2
  3
gdt
  4

  0
STYLE
  5
223
100
AcDbSymbolTableRecord
100
AcDbTextStyleTableRecord
  2
TEXTSTYLE_2
 70
0
 40
0.0
 41
1.0
 50
0.0
 71
0
 42
0.2
  3
cgomg.ttf
  4

  0
ENDTAB
  0
TABLE
  2
VIEW
  5
6
100
AcDbSymbolTable
 70
0
  0
ENDTAB
  0
TABLE
  2
UCS
  5
7
100
AcDbSymbolTable
 70
0
  0
ENDTAB
  0
TABLE
  2
APPID
  5
9
100
AcDbSymbolTable
 70
1
  0
APPID
  5
224
100
AcDbSymbolTableRecord
100
AcDbRegAppTableRecord
  2
ACAD
 70
0
  0
ENDTAB
  0
TABLE
  2
BLOCK_RECORD
  5
1
100
AcDbSymbolTable
 70
0
  0
BLOCK_RECORD
  5
225
100
AcDbSymbolTableRecord
100
AcDbBlockTableRecord
  2
*Model_Space
  0
BLOCK_RECORD
  5
226
100
AcDbSymbolTableRecord
100
AcDbBlockTableRecord
  2
*Paper_Space
  0
BLOCK_RECORD
  5
227
100
AcDbSymbolTableRecord
100
AcDbBlockTableRecord
  2
_CLOSED
  0
BLOCK_RECORD
  5
228
100
AcDbSymbolTableRecord
100
AcDbBlockTableRecord
  2
*D0
  0
BLOCK_RECORD
  5
229
100
AcDbSymbolTableRecord
100
AcDbBlockTableRecord
  2
*D1
  0
BLOCK_RECORD
  5
22A
100
AcDbSymbolTableRecord
100
AcDbBlockTableRecord
  2
*D2
  0
ENDTAB
  0
TABLE
  2
DIMSTYLE
  5
A
100
AcDbSymbolTable
 70
1
100
AcDbDimStyleTable
 71
0
  0
DIMSTYLE
105
22B
100
AcDbSymbolTableRecord
100
AcDbDimStyleTableRecord
  2
STANDARD
 70
0
  3

  4

 40
1.0
 41
0.1875
 42
0.0625
 43
0.38
 44
0.18
 45
0.0
 46
0.0
 47
0.01
 48
0.01
140
0.15625
141
0.09
142
0.0
143
25.4
144
1.0
145
0.0
146
1.0
147
0.09
 71
0.0
 72
0.0
 73
1
 74
1
 75
0
 76
0
 77
0
 78
4
170
0
171
2
172
0
173
0
174
0
175
0
176
0
177
0
178
0
270
2
271
2
272
2
273
2
274
2
275
0
280
0
281
0
282
0
283
1
284
4
285
0
286
0
287
3
288
0
340
11
341
227
342
227
343
227
344
227
  0
DIMSTYLE
105
22C
100
AcDbSymbolTableRecord
100
AcDbDimStyleTableRecord
  2
DIMSTYLE_1
 70
0
  3

  4

 40
1.0
 41
0.1875
 42
0.0625
 43
0.38
 44
0.18
 45
0.0
 46
0.0
 47
0.0
 48
0.0
140
0.15625
141
0.09
142
0.0
143
25.4
144
1.0
145
0.0
146
1.0
147
0.09
 71
0.0
 72
0.0
 73
1
 74
1
 75
0
 76
0
 77
0
 78
4
170
0
171
2
172
0
173
0
174
0
175
0
176
0
177
0
178
0
270
2
271
2
272
2
273
2
274
2
275
0
280
0
281
0
282
0
283
1
284
4
285
0
286
0
287
3
288
0
340
223
341
227
342
227
343
227
344
227
  0
DIMSTYLE
105
22D
100
AcDbSymbolTableRecord
100
AcDbDimStyleTableRecord
  2
DIMSTYLE_2
 70
0
  3

  4

 40
1.0
 41
0.1875
 42
0.0625
 43
0.38
 44
0.18
 45
0.0
 46
0.0
 47
0.0
 48
0.0
140
0.15625
141
0.09
142
0.0
143
25.4
144
1.0
145
0.0
146
1.0
147
0.09
 71
0.0
 72
0.0
 73
1
 74
1
 75
0
 76
0
 77
0
 78
4
170
0
171
2
172
0
173
0
174
0
175
0
176
0
177
0
178
0
270
2
271
0
272
0
273
2
274
2
275
0
280
0
281
0
282
0
283
1
284
4
285
0
286
0
287
3
288
0
340
223
341
227
342
227
343
227
344
227
  0
ENDTAB
  0
ENDSEC
  0
SECTION
  2
BLOCKS
  0
BLOCK
  5
20
100
AcDbEntity
  8
0
100
AcDbBlockBegin
  2
*Model_Space
 70
0
 10
0.0
 20
0.0
 30
0.0
  3
*Model_Space
  1

  0
ENDBLK
  5
21
100
AcDbEntity
  8
0
100
AcDbBlockEnd
  0
BLOCK
  5
1C
100
AcDbEntity
  8
0
100
AcDbBlockBegin
  2
*Paper_Space
 70
0
 10
0.0
 20
0.0
 30
0.0
  3
*Paper_Space
  1

  0
ENDBLK
  5
1D
100
AcDbEntity
  8
0
100
AcDbBlockEnd
  0
BLOCK
  5
22E
100
AcDbEntity
  8
0
100
AcDbBlockBegin
  2
_CLOSED
 70
64
 10
0.0
 20
0.0
  3
_CLOSED
  1

  0
LINE
  5
22F
100
AcDbEntity
  8
0
  6
BYBLOCK
 62
0
100
AcDbLine
 10
0.0
 20
0.0
 11
-1.0
 21
0.1666666667
  0
LINE
  5
230
100
AcDbEntity
  8
0
  6
BYBLOCK
 62
0
100
AcDbLine
 10
-1.0
 20
0.1666666667
 11
-1.0
 21
-0.1666666667
  0
LINE
  5
231
100
AcDbEntity
  8
0
  6
BYBLOCK
 62
0
100
AcDbLine
 10
-1.0
 20
-0.1666666667
 11
0.0
 21
0.0
  0
LINE
  5
232
100
AcDbEntity
  8
0
  6
BYBLOCK
 62
0
100
AcDbLine
 10
-1.0
 20
0.0
 11
0.0
 21
0.0
  0
ENDBLK
  5
233
100
AcDbEntity
  8
0
  6
BYBLOCK
 62
0
100
AcDbBlockEnd
  0
BLOCK
  5
234
100
AcDbEntity
  8
0
100
AcDbBlockBegin
 62
7
  6
CONTINUOUS
  2
*D0
 70
65
 10
0.0
 20
0.0
  3
*D0
  1

  0
MTEXT
  5
235
100
AcDbEntity
  8
0
100
AcDbMText
 62
7
  6
CONTINUOUS
  7
TEXTSTYLE_1
 71
1
 72
1
 10
6.0069884592
 20
7.6799069983
 30
0.0
 11
1.0
 21
0.0
 31
0.0
 44
0.9
  1
{\Fgdt;n}\Fcgomg.ttf;4.75 (2)
 40
0.15625
 41
0.9676106771
  0
LINE
  5
236
100
AcDbEntity
  8
0
100
AcDbLine
 62
7
  6
CONTINUOUS
 10
5.6425246886
 20
6.7812754609
 11
5.7569884592
 21
7.6017819983
  0
LINE
  5
237
100
AcDbEntity
  8
0
100
AcDbLine
 62
7
  6
CONTINUOUS
 10
5.7569884592
 20
7.6017819983
 11
5.9288634592
 21
7.6017819983
  0
INSERT
  5
238
100
AcDbEntity
  8
0
100
AcDbBlockReference
 62
7
  6
CONTINUOUS
  2
_CLOSED
 10
5.6425246886
 20
6.7812754609
 41
0.1875
 42
0.1875
 43
0.1875
 50
262.0582757839
  0
ENDBLK
  5
239
100
AcDbEntity
  8
0
  6
BYBLOCK
 62
0
100
AcDbBlockEnd
  0
BLOCK
  5
23A
100
AcDbEntity
  8
0
100
AcDbBlockBegin
 62
7
  6
CONTINUOUS
  2
*D1
 70
65
 10
0.0
 20
0.0
  3
*D1
  1

  0
MTEXT
  5
23B
100
AcDbEntity
  8
0
100
AcDbMText
 62
7
  6
CONTINUOUS
  7
TEXTSTYLE_1
 71
1
 72
1
 10
6.073323129
 20
7.3146110077
 30
0.0
 11
1.0
 21
0.0
 31
0.0
 44
0.9
  1
{\Fgdt;n}\Fcgomg.ttf;3.50 (2)
 40
0.15625
 41
0.9676106771
  0
LINE
  5
23C
100
AcDbEntity
  8
0
100
AcDbLine
 62
7
  6
CONTINUOUS
 10
5.6265397845
 20
6.1509878549
 11
5.823323129
 21
7.2364860077
  0
LINE
  5
23D
100
AcDbEntity
  8
0
100
AcDbLine
 62
7
  6
CONTINUOUS
 10
5.823323129
 20
7.2364860077
 11
5.995198129
 21
7.2364860077
  0
INSERT
  5
23E
100
AcDbEntity
  8
0
100
AcDbBlockReference
 62
7
  6
CONTINUOUS
  2
_CLOSED
 10
5.6265397845
 20
6.1509878549
 41
0.1875
 42
0.1875
 43
0.1875
 50
259.7247885161
  0
ENDBLK
  5
23F
100
AcDbEntity
  8
0
  6
BYBLOCK
 62
0
100
AcDbBlockEnd
  0
BLOCK
  5
240
100
AcDbEntity
  8
0
100
AcDbBlockBegin
 62
7
  6
CONTINUOUS
  2
*D2
 70
65
 10
0.0
 20
0.0
  3
*D2
  1

  0
MTEXT
  5
241
100
AcDbEntity
  8
0
100
AcDbMText
 62
7
  6
CONTINUOUS
  7
TEXTSTYLE_2
 71
2
 72
1
 10
5.3143808584
 20
1.4416759962
 30
0.0
 11
1.0
 21
0.0
 31
0.0
 44
0.9
  1
30\Fgdt;{\Fgdt;~}\Fcgomg.ttf; (4)
 40
0.15625
 41
0.6736246745
  0
LINE
  5
242
100
AcDbEntity
  8
0
100
AcDbLine
 62
7
  6
CONTINUOUS
 10
4.6704357782
 20
2.0258180677
 11
4.488617963
 21
1.3472647438
  0
LINE
  5
243
100
AcDbEntity
  8
0
100
AcDbLine
 62
7
  6
CONTINUOUS
 10
5.9614565254
 20
2.0141345592
 11
6.1401437539
 21
1.3472647438
  0
ARC
  5
244
100
AcDbEntity
  8
0
100
AcDbCircle
 62
7
  6
CONTINUOUS
 10
5.3143808584
 20
4.4290538245
 40
3.0655028283
100
AcDbArc
 50
255.0
 51
262.2207346938
  0
ARC
  5
245
100
AcDbEntity
  8
0
100
AcDbCircle
 62
7
  6
CONTINUOUS
 10
5.3143808584
 20
4.4290538245
 40
3.0655028283
100
AcDbArc
 50
277.7792653062
 51
285.0
  0
LWPOLYLINE
  5
246
100
AcDbEntity
  8
0
100
AcDbPolyline
 62
7
  6
CONTINUOUS
 90
4
 70
0
 10
4.7106419564
 20
1.4554558972
 10
4.5209703437
 20
1.4680054721
 10
4.6963193043
 20
1.394619135
 10
4.7106419564
 20
1.4554558972
  0
LWPOLYLINE
  5
247
100
AcDbEntity
  8
0
100
AcDbPolyline
 62
7
  6
CONTINUOUS
 90
4
 70
0
 10
5.9324424125
 20
1.394619135
 10
6.1077913732
 20
1.4680054721
 10
5.9181197605
 20
1.4554558972
 10
5.9324424125
 20
1.394619135
  0
ENDBLK
  5
248
100
AcDbEntity
  8
0
  6
BYBLOCK
 62
0
100
AcDbBlockEnd
  0
ENDSEC
  0
SECTION
  2
ENTITIES
  0
SPLINE
  5
249
100
AcDbEntity
  8
0
100
AcDbSpline
 62
3
  6
CONTINUOUS
 70
0
 71
3
 72
8
 73
4
 74
0
 42
0.0000001
 43
0.0000001
 44
0.0000000001
 40
0.0
 40
0.0
 40
0.0
 40
0.0
 40
1.0
 40
1.0
 40
1.0
 40
1.0
 10
6.7105183112
 20
4.5361519683
 30
0.0
 10
6.7135920098
 20
4.5344146603
 30
0.0
 10
6.7151288592
 20
4.5319557011
 30
0.0
 10
6.7151288592
 20
4.5288018176
 30
0.0
  0
SPLINE
  5
24A
100
AcDbEntity
  8
0
100
AcDbSpline
 62
3
  6
CONTINUOUS
 70
0
 71
3
 72
8
 73
4
 74
0
 42
0.0000001
 43
0.0000001
 44
0.0000000001
 40
0.0
 40
0.0
 40
0.0
 40
0.0
 40
1.0
 40
1.0
 40
1.0
 40
1.0
 10
6.6979228257
 20
4.5387445669
 30
0.0
 10
6.7032349782
 20
4.5387445669
 30
0.0
 10
6.707444612
 20
4.5378892767
 30
0.0
 10
6.7105183112
 20
4.5361519683
 30
0.0
  0
SPLINE
  5
24B
100
AcDbEntity
  8
0
100
AcDbSpline
 62
3
  6
CONTINUOUS
 70
0
 71
3
 72
8
 73
4
 74
0
 42
0.0000001
 43
0.0000001
 44
0.0000000001
 40
0.0
 40
0.0
 40
0.0
 40
0.0
 40
1.0
 40
1.0
 40
1.0
 40
1.0
 10
6.6857220084
 20
4.536131698
 30
0.0
 10
6.6885680879
 20
4.5378892767
 30
0.0
 10
6.6926440805
 20
4.5387445669
 30
0.0
 10
6.6979228257
 20
4.5387445669
 30
0.0
  0
SPLINE
  5
24C
100
AcDbEntity
  8
0
100
AcDbSpline
 62
3
  6
CONTINUOUS
 70
0
 71
3
 72
8
 73
4
 74
0
 42
0.0000001
 43
0.0000001
 44
0.0000000001
 40
0.0
 40
0.0
 40
0.0
 40
0.0
 40
1.0
 40
1.0
 40
1.0
 40
1.0
 10
6.6814518059
 20
4.5290690951
 30
0.0
 10
6.6814518059
 20
4.5320091564
 30
0.0
 10
6.6828550164
 20
4.534361205
 30
0.0
 10
6.6857220084
 20
4.536131698
 30
0.0
  0
SPLINE
  5
24D
100
AcDbEntity
  8
0
100
AcDbSpline
 62
3
  6
CONTINUOUS
 70
0
 71
3
 72
8
 73
4
 74
0
 42
0.0000001
 43
0.0000001
 44
0.0000000001
 40
0.0
 40
0.0
 40
0.0
 40
0.0
 40
1.0
 40
1.0
 40
1.0
 40
1.0
 10
6.6834563925
 20
4.5241244485
 30
0.0
 10
6.6821200013
 20
4.5255142952
 30
0.0
 10
6.6814518059
 20
4.5271714217
 30
0.0
 10
6.6814518059
 20
4.5290690951
 30
0.0
  0
SPLINE
  5
24E
100
AcDbEntity
  8
0
100
AcDbSpline
 62
3
  6
CONTINUOUS
 70
0
 71
3
 72
8
 73
4
 74
0
 42
0.0000001
 43
0.0000001
 44
0.0000000001
 40
0.0
 40
0.0
 40
0.0
 40
0.0
 40
1.0
 40
1.0
 40
1.0
 40
1.0
 10
6.6907731327
 20
4.5206498335
 30
0.0
 10
6.6872316972
 20
4.521558579
 30
0.0
 10
6.6847927834
 20
4.5227346021
 30
0.0
 10
6.6834563925
 20
4.5241244485
 30
0.0
  0
SPLINE
  5
24F
100
AcDbEntity
  8
0
100
AcDbSpline
 62
3
  6
CONTINUOUS
 70
0
 71
3
 72
8
 73
4
 74
0
 42
0.0000001
 43
0.0000001
 44
0.0000000001
 40
0.0
 40
0.0
 40
0.0
 40
0.0
 40
1.0
 40
1.0
 40
1.0
 40
1.0
 10
6.6775511553
 20
4.5181166408
 30
0.0
 10
6.6808170201
 20
4.5151973578
 30
0.0
 10
6.6852271104
 20
4.5133798667
 30
0.0
 10
6.6907731327
 20
4.5126314858
 30
0.0
  0
SPLINE
  5
250
100
AcDbEntity
  8
0
100
AcDbSpline
 62
3
  6
CONTINUOUS
 70
0
 71
3
 72
8
 73
4
 74
0
 42
0.0000001
 43
0.0000001
 44
0.0000000001
 40
0.0
 40
0.0
 40
0.0
 40
0.0
 40
1.0
 40
1.0
 40
1.0
 40
1.0
 10
6.6726316255
 20
4.529176008
 30
0.0
 10
6.6726316255
 20
4.5247391885
 30
0.0
 10
6.6742687045
 20
4.5210507498
 30
0.0
 10
6.6775511553
 20
4.5181166408
 30
0.0
  0
SPLINE
  5
251
100
AcDbEntity
  8
0
100
AcDbSpline
 62
3
  6
CONTINUOUS
 70
0
 71
3
 72
8
 73
4
 74
0
 42
0.0000001
 43
0.0000001
 44
0.0000000001
 40
0.0
 40
0.0
 40
0.0
 40
0.0
 40
1.0
 40
1.0
 40
1.0
 40
1.0
 10
6.6794389463
 20
4.5419861811
 30
0.0
 10
6.6749034903
 20
4.5387980222
 30
0.0
 10
6.6726316255
 20
4.5345215708
 30
0.0
 10
6.6726316255
 20
4.529176008
 30
0.0
  0
SPLINE
  5
252
100
AcDbEntity
  8
0
100
AcDbSpline
 62
3
  6
CONTINUOUS
 70
0
 71
3
 72
8
 73
4
 74
0
 42
0.0000001
 43
0.0000001
 44
0.0000000001
 40
0.0
 40
0.0
 40
0.0
 40
0.0
 40
1.0
 40
1.0
 40
1.0
 40
1.0
 10
6.6979562345
 20
4.5467629129
 30
0.0
 10
6.6901717579
 20
4.5467629129
 30
0.0
 10
6.6839909491
 20
4.5451859714
 30
0.0
 10
6.6794389463
 20
4.5419861811
 30
0.0
  0
SPLINE
  5
253
100
AcDbEntity
  8
0
100
AcDbSpline
 62
3
  6
CONTINUOUS
 70
0
 71
3
 72
8
 73
4
 74
0
 42
0.0000001
 43
0.0000001
 44
0.0000000001
 40
0.0
 40
0.0
 40
0.0
 40
0.0
 40
1.0
 40
1.0
 40
1.0
 40
1.0
 10
6.7167993475
 20
4.5419519059
 30
0.0
 10
6.7120551603
 20
4.5451592437
 30
0.0
 10
6.7057741214
 20
4.5467629129
 30
0.0
 10
6.6979562345
 20
4.5467629129
 30
0.0
  0
SPLINE
  5
254
100
AcDbEntity
  8
0
100
AcDbSpline
 62
3
  6
CONTINUOUS
 70
0
 71
3
 72
8
 73
4
 74
0
 42
0.0000001
 43
0.0000001
 44
0.0000000001
 40
0.0
 40
0.0
 40
0.0
 40
0.0
 40
1.0
 40
1.0
 40
1.0
 40
1.0
 10
6.7193050806
 20
3.7102409501
 30
0.0
 10
6.7216771745
 20
3.7123524476
 30
0.0
 10
6.722879927
 20
3.7153726901
 30
0.0
 10
6.722879927
 20
3.719328411
 30
0.0
  0
SPLINE
  5
255
100
AcDbEntity
  8
0
100
AcDbSpline
 62
3
  6
CONTINUOUS
 70
0
 71
3
 72
8
 73
4
 74
0
 42
0.0000001
 43
0.0000001
 44
0.0000000001
 40
0.0
 40
0.0
 40
0.0
 40
0.0
 40
1.0
 40
1.0
 40
1.0
 40
1.0
 10
6.7094157863
 20
3.7070603389
 30
0.0
 10
6.71362542
 20
3.7070603389
 30
0.0
 10
6.716932988
 20
3.7081294538
 30
0.0
 10
6.7193050806
 20
3.7102409501
 30
0.0
  0
SPLINE
  5
256
100
AcDbEntity
  8
0
100
AcDbSpline
 62
3
  6
CONTINUOUS
 70
0
 71
3
 72
8
 73
4
 74
0
 42
0.0000001
 43
0.0000001
 44
0.0000000001
 40
0.0
 40
0.0
 40
0.0
 40
0.0
 40
1.0
 40
1.0
 40
1.0
 40
1.0
 10
6.6978560051
 20
3.7128870027
 30
0.0
 10
6.6998605926
 20
3.7090114712
 30
0.0
 10
6.7037361265
 20
3.7070603389
 30
0.0
 10
6.7094157863
 20
3.7070603389
 30
0.0
  0
SPLINE
  5
257
100
AcDbEntity
  8
0
100
AcDbSpline
 62
3
  6
CONTINUOUS
 70
0
 71
3
 72
8
 73
4
 74
0
 42
0.0000001
 43
0.0000001
 44
0.0000000001
 40
0.0
 40
0.0
 40
0.0
 40
0.0
 40
1.0
 40
1.0
 40
1.0
 40
1.0
 10
6.6944741843
 20
3.7089677971
 30
0.0
 10
6.6959516485
 20
3.7096796674
 30
0.0
 10
6.6970541716
 20
3.7109893316
 30
0.0
 10
6.6978560051
 20
3.7128870027
 30
0.0
  0
SPLINE
  5
258
100
AcDbEntity
  8
0
100
AcDbSpline
 62
3
  6
CONTINUOUS
 70
0
 71
3
 72
8
 73
4
 74
0
 42
0.0000001
 43
0.0000001
 44
0.0000000001
 40
0.0
 40
0.0
 40
0.0
 40
0.0
 40
1.0
 40
1.0
 40
1.0
 40
1.0
 10
6.7084803131
 20
3.7126464534
 30
0.0
 10
6.7046047792
 20
3.7126464534
 30
0.0
 10
6.7022326874
 20
3.7139293894
 30
0.0
 10
6.7012972131
 20
3.7164952618
 30
0.0
  0
SPLINE
  5
259
100
AcDbEntity
  8
0
100
AcDbSpline
 62
3
  6
CONTINUOUS
 70
0
 71
3
 72
8
 73
4
 74
0
 42
0.0000001
 43
0.0000001
 44
0.0000000001
 40
0.0
 40
0.0
 40
0.0
 40
0.0
 40
1.0
 40
1.0
 40
1.0
 40
1.0
 10
6.6869978282
 20
3.7077285352
 30
0.0
 10
6.6905392651
 20
3.7078354481
 30
0.0
 10
6.6930115878
 20
3.7082630903
 30
0.0
 10
6.6944741843
 20
3.7089677971
 30
0.0
  0
SPLINE
  5
25A
100
AcDbEntity
  8
0
100
AcDbSpline
 62
3
  6
CONTINUOUS
 70
0
 71
3
 72
8
 73
4
 74
0
 42
0.0000001
 43
0.0000001
 44
0.0000000001
 40
0.0
 40
0.0
 40
0.0
 40
0.0
 40
1.0
 40
1.0
 40
1.0
 40
1.0
 10
6.6773036007
 20
3.7071523596
 30
0.0
 10
6.6781108288
 20
3.7073810729
 30
0.0
 10
6.6797485695
 20
3.7075243276
 30
0.0
 10
6.6822536409
 20
3.707594894
 30
0.0
  0
SPLINE
  5
25B
100
AcDbEntity
  8
0
100
AcDbSpline
 62
3
  6
CONTINUOUS
 70
0
 71
3
 72
8
 73
4
 74
0
 42
0.0000001
 43
0.0000001
 44
0.0000000001
 40
0.0
 40
0.0
 40
0.0
 40
0.0
 40
1.0
 40
1.0
 40
1.0
 40
1.0
 10
6.7129906323
 20
3.7135017443
 30
0.0
 10
6.7117210634
 20
3.7129404592
 30
0.0
 10
6.7102176213
 20
3.7126464534
 30
0.0
 10
6.7084803131
 20
3.7126464534
 30
0.0
  0
SPLINE
  5
25C
100
AcDbEntity
  8
0
100
AcDbSpline
 62
3
  6
CONTINUOUS
 70
0
 71
3
 72
8
 73
4
 74
0
 42
0.0000001
 43
0.0000001
 44
0.0000000001
 40
0.0
 40
0.0
 40
0.0
 40
0.0
 40
1.0
 40
1.0
 40
1.0
 40
1.0
 10
6.6752041782
 20
3.7056437665
 30
0.0
 10
6.6758055541
 20
3.7064188709
 30
0.0
 10
6.6765071593
 20
3.7069267025
 30
0.0
 10
6.6773036007
 20
3.7071523596
 30
0.0
  0
SPLINE
  5
25D
100
AcDbEntity
  8
0
100
AcDbSpline
 62
3
  6
CONTINUOUS
 70
0
 71
3
 72
8
 73
4
 74
0
 42
0.0000001
 43
0.0000001
 44
0.0000000001
 40
0.0
 40
0.0
 40
0.0
 40
0.0
 40
1.0
 40
1.0
 40
1.0
 40
1.0
 10
6.7239490384
 20
4.5289621846
 30
0.0
 10
6.7239490384
 20
4.5344146603
 30
0.0
 10
6.7215435363
 20
4.5387445669
 30
0.0
 10
6.7167993475
 20
4.5419519059
 30
0.0
  0
SPLINE
  5
25E
100
AcDbEntity
  8
0
100
AcDbSpline
 62
3
  6
CONTINUOUS
 70
0
 71
3
 72
8
 73
4
 74
0
 42
0.0000001
 43
0.0000001
 44
0.0000000001
 40
0.0
 40
0.0
 40
0.0
 40
0.0
 40
1.0
 40
1.0
 40
1.0
 40
1.0
 10
6.7220112732
 20
4.5211309338
 30
0.0
 10
6.7232808445
 20
4.5234027984
 30
0.0
 10
6.7239490384
 20
4.5260221245
 30
0.0
 10
6.7239490384
 20
4.5289621846
 30
0.0
  0
SPLINE
  5
25F
100
AcDbEntity
  8
0
100
AcDbSpline
 62
3
  6
CONTINUOUS
 70
0
 71
3
 72
8
 73
4
 74
0
 42
0.0000001
 43
0.0000001
 44
0.0000000001
 40
0.0
 40
0.0
 40
0.0
 40
0.0
 40
1.0
 40
1.0
 40
1.0
 40
1.0
 10
6.71652599
 20
4.5155512382
 30
0.0
 10
6.7189041652
 20
4.5169881207
 30
0.0
 10
6.7207417013
 20
4.5188590682
 30
0.0
 10
6.7220112732
 20
4.5211309338
 30
0.0
  0
SPLINE
  5
260
100
AcDbEntity
  8
0
100
AcDbSpline
 62
3
  6
CONTINUOUS
 70
0
 71
3
 72
8
 73
4
 74
0
 42
0.0000001
 43
0.0000001
 44
0.0000000001
 40
0.0
 40
0.0
 40
0.0
 40
0.0
 40
1.0
 40
1.0
 40
1.0
 40
1.0
 10
6.7066093667
 20
4.5125513034
 30
0.0
 10
6.7108189975
 20
4.5130858609
 30
0.0
 10
6.7141265654
 20
4.514101517
 30
0.0
 10
6.71652599
 20
4.5155512382
 30
0.0
  0
SPLINE
  5
261
100
AcDbEntity
  8
0
100
AcDbSpline
 62
3
  6
CONTINUOUS
 70
0
 71
3
 72
8
 73
4
 74
0
 42
0.0000001
 43
0.0000001
 44
0.0000000001
 40
0.0
 40
0.0
 40
0.0
 40
0.0
 40
1.0
 40
1.0
 40
1.0
 40
1.0
 10
6.7157494021
 20
3.7159387495
 30
0.0
 10
6.7151956798
 20
3.7148648632
 30
0.0
 10
6.7142602036
 20
3.7140630305
 30
0.0
 10
6.7129906323
 20
3.7135017443
 30
0.0
  0
SPLINE
  5
262
100
AcDbEntity
  8
0
100
AcDbSpline
 62
3
  6
CONTINUOUS
 70
0
 71
3
 72
8
 73
4
 74
0
 42
0.0000001
 43
0.0000001
 44
0.0000000001
 40
0.0
 40
0.0
 40
0.0
 40
0.0
 40
1.0
 40
1.0
 40
1.0
 40
1.0
 10
6.7150844159
 20
4.304130098
 30
0.0
 10
6.7133581407
 20
4.3021993501
 30
0.0
 10
6.7107855872
 20
4.3009164141
 30
0.0
 10
6.7073777914
 20
4.3002749461
 30
0.0
  0
SPLINE
  5
263
100
AcDbEntity
  8
0
100
AcDbSpline
 62
3
  6
CONTINUOUS
 70
0
 71
3
 72
8
 73
4
 74
0
 42
0.0000001
 43
0.0000001
 44
0.0000000001
 40
0.0
 40
0.0
 40
0.0
 40
0.0
 40
1.0
 40
1.0
 40
1.0
 40
1.0
 10
6.7176680024
 20
4.311046261
 30
0.0
 10
6.7176680024
 20
4.3083467479
 30
0.0
 10
6.7167993468
 20
4.3060481581
 30
0.0
 10
6.7150844159
 20
4.304130098
 30
0.0
  0
SPLINE
  5
264
100
AcDbEntity
  8
0
100
AcDbSpline
 62
3
  6
CONTINUOUS
 70
0
 71
3
 72
8
 73
4
 74
0
 42
0.0000001
 43
0.0000001
 44
0.0000000001
 40
0.0
 40
0.0
 40
0.0
 40
0.0
 40
1.0
 40
1.0
 40
1.0
 40
1.0
 10
6.7124226675
 20
4.320187173
 30
0.0
 10
6.7158972839
 20
4.3179687632
 30
0.0
 10
6.7176680024
 20
4.3149217926
 30
0.0
 10
6.7176680024
 20
4.311046261
 30
0.0
  0
SPLINE
  5
265
100
AcDbEntity
  8
0
100
AcDbSpline
 62
3
  6
CONTINUOUS
 70
0
 71
3
 72
8
 73
4
 74
0
 42
0.0000001
 43
0.0000001
 44
0.0000000001
 40
0.0
 40
0.0
 40
0.0
 40
0.0
 40
1.0
 40
1.0
 40
1.0
 40
1.0
 10
6.6982569226
 20
4.3235014259
 30
0.0
 10
6.7042038617
 20
4.3235014259
 30
0.0
 10
6.7089480511
 20
4.3224055828
 30
0.0
 10
6.7124226675
 20
4.320187173
 30
0.0
  0
SPLINE
  5
266
100
AcDbEntity
  8
0
100
AcDbSpline
 62
3
  6
CONTINUOUS
 70
0
 71
3
 72
8
 73
4
 74
0
 42
0.0000001
 43
0.0000001
 44
0.0000000001
 40
0.0
 40
0.0
 40
0.0
 40
0.0
 40
1.0
 40
1.0
 40
1.0
 40
1.0
 10
6.6841164865
 20
4.3202757051
 30
0.0
 10
6.6875992044
 20
4.322432311
 30
0.0
 10
6.6923099836
 20
4.3235014259
 30
0.0
 10
6.6982569226
 20
4.3235014259
 30
0.0
  0
SPLINE
  5
267
100
AcDbEntity
  8
0
100
AcDbSpline
 62
3
  6
CONTINUOUS
 70
0
 71
3
 72
8
 73
4
 74
0
 42
0.0000001
 43
0.0000001
 44
0.0000000001
 40
0.0
 40
0.0
 40
0.0
 40
0.0
 40
1.0
 40
1.0
 40
1.0
 40
1.0
 10
6.6789126631
 20
4.311366995
 30
0.0
 10
6.6789126631
 20
4.3151623419
 30
0.0
 10
6.6806499716
 20
4.3181291326
 30
0.0
 10
6.6841164865
 20
4.3202757051
 30
0.0
  0
SPLINE
  5
268
100
AcDbEntity
  8
0
100
AcDbSpline
 62
3
  6
CONTINUOUS
 70
0
 71
3
 72
8
 73
4
 74
0
 42
0.0000001
 43
0.0000001
 44
0.0000000001
 40
0.0
 40
0.0
 40
0.0
 40
0.0
 40
1.0
 40
1.0
 40
1.0
 40
1.0
 10
6.6819946416
 20
4.3042898469
 30
0.0
 10
6.6799149565
 20
4.3062085228
 30
0.0
 10
6.6789126631
 20
4.3085605737
 30
0.0
 10
6.6789126631
 20
4.311366995
 30
0.0
  0
SPLINE
  5
269
100
AcDbEntity
  8
0
100
AcDbSpline
 62
3
  6
CONTINUOUS
 70
0
 71
3
 72
8
 73
4
 74
0
 42
0.0000001
 43
0.0000001
 44
0.0000000001
 40
0.0
 40
0.0
 40
0.0
 40
0.0
 40
1.0
 40
1.0
 40
1.0
 40
1.0
 10
6.6920761146
 20
4.3002749461
 30
0.0
 10
6.6873987457
 20
4.3010500552
 30
0.0
 10
6.6840577682
 20
4.3023864477
 30
0.0
 10
6.6819946416
 20
4.3042898469
 30
0.0
  0
SPLINE
  5
26A
100
AcDbEntity
  8
0
100
AcDbSpline
 62
3
  6
CONTINUOUS
 70
0
 71
3
 72
8
 73
4
 74
0
 42
0.0000001
 43
0.0000001
 44
0.0000000001
 40
0.0
 40
0.0
 40
0.0
 40
0.0
 40
1.0
 40
1.0
 40
1.0
 40
1.0
 10
6.681284756
 20
4.2977892618
 30
0.0
 10
6.6840243587
 20
4.2962657734
 30
0.0
 10
6.6876326147
 20
4.2952233914
 30
0.0
 10
6.6920761146
 20
4.2946888363
 30
0.0
  0
SPLINE
  5
26B
100
AcDbEntity
  8
0
100
AcDbSpline
 62
3
  6
CONTINUOUS
 70
0
 71
3
 72
8
 73
4
 74
0
 42
0.0000001
 43
0.0000001
 44
0.0000000001
 40
0.0
 40
0.0
 40
0.0
 40
0.0
 40
1.0
 40
1.0
 40
1.0
 40
1.0
 10
6.6749034903
 20
4.3033486497
 30
0.0
 10
6.6764069302
 20
4.3011569681
 30
0.0
 10
6.6785451559
 20
4.2993127488
 30
0.0
 10
6.681284756
 20
4.2977892618
 30
0.0
  0
SPLINE
  5
26C
100
AcDbEntity
  8
0
100
AcDbSpline
 62
3
  6
CONTINUOUS
 70
0
 71
3
 72
8
 73
4
 74
0
 42
0.0000001
 43
0.0000001
 44
0.0000000001
 40
0.0
 40
0.0
 40
0.0
 40
0.0
 40
1.0
 40
1.0
 40
1.0
 40
1.0
 10
6.6726316255
 20
4.3112066257
 30
0.0
 10
6.6726316255
 20
4.308159655
 30
0.0
 10
6.6734000504
 20
4.3055403312
 30
0.0
 10
6.6749034903
 20
4.3033486497
 30
0.0
  0
SPLINE
  5
26D
100
AcDbEntity
  8
0
100
AcDbSpline
 62
3
  6
CONTINUOUS
 70
0
 71
3
 72
8
 73
4
 74
0
 42
0.0000001
 43
0.0000001
 44
0.0000000001
 40
0.0
 40
0.0
 40
0.0
 40
0.0
 40
1.0
 40
1.0
 40
1.0
 40
1.0
 10
6.6794055366
 20
4.324310807
 30
0.0
 10
6.6748700804
 20
4.3211226468
 30
0.0
 10
6.6726316255
 20
4.3167660119
 30
0.0
 10
6.6726316255
 20
4.3112066257
 30
0.0
  0
SPLINE
  5
26E
100
AcDbEntity
  8
0
100
AcDbSpline
 62
3
  6
CONTINUOUS
 70
0
 71
3
 72
8
 73
4
 74
0
 42
0.0000001
 43
0.0000001
 44
0.0000000001
 40
0.0
 40
0.0
 40
0.0
 40
0.0
 40
1.0
 40
1.0
 40
1.0
 40
1.0
 10
6.6976889567
 20
4.3290875404
 30
0.0
 10
6.6900381182
 20
4.3290875404
 30
0.0
 10
6.6839575396
 20
4.3275105986
 30
0.0
 10
6.6794055366
 20
4.324310807
 30
0.0
  0
SPLINE
  5
26F
100
AcDbEntity
  8
0
100
AcDbSpline
 62
3
  6
CONTINUOUS
 70
0
 71
3
 72
8
 73
4
 74
0
 42
0.0000001
 43
0.0000001
 44
0.0000000001
 40
0.0
 40
0.0
 40
0.0
 40
0.0
 40
1.0
 40
1.0
 40
1.0
 40
1.0
 10
6.7168661688
 20
4.3241696188
 30
0.0
 10
6.7121553882
 20
4.3274571421
 30
0.0
 10
6.7057741214
 20
4.3290875404
 30
0.0
 10
6.6976889567
 20
4.3290875404
 30
0.0
  0
SPLINE
  5
270
100
AcDbEntity
  8
0
100
AcDbSpline
 62
3
  6
CONTINUOUS
 70
0
 71
3
 72
8
 73
4
 74
0
 42
0.0000001
 43
0.0000001
 44
0.0000000001
 40
0.0
 40
0.0
 40
0.0
 40
0.0
 40
1.0
 40
1.0
 40
1.0
 40
1.0
 10
6.7239490384
 20
4.3109928046
 30
0.0
 10
6.7239490384
 20
4.3164987343
 30
0.0
 10
6.7215769466
 20
4.3208820975
 30
0.0
 10
6.7168661688
 20
4.3241696188
 30
0.0
  0
SPLINE
  5
271
100
AcDbEntity
  8
0
100
AcDbSpline
 62
3
  6
CONTINUOUS
 70
0
 71
3
 72
8
 73
4
 74
0
 42
0.0000001
 43
0.0000001
 44
0.0000000001
 40
0.0
 40
0.0
 40
0.0
 40
0.0
 40
1.0
 40
1.0
 40
1.0
 40
1.0
 10
6.7193620143
 20
4.2996934952
 30
0.0
 10
6.7224121889
 20
4.302626997
 30
0.0
 10
6.7239490384
 20
4.3063956203
 30
0.0
 10
6.7239490384
 20
4.3109928046
 30
0.0
  0
SPLINE
  5
272
100
AcDbEntity
  8
0
100
AcDbSpline
 62
3
  6
CONTINUOUS
 70
0
 71
3
 72
8
 73
4
 74
0
 42
0.0000001
 43
0.0000001
 44
0.0000000001
 40
0.0
 40
0.0
 40
0.0
 40
0.0
 40
1.0
 40
1.0
 40
1.0
 40
1.0
 10
6.7073777914
 20
4.2946888363
 30
0.0
 10
6.7123224367
 20
4.2950630221
 30
0.0
 10
6.7162982014
 20
4.2967468768
 30
0.0
 10
6.7193620143
 20
4.2996934952
 30
0.0
  0
SPLINE
  5
273
100
AcDbEntity
  8
0
100
AcDbSpline
 62
3
  6
CONTINUOUS
 70
0
 71
3
 72
8
 73
4
 74
0
 42
0.0000001
 43
0.0000001
 44
0.0000000001
 40
0.0
 40
0.0
 40
0.0
 40
0.0
 40
1.0
 40
1.0
 40
1.0
 40
1.0
 10
6.7151288592
 20
4.5288018176
 30
0.0
 10
6.7151288592
 20
4.5243917286
 30
0.0
 10
6.7122890293
 20
4.5216387613
 30
0.0
 10
6.7066093667
 20
4.5205696488
 30
0.0
  0
SPLINE
  5
274
100
AcDbEntity
  8
0
100
AcDbSpline
 62
3
  6
CONTINUOUS
 70
0
 71
3
 72
8
 73
4
 74
0
 42
0.0000001
 43
0.0000001
 44
0.0000000001
 40
0.0
 40
0.0
 40
0.0
 40
0.0
 40
1.0
 40
1.0
 40
1.0
 40
1.0
 10
6.6806165621
 20
3.7129939156
 30
0.0
 10
6.6782110578
 20
3.7128870027
 30
0.0
 10
6.6758723737
 20
3.7125929969
 30
0.0
 10
6.6736673286
 20
3.7121118983
 30
0.0
  0
SPLINE
  5
275
100
AcDbEntity
  8
0
100
AcDbSpline
 62
3
  6
CONTINUOUS
 70
0
 71
3
 72
8
 73
4
 74
0
 42
0.0000001
 43
0.0000001
 44
0.0000000001
 40
0.0
 40
0.0
 40
0.0
 40
0.0
 40
1.0
 40
1.0
 40
1.0
 40
1.0
 10
6.6936550406
 20
3.7165010041
 30
0.0
 10
6.692978179
 20
3.7145975856
 30
0.0
 10
6.6906399832
 20
3.7135226239
 30
0.0
 10
6.68669714
 20
3.7133146496
 30
0.0
  0
SPLINE
  5
276
100
AcDbEntity
  8
0
100
AcDbSpline
 62
3
  6
CONTINUOUS
 70
0
 71
3
 72
8
 73
4
 74
0
 42
0.0000001
 43
0.0000001
 44
0.0000000001
 40
0.0
 40
0.0
 40
0.0
 40
0.0
 40
1.0
 40
1.0
 40
1.0
 40
1.0
 10
6.6943145696
 20
3.7204242494
 30
0.0
 10
6.6943145696
 20
3.719007677
 30
0.0
 10
6.6940807006
 20
3.7176980127
 30
0.0
 10
6.6936550406
 20
3.7165010041
 30
0.0
  0
SPLINE
  5
277
100
AcDbEntity
  8
0
100
AcDbSpline
 62
3
  6
CONTINUOUS
 70
0
 71
3
 72
8
 73
4
 74
0
 42
0.0000001
 43
0.0000001
 44
0.0000000001
 40
0.0
 40
0.0
 40
0.0
 40
0.0
 40
1.0
 40
1.0
 40
1.0
 40
1.0
 10
6.7012972131
 20
3.7164952618
 30
0.0
 10
6.7008294761
 20
3.7177781974
 30
0.0
 10
6.7005956071
 20
3.7195689603
 30
0.0
 10
6.7005956071
 20
3.7218408265
 30
0.0
  0
SPLINE
  5
278
100
AcDbEntity
  8
0
100
AcDbSpline
 62
3
  6
CONTINUOUS
 70
0
 71
3
 72
8
 73
4
 74
0
 42
0.0000001
 43
0.0000001
 44
0.0000000001
 40
0.0
 40
0.0
 40
0.0
 40
0.0
 40
1.0
 40
1.0
 40
1.0
 40
1.0
 10
6.7165988881
 20
3.7225892027
 30
0.0
 10
6.7165988881
 20
3.7192214981
 30
0.0
 10
6.7162982014
 20
3.7170030883
 30
0.0
 10
6.7157494021
 20
3.7159387495
 30
0.0
  0
SPLINE
  5
279
100
AcDbEntity
  8
0
100
AcDbSpline
 62
3
  6
CONTINUOUS
 70
0
 71
3
 72
8
 73
4
 74
0
 42
0.0000001
 43
0.0000001
 44
0.0000000001
 40
0.0
 40
0.0
 40
0.0
 40
0.0
 40
1.0
 40
1.0
 40
1.0
 40
1.0
 10
6.6856748002
 20
4.7177284815
 30
0.0
 10
6.6890104333
 20
4.7199864491
 30
0.0
 10
6.6937893681
 20
4.7210897722
 30
0.0
 10
6.6999795305
 20
4.7210897722
 30
0.0
  0
SPLINE
  5
27A
100
AcDbEntity
  8
0
100
AcDbSpline
 62
3
  6
CONTINUOUS
 70
0
 71
3
 72
8
 73
4
 74
0
 42
0.0000001
 43
0.0000001
 44
0.0000000001
 40
0.0
 40
0.0
 40
0.0
 40
0.0
 40
1.0
 40
1.0
 40
1.0
 40
1.0
 10
6.6806713536
 20
4.7083117363
 30
0.0
 10
6.6806713536
 20
4.7123401512
 30
0.0
 10
6.6823391698
 20
4.7154705158
 30
0.0
 10
6.6856748002
 20
4.7177284815
 30
0.0
  0
SPLINE
  5
27B
100
AcDbEntity
  8
0
100
AcDbSpline
 62
3
  6
CONTINUOUS
 70
0
 71
3
 72
8
 73
4
 74
0
 42
0.0000001
 43
0.0000001
 44
0.0000000001
 40
0.0
 40
0.0
 40
0.0
 40
0.0
 40
1.0
 40
1.0
 40
1.0
 40
1.0
 10
6.6857788894
 20
4.698851365
 30
0.0
 10
6.682371243
 20
4.7010759795
 30
0.0
 10
6.6806713536
 20
4.7042320032
 30
0.0
 10
6.6806713536
 20
4.7083117363
 30
0.0
  0
SPLINE
  5
27C
100
AcDbEntity
  8
0
100
AcDbSpline
 62
3
  6
CONTINUOUS
 70
0
 71
3
 72
8
 73
4
 74
0
 42
0.0000001
 43
0.0000001
 44
0.0000000001
 40
0.0
 40
0.0
 40
0.0
 40
0.0
 40
1.0
 40
1.0
 40
1.0
 40
1.0
 10
6.6999153828
 20
4.6955080413
 30
0.0
 10
6.6938855883
 20
4.6955080413
 30
0.0
 10
6.6891707999
 20
4.6966370235
 30
0.0
 10
6.6857788894
 20
4.698851365
 30
0.0
  0
SPLINE
  5
27D
100
AcDbEntity
  8
0
100
AcDbSpline
 62
3
  6
CONTINUOUS
 70
0
 71
3
 72
8
 73
4
 74
0
 42
0.0000001
 43
0.0000001
 44
0.0000000001
 40
0.0
 40
0.0
 40
0.0
 40
0.0
 40
1.0
 40
1.0
 40
1.0
 40
1.0
 10
6.7129944543
 20
4.6989270063
 30
0.0
 10
6.7097298404
 20
4.6966626826
 30
0.0
 10
6.705367859
 20
4.6955080413
 30
0.0
 10
6.6999153828
 20
4.6955080413
 30
0.0
  0
SPLINE
  5
27E
100
AcDbEntity
  8
0
100
AcDbSpline
 62
3
  6
CONTINUOUS
 70
0
 71
3
 72
8
 73
4
 74
0
 42
0.0000001
 43
0.0000001
 44
0.0000000001
 40
0.0
 40
0.0
 40
0.0
 40
0.0
 40
1.0
 40
1.0
 40
1.0
 40
1.0
 10
6.7178764794
 20
4.7082860772
 30
0.0
 10
6.7178764794
 20
4.704308976
 30
0.0
 10
6.7162407374
 20
4.7011786159
 30
0.0
 10
6.7129944543
 20
4.6989270063
 30
0.0
  0
SPLINE
  5
27F
100
AcDbEntity
  8
0
100
AcDbSpline
 62
3
  6
CONTINUOUS
 70
0
 71
3
 72
8
 73
4
 74
0
 42
0.0000001
 43
0.0000001
 44
0.0000000001
 40
0.0
 40
0.0
 40
0.0
 40
0.0
 40
1.0
 40
1.0
 40
1.0
 40
1.0
 10
6.712994435
 20
4.7176964797
 30
0.0
 10
6.7162407374
 20
4.7154448567
 30
0.0
 10
6.7178764794
 20
4.7122888375
 30
0.0
 10
6.7178764794
 20
4.7082860772
 30
0.0
  0
SPLINE
  5
280
100
AcDbEntity
  8
0
100
AcDbSpline
 62
3
  6
CONTINUOUS
 70
0
 71
3
 72
8
 73
4
 74
0
 42
0.0000001
 43
0.0000001
 44
0.0000000001
 40
0.0
 40
0.0
 40
0.0
 40
0.0
 40
1.0
 40
1.0
 40
1.0
 40
1.0
 10
6.6999795305
 20
4.7210897722
 30
0.0
 10
6.7053999328
 20
4.7210897722
 30
0.0
 10
6.7097298404
 20
4.71996079
 30
0.0
 10
6.712994435
 20
4.7176964797
 30
0.0
  0
SPLINE
  5
281
100
AcDbEntity
  8
0
100
AcDbSpline
 62
3
  6
CONTINUOUS
 70
0
 71
3
 72
8
 73
4
 74
0
 42
0.0000001
 43
0.0000001
 44
0.0000000001
 40
0.0
 40
0.0
 40
0.0
 40
0.0
 40
1.0
 40
1.0
 40
1.0
 40
1.0
 10
6.7174595247
 20
4.7215259723
 30
0.0
 10
6.713161691
 20
4.7248102869
 30
0.0
 10
6.7072601891
 20
4.726452442
 30
0.0
 10
6.6997870901
 20
4.726452442
 30
0.0
  0
SPLINE
  5
282
100
AcDbEntity
  8
0
100
AcDbSpline
 62
3
  6
CONTINUOUS
 70
0
 71
3
 72
8
 73
4
 74
0
 42
0.0000001
 43
0.0000001
 44
0.0000000001
 40
0.0
 40
0.0
 40
0.0
 40
0.0
 40
1.0
 40
1.0
 40
1.0
 40
1.0
 10
6.7239062739
 20
4.7082860772
 30
0.0
 10
6.7239062739
 20
4.7138283562
 30
0.0
 10
6.7217573585
 20
4.7182416576
 30
0.0
 10
6.7174595247
 20
4.7215259723
 30
0.0
  0
SPLINE
  5
283
100
AcDbEntity
  8
0
100
AcDbSpline
 62
3
  6
CONTINUOUS
 70
0
 71
3
 72
8
 73
4
 74
0
 42
0.0000001
 43
0.0000001
 44
0.0000000001
 40
0.0
 40
0.0
 40
0.0
 40
0.0
 40
1.0
 40
1.0
 40
1.0
 40
1.0
 10
6.7174595233
 20
4.6950975015
 30
0.0
 10
6.7217573585
 20
4.698381815
 30
0.0
 10
6.7239062739
 20
4.7027951163
 30
0.0
 10
6.7239062739
 20
4.7082860772
 30
0.0
  0
SPLINE
  5
284
100
AcDbEntity
  8
0
100
AcDbSpline
 62
3
  6
CONTINUOUS
 70
0
 71
3
 72
8
 73
4
 74
0
 42
0.0000001
 43
0.0000001
 44
0.0000000001
 40
0.0
 40
0.0
 40
0.0
 40
0.0
 40
1.0
 40
1.0
 40
1.0
 40
1.0
 10
6.6997870901
 20
4.6901453715
 30
0.0
 10
6.707292263
 20
4.6901453715
 30
0.0
 10
6.713161691
 20
4.6918131901
 30
0.0
 10
6.7174595233
 20
4.6950975015
 30
0.0
  0
SPLINE
  5
285
100
AcDbEntity
  8
0
100
AcDbSpline
 62
3
  6
CONTINUOUS
 70
0
 71
3
 72
8
 73
4
 74
0
 42
0.0000001
 43
0.0000001
 44
0.0000000001
 40
0.0
 40
0.0
 40
0.0
 40
0.0
 40
1.0
 40
1.0
 40
1.0
 40
1.0
 10
6.6815694098
 20
4.6950975017
 30
0.0
 10
6.6861879758
 20
4.6918131901
 30
0.0
 10
6.6922819187
 20
4.6901453715
 30
0.0
 10
6.6997870901
 20
4.6901453715
 30
0.0
  0
SPLINE
  5
286
100
AcDbEntity
  8
0
100
AcDbSpline
 62
3
  6
CONTINUOUS
 70
0
 71
3
 72
8
 73
4
 74
0
 42
0.0000001
 43
0.0000001
 44
0.0000000001
 40
0.0
 40
0.0
 40
0.0
 40
0.0
 40
1.0
 40
1.0
 40
1.0
 40
1.0
 10
6.6746415576
 20
4.7083117363
 30
0.0
 10
6.6746415576
 20
4.7027951163
 30
0.0
 10
6.6769508413
 20
4.698381815
 30
0.0
 10
6.6815694098
 20
4.6950975017
 30
0.0
  0
SPLINE
  5
287
100
AcDbEntity
  8
0
100
AcDbSpline
 62
3
  6
CONTINUOUS
 70
0
 71
3
 72
8
 73
4
 74
0
 42
0.0000001
 43
0.0000001
 44
0.0000000001
 40
0.0
 40
0.0
 40
0.0
 40
0.0
 40
1.0
 40
1.0
 40
1.0
 40
1.0
 10
6.6815614503
 20
4.7215074614
 30
0.0
 10
6.6769508413
 20
4.7182159985
 30
0.0
 10
6.6746415576
 20
4.7138027016
 30
0.0
 10
6.6746415576
 20
4.7083117363
 30
0.0
  0
SPLINE
  5
288
100
AcDbEntity
  8
0
100
AcDbSpline
 62
3
  6
CONTINUOUS
 70
0
 71
3
 72
8
 73
4
 74
0
 42
0.0000001
 43
0.0000001
 44
0.0000000001
 40
0.0
 40
0.0
 40
0.0
 40
0.0
 40
1.0
 40
1.0
 40
1.0
 40
1.0
 10
6.6997870901
 20
4.726452442
 30
0.0
 10
6.6922498449
 20
4.726452442
 30
0.0
 10
6.6861879758
 20
4.7248102869
 30
0.0
 10
6.6815614503
 20
4.7215074614
 30
0.0
  0
DIMENSION
  5
289
100
AcDbEntity
  8
0
100
AcDbDimension
 62
7
  6
CONTINUOUS
  2
*D0
 10
5.6425246886
 20
6.7812754609
 11
6.4907937978
 21
7.6017819983
 70
163
 71
1
 42
4.75
  1
<> (2)
  3
DIMSTYLE_1
100
AcDbDiametricDimension
 15
4.9862370283
 25
2.0768321881
  0
DIMENSION
  5
28A
100
AcDbEntity
  8
0
100
AcDbDimension
 62
7
  6
CONTINUOUS
  2
*D1
 10
5.6265397845
 20
6.1509878549
 11
6.5571284676
 21
7.2364860077
 70
163
 71
1
 42
3.5
  1
<> (2)
  3
DIMSTYLE_1
100
AcDbDiametricDimension
 15
5.0022219324
 25
2.7071197942
  0
DIMENSION
  5
28B
100
AcDbEntity
  8
0
100
AcDbDimension
 62
7
  6
CONTINUOUS
  2
*D2
 10
6.1401437539
 20
1.3472647438
 11
5.1720163565
 21
1.3635509962
 70
162
 71
2
 42
0.5235987756
  1
<> (4)
  3
DIMSTYLE_2
100
AcDb2LineAngularDimension
 13
4.488617963
 23
1.3472647438
 14
4.6704357782
 24
2.0258180677
 15
5.9614565254
 25
2.0141345592
 16
5.3143808584
 26
1.3635509962
  0
MTEXT
  5
28C
100
AcDbEntity
  8
0
100
AcDbMText
 62
7
  6
CONTINUOUS
  7
TEXTSTYLE_2
 71
2
 72
1
 10
5.1224019752
 20
0.8914209906
 30
0.0
 11
1.0
 21
0.0
 31
0.0
 44
0.9
  1
DS9360 CEILING MOUNT MOTION DETECTOR\P\H0.15625;MOUNTING PATTERN AND WIRING LOCATIONS
 40
0.2
 41
6.23671875
  0
LINE
  5
28D
100
AcDbEntity
  8
Y
100
AcDbLine
 62
2
  6
CONTINUOUS
 10
3.5132688071
 20
5.8059018072
 11
3.9375328758
 21
6.2301658759
  0
LINE
  5
28E
100
AcDbEntity
  8
B
100
AcDbLine
 62
7
  6
CENTER
 10
5.8904390575
 20
2.1246272253
 11
5.9677131236
 21
2.1453327489
  0
LINE
  5
28F
100
AcDbEntity
  8
B
100
AcDbLine
 62
7
  6
CENTER
 10
4.6610485933
 20
2.1453327489
 11
4.7383226594
 21
2.1246272253
  0
LINE
  5
290
100
AcDbEntity
  8
B
100
AcDbLine
 62
7
  6
CENTER
 10
5.7286771543
 20
2.7283308667
 11
5.8059512204
 21
2.7490363903
  0
LINE
  5
291
100
AcDbEntity
  8
B
100
AcDbLine
 62
7
  6
CENTER
 10
4.8228104965
 20
2.7490363903
 11
4.9000845626
 21
2.7283308667
  0
LINE
  5
292
100
AcDbEntity
  8
Y
100
AcDbLine
 62
2
  6
CONTINUOUS
 10
4.4802808584
 20
4.4915538245
 11
4.4802808584
 21
4.3665538245
  0
LINE
  5
293
100
AcDbEntity
  8
Y
100
AcDbLine
 62
2
  6
CONTINUOUS
 10
4.4972808584
 20
4.4745538245
 11
4.4972808584
 21
4.3835538245
  0
LINE
  5
294
100
AcDbEntity
  8
Y
100
AcDbLine
 62
2
  6
CONTINUOUS
 10
4.4972808584
 20
4.3835538245
 11
4.4802808584
 21
4.3665538245
  0
LINE
  5
295
100
AcDbEntity
  8
Y
100
AcDbLine
 62
2
  6
CONTINUOUS
 10
6.8303808584
 20
3.3690538245
 11
6.8583808584
 21
3.3690538245
  0
LINE
  5
296
100
AcDbEntity
  8
Y
100
AcDbLine
 62
2
  6
CONTINUOUS
 10
6.8583808584
 20
3.4690538245
 11
6.8303808584
 21
3.4690538245
  0
LINE
  5
297
100
AcDbEntity
  8
0
100
AcDbLine
 62
3
  6
CONTINUOUS
 10
6.5272106357
 20
3.4806211805
 11
7.1372106357
 21
3.4806211805
  0
LINE
  5
298
100
AcDbEntity
  8
Y
100
AcDbLine
 62
2
  6
CONTINUOUS
 10
4.7973808584
 20
4.4745538245
 11
4.7973808584
 21
4.3835538245
  0
LINE
  5
299
100
AcDbEntity
  8
Y
100
AcDbLine
 62
2
  6
CONTINUOUS
 10
4.8143808584
 20
4.4915538245
 11
4.8143808584
 21
4.3665538245
  0
LINE
  5
29A
100
AcDbEntity
  8
Y
100
AcDbLine
 62
2
  6
CONTINUOUS
 10
4.7973808584
 20
4.4745538245
 11
4.8143808584
 21
4.4915538245
  0
LINE
  5
29B
100
AcDbEntity
  8
0
100
AcDbLine
 62
3
  6
CONTINUOUS
 10
6.68669714
 20
3.7133146496
 11
6.6806165621
 21
3.7129939156
  0
LINE
  5
29C
100
AcDbEntity
  8
0
100
AcDbLine
 62
3
  6
CONTINUOUS
 10
6.6822536409
 20
3.707594894
 11
6.6869978282
 21
3.7077285352
  0
LINE
  5
29D
100
AcDbEntity
  8
Y
100
AcDbLine
 62
2
  6
CONTINUOUS
 10
7.1818842955
 20
3.5853038245
 11
7.2173066182
 21
3.5853038245
  0
LINE
  5
29E
100
AcDbEntity
  8
Y
100
AcDbLine
 62
2
  6
CONTINUOUS
 10
7.1829627349
 20
3.5880038245
 11
7.2146066182
 21
3.5880038245
  0
LINE
  5
29F
100
AcDbEntity
  8
0
100
AcDbLine
 62
3
  6
CONTINUOUS
 10
6.9846909506
 20
3.6432196057
 11
6.6697303207
 21
3.6432196057
  0
LINE
  5
2A0
100
AcDbEntity
  8
0
100
AcDbLine
 62
3
  6
CONTINUOUS
 10
6.8193366199
 20
3.6825896844
 11
6.8350846514
 21
3.6825896844
  0
LINE
  5
2A1
100
AcDbEntity
  8
0
100
AcDbLine
 62
3
  6
CONTINUOUS
 10
6.6736673286
 20
3.7056437665
 11
6.6752041782
 21
3.7056437665
  0
LINE
  5
2A2
100
AcDbEntity
  8
0
100
AcDbLine
 62
3
  6
CONTINUOUS
 10
6.6736673286
 20
3.7325854085
 11
6.6943145696
 21
3.7325854085
  0
LINE
  5
2A3
100
AcDbEntity
  8
0
100
AcDbLine
 62
3
  6
CONTINUOUS
 10
6.7005956071
 20
3.7325854085
 11
6.7165988881
 21
3.7325854085
  0
LINE
  5
2A4
100
AcDbEntity
  8
0
100
AcDbLine
 62
3
  6
CONTINUOUS
 10
6.7681555175
 20
3.7337707868
 11
6.8193366199
 21
3.7337707868
  0
LINE
  5
2A5
100
AcDbEntity
  8
0
100
AcDbLine
 62
3
  6
CONTINUOUS
 10
6.8350846514
 20
3.7337707868
 11
6.8862657538
 21
3.7337707868
  0
LINE
  5
2A6
100
AcDbEntity
  8
0
100
AcDbLine
 62
3
  6
CONTINUOUS
 10
6.722879927
 20
3.738171523
 11
6.6736673286
 21
3.738171523
  0
LINE
  5
2A7
100
AcDbEntity
  8
0
100
AcDbLine
 62
3
  6
CONTINUOUS
 10
6.7165988881
 20
3.743704181
 11
6.722879927
 21
3.743704181
  0
LINE
  5
2A8
100
AcDbEntity
  8
0
100
AcDbLine
 62
3
  6
CONTINUOUS
 10
6.8862657538
 20
3.7495188183
 11
6.8350846514
 21
3.7495188183
  0
LINE
  5
2A9
100
AcDbEntity
  8
0
100
AcDbLine
 62
3
  6
CONTINUOUS
 10
6.8193366199
 20
3.7495188183
 11
6.7681555175
 21
3.7495188183
  0
LINE
  5
2AA
100
AcDbEntity
  8
0
100
AcDbLine
 62
3
  6
CONTINUOUS
 10
6.6736673286
 20
3.7566137175
 11
6.7165988881
 21
3.7566137175
  0
LINE
  5
2AB
100
AcDbEntity
  8
0
100
AcDbLine
 62
3
  6
CONTINUOUS
 10
6.7165988881
 20
3.762199832
 11
6.6736673286
 21
3.762199832
  0
LINE
  5
2AC
100
AcDbEntity
  8
0
100
AcDbLine
 62
3
  6
CONTINUOUS
 10
6.722879927
 20
3.7751093695
 11
6.7165988881
 21
3.7751093695
  0
LINE
  5
2AD
100
AcDbEntity
  8
0
100
AcDbLine
 62
3
  6
CONTINUOUS
 10
6.8350846514
 20
3.8006999206
 11
6.8193366199
 21
3.8006999206
  0
LINE
  5
2AE
100
AcDbEntity
  8
0
100
AcDbLine
 62
3
  6
CONTINUOUS
 10
6.8193366199
 20
3.8794400781
 11
6.8350846514
 21
3.8794400781
  0
LINE
  5
2AF
100
AcDbEntity
  8
Y
100
AcDbLine
 62
2
  6
CONTINUOUS
 10
6.4283912877
 20
3.8990538245
 11
6.6368808584
 21
3.8990538245
  0
LINE
  5
2B0
100
AcDbEntity
  8
Y
100
AcDbLine
 62
2
  6
CONTINUOUS
 10
4.4802808584
 20
4.4915538245
 11
4.4972808584
 21
4.4745538245
  0
LINE
  5
2B1
100
AcDbEntity
  8
Y
100
AcDbLine
 62
2
  6
CONTINUOUS
 10
4.7973808584
 20
4.3835538245
 11
4.8143808584
 21
4.3665538245
  0
LINE
  5
2B2
100
AcDbEntity
  8
B
100
AcDbLine
 62
7
  6
CENTER
 10
4.6893328645
 20
2.0963429541
 11
4.7100383881
 21
2.1736170202
  0
LINE
  5
2B3
100
AcDbEntity
  8
B
100
AcDbLine
 62
7
  6
CENTER
 10
4.7193106614
 20
2.2082216153
 11
4.8440517576
 21
2.673761724
  0
LINE
  5
2B4
100
AcDbEntity
  8
B
100
AcDbLine
 62
7
  6
CENTER
 10
4.8510947677
 20
2.7000465955
 11
4.8718002913
 21
2.7773206616
  0
LINE
  5
2B5
100
AcDbEntity
  8
B
100
AcDbLine
 62
7
  6
CENTER
 10
4.8809463808
 20
2.8114543324
 11
5.7476463772
 21
6.0460227537
  0
LINE
  5
2B6
100
AcDbEntity
  8
B
100
AcDbLine
 62
7
  6
CENTER
 10
5.7569614256
 20
6.0807869875
 11
5.7776669492
 21
6.1580610536
  0
LINE
  5
2B7
100
AcDbEntity
  8
B
100
AcDbLine
 62
7
  6
CENTER
 10
5.7868856586
 20
6.1924657455
 11
5.9091928341
 21
6.6489223386
  0
LINE
  5
2B8
100
AcDbEntity
  8
B
100
AcDbLine
 62
7
  6
CENTER
 10
5.9187233287
 20
6.6844906289
 11
5.9394288524
 21
6.761764695
  0
LINE
  5
2B9
100
AcDbEntity
  8
Y
100
AcDbLine
 62
2
  6
CONTINUOUS
 10
3.9619199295
 20
2.461210962
 11
3.8686289387
 21
2.3254717281
  0
LINE
  5
2BA
100
AcDbEntity
  8
Y
100
AcDbLine
 62
2
  6
CONTINUOUS
 10
7.2795772257
 20
5.1443268067
 11
7.3077680043
 21
5.154587411
  0
LINE
  5
2BB
100
AcDbEntity
  8
0
100
AcDbLine
 62
3
  6
CONTINUOUS
 10
6.7165988881
 20
3.9249495315
 11
6.722879927
 21
3.9249495315
  0
LINE
  5
2BC
100
AcDbEntity
  8
0
100
AcDbLine
 62
3
  6
CONTINUOUS
 10
6.7681555175
 20
3.9306211805
 11
6.8193366199
 21
3.9306211805
  0
LINE
  5
2BD
100
AcDbEntity
  8
0
100
AcDbLine
 62
3
  6
CONTINUOUS
 10
6.8350846514
 20
3.9306211805
 11
6.8862657538
 21
3.9306211805
  0
LINE
  5
2BE
100
AcDbEntity
  8
0
100
AcDbLine
 62
3
  6
CONTINUOUS
 10
6.6736673286
 20
3.9378590715
 11
6.7165988881
 21
3.9378590715
  0
LINE
  5
2BF
100
AcDbEntity
  8
0
100
AcDbLine
 62
3
  6
CONTINUOUS
 10
6.7165988881
 20
3.9434451813
 11
6.6736673286
 21
3.9434451813
  0
LINE
  5
2C0
100
AcDbEntity
  8
0
100
AcDbLine
 62
3
  6
CONTINUOUS
 10
6.8862657538
 20
3.946369212
 11
6.8350846514
 21
3.946369212
  0
LINE
  5
2C1
100
AcDbEntity
  8
0
100
AcDbLine
 62
3
  6
CONTINUOUS
 10
6.8193366199
 20
3.946369212
 11
6.7681555175
 21
3.946369212
  0
LINE
  5
2C2
100
AcDbEntity
  8
0
100
AcDbLine
 62
3
  6
CONTINUOUS
 10
6.722879927
 20
3.9563547213
 11
6.7165988881
 21
3.9563547213
  0
LINE
  5
2C3
100
AcDbEntity
  8
0
100
AcDbLine
 62
3
  6
CONTINUOUS
 10
6.8350846514
 20
3.9975503143
 11
6.8193366199
 21
3.9975503143
  0
LINE
  5
2C4
100
AcDbEntity
  8
0
100
AcDbLine
 62
3
  6
CONTINUOUS
 10
6.8193366199
 20
4.0762904718
 11
6.8350846514
 21
4.0762904718
  0
LINE
  5
2C5
100
AcDbEntity
  8
Y
100
AcDbLine
 62
2
  6
CONTINUOUS
 10
6.4283912877
 20
4.0790538245
 11
6.6368808584
 21
4.0790538245
  0
LINE
  5
2C6
100
AcDbEntity
  8
0
100
AcDbLine
 62
3
  6
CONTINUOUS
 10
6.7165988881
 20
4.119688433
 11
6.722879927
 21
4.119688433
  0
LINE
  5
2C7
100
AcDbEntity
  8
0
100
AcDbLine
 62
3
  6
CONTINUOUS
 10
6.7681555175
 20
4.1274715742
 11
6.8193366199
 21
4.1274715742
  0
LINE
  5
2C8
100
AcDbEntity
  8
0
100
AcDbLine
 62
3
  6
CONTINUOUS
 10
6.8350846514
 20
4.1274715742
 11
6.8862657538
 21
4.1274715742
  0
LINE
  5
2C9
100
AcDbEntity
  8
0
100
AcDbLine
 62
3
  6
CONTINUOUS
 10
6.6736673286
 20
4.1325979695
 11
6.7165988881
 21
4.1325979695
  0
LINE
  5
2CA
100
AcDbEntity
  8
0
100
AcDbLine
 62
3
  6
CONTINUOUS
 10
6.7165988881
 20
4.138184084
 11
6.6736673286
 21
4.138184084
  0
LINE
  5
2CB
100
AcDbEntity
  8
0
100
AcDbLine
 62
3
  6
CONTINUOUS
 10
6.8862657538
 20
4.1432196057
 11
6.8350846514
 21
4.1432196057
  0
LINE
  5
2CC
100
AcDbEntity
  8
0
100
AcDbLine
 62
3
  6
CONTINUOUS
 10
6.8193366199
 20
4.1432196057
 11
6.7681555175
 21
4.1432196057
  0
LINE
  5
2CD
100
AcDbEntity
  8
0
100
AcDbLine
 62
3
  6
CONTINUOUS
 10
6.722879927
 20
4.1510936214
 11
6.7165988881
 21
4.1510936214
  0
LINE
  5
2CE
100
AcDbEntity
  8
Y
100
AcDbLine
 62
2
  6
CONTINUOUS
 10
7.4934892749
 20
4.1790901091
 11
7.4915213608
 21
4.1790901091
  0
LINE
  5
2CF
100
AcDbEntity
  8
Y
100
AcDbLine
 62
2
  6
CONTINUOUS
 10
7.3382388399
 20
4.1790901091
 11
7.3784278883
 21
4.1790901091
  0
LINE
  5
2D0
100
AcDbEntity
  8
0
100
AcDbLine
 62
3
  6
CONTINUOUS
 10
6.8350846514
 20
4.194400708
 11
6.8193366199
 21
4.194400708
  0
LINE
  5
2D1
100
AcDbEntity
  8
Y
100
AcDbLine
 62
2
  6
CONTINUOUS
 10
7.3284398401
 20
4.2415538245
 11
7.3891837192
 21
4.2415538245
  0
LINE
  5
2D2
100
AcDbEntity
  8
0
100
AcDbLine
 62
3
  6
CONTINUOUS
 10
6.8193366199
 20
4.2731408655
 11
6.8350846514
 21
4.2731408655
  0
LINE
  5
2D3
100
AcDbEntity
  8
Y
100
AcDbLine
 62
2
  6
CONTINUOUS
 10
6.9194307711
 20
2.3997398431
 11
6.6912288411
 21
2.6279417732
  0
LINE
  5
2D4
100
AcDbEntity
  8
Y
100
AcDbLine
 62
2
  6
CONTINUOUS
 10
3.285066877
 20
6.0341037372
 11
3.5132688071
 21
5.8059018072
  0
LINE
  5
2D5
100
AcDbEntity
  8
Y
100
AcDbLine
 62
2
  6
CONTINUOUS
 10
3.9447989765
 20
6.3850194593
 11
3.8503270046
 21
6.5199394176
  0
LINE
  5
2D6
100
AcDbEntity
  8
R
100
AcDbLine
 62
8
  6
HIDDEN
 10
4.340085094
 20
6.7858032392
 11
4.310402888
 21
6.8631280294
  0
LINE
  5
2D7
100
AcDbEntity
  8
R
100
AcDbLine
 62
8
  6
HIDDEN
 10
4.4614505494
 20
6.8323910726
 11
4.4317683434
 21
6.9097158629
  0
LINE
  5
2D8
100
AcDbEntity
  8
B
100
AcDbLine
 62
7
  6
CENTER
 10
5.9394288524
 20
2.0963429541
 11
5.9187233287
 21
2.1736170202
  0
LINE
  5
2D9
100
AcDbEntity
  8
B
100
AcDbLine
 62
7
  6
CENTER
 10
5.9102932404
 20
2.2050785381
 11
5.7858633305
 21
2.6694572839
  0
LINE
  5
2DA
100
AcDbEntity
  8
B
100
AcDbLine
 62
7
  6
CENTER
 10
5.7776669492
 20
2.7000465955
 11
5.7569614256
 21
2.7773206616
  0
LINE
  5
2DB
100
AcDbEntity
  8
B
100
AcDbLine
 62
7
  6
CENTER
 10
5.747847349
 20
2.8113348583
 11
4.8803318194
 21
6.0489468912
  0
LINE
  5
2DC
100
AcDbEntity
  8
B
100
AcDbLine
 62
7
  6
CENTER
 10
4.8718002913
 20
6.0807869875
 11
4.8510947677
 21
6.1580610536
  0
LINE
  5
2DD
100
AcDbEntity
  8
B
100
AcDbLine
 62
7
  6
CENTER
 10
4.8429421236
 20
6.1884871356
 11
4.7202252249
 21
6.6464728366
  0
LINE
  5
2DE
100
AcDbEntity
  8
B
100
AcDbLine
 62
7
  6
CENTER
 10
4.7100383881
 20
6.6844906289
 11
4.6893328645
 21
6.761764695
  0
LINE
  5
2DF
100
AcDbEntity
  8
Y
100
AcDbLine
 62
2
  6
CONTINUOUS
 10
5.8143808584
 20
4.4915538245
 11
5.8143808584
 21
4.3665538245
  0
LINE
  5
2E0
100
AcDbEntity
  8
Y
100
AcDbLine
 62
2
  6
CONTINUOUS
 10
5.8313808584
 20
4.4745538245
 11
5.8313808584
 21
4.3835538245
  0
LINE
  5
2E1
100
AcDbEntity
  8
Y
100
AcDbLine
 62
2
  6
CONTINUOUS
 10
5.8313808584
 20
4.3835538245
 11
5.8143808584
 21
4.3665538245
  0
LINE
  5
2E2
100
AcDbEntity
  8
Y
100
AcDbLine
 62
2
  6
CONTINUOUS
 10
6.1484808584
 20
4.4915538245
 11
6.1314808584
 21
4.4745538245
  0
LINE
  5
2E3
100
AcDbEntity
  8
0
100
AcDbLine
 62
3
  6
CONTINUOUS
 10
6.6856748016
 20
4.738717305
 11
6.722879927
 21
4.7573711848
  0
LINE
  5
2E4
100
AcDbEntity
  8
0
100
AcDbLine
 62
3
  6
CONTINUOUS
 10
6.7132579126
 20
4.7579356758
 11
6.6756358325
 21
4.7392817961
  0
LINE
  5
2E5
100
AcDbEntity
  8
Y
100
AcDbLine
 62
2
  6
CONTINUOUS
 10
3.0079497933
 20
3.8110474832
 11
2.7904166743
 21
3.7527596597
  0
LINE
  5
2E6
100
AcDbEntity
  8
Y
100
AcDbLine
 62
2
  6
CONTINUOUS
 10
7.6208119235
 20
5.0470601658
 11
7.7853857096
 21
5.0911575789
  0
LINE
  5
2E7
100
AcDbEntity
  8
0
100
AcDbLine
 62
3
  6
CONTINUOUS
 10
6.7681555175
 20
4.3243219679
 11
6.8193366199
 21
4.3243219679
  0
LINE
  5
2E8
100
AcDbEntity
  8
0
100
AcDbLine
 62
3
  6
CONTINUOUS
 10
6.8350846514
 20
4.3243219679
 11
6.8862657538
 21
4.3243219679
  0
LINE
  5
2E9
100
AcDbEntity
  8
0
100
AcDbLine
 62
3
  6
CONTINUOUS
 10
6.6736673286
 20
4.3364376895
 11
6.722879927
 21
4.3364376895
  0
LINE
  5
2EA
100
AcDbEntity
  8
0
100
AcDbLine
 62
3
  6
CONTINUOUS
 10
6.8862657538
 20
4.3400699994
 11
6.8350846514
 21
4.3400699994
  0
LINE
  5
2EB
100
AcDbEntity
  8
0
100
AcDbLine
 62
3
  6
CONTINUOUS
 10
6.8193366199
 20
4.3400699994
 11
6.7681555175
 21
4.3400699994
  0
LINE
  5
2EC
100
AcDbEntity
  8
0
100
AcDbLine
 62
3
  6
CONTINUOUS
 10
6.722879927
 20
4.342023804
 11
6.684124588
 21
4.342023804
  0
LINE
  5
2ED
100
AcDbEntity
  8
0
100
AcDbLine
 62
3
  6
CONTINUOUS
 10
6.6736673286
 20
4.3620429403
 11
6.7128569953
 21
4.3620429403
  0
LINE
  5
2EE
100
AcDbEntity
  8
Y
100
AcDbLine
 62
2
  6
CONTINUOUS
 10
4.4802808584
 20
4.3665538245
 11
4.8143808584
 21
4.3665538245
  0
LINE
  5
2EF
100
AcDbEntity
  8
Y
100
AcDbLine
 62
2
  6
CONTINUOUS
 10
5.8143808584
 20
4.3665538245
 11
6.1484808584
 21
4.3665538245
  0
LINE
  5
2F0
100
AcDbEntity
  8
0
100
AcDbLine
 62
3
  6
CONTINUOUS
 10
6.722879927
 20
4.3676290547
 11
6.6736673286
 21
4.3676290547
  0
LINE
  5
2F1
100
AcDbEntity
  8
Y
100
AcDbLine
 62
2
  6
CONTINUOUS
 10
4.4972808584
 20
4.3835538245
 11
4.7973808584
 21
4.3835538245
  0
LINE
  5
2F2
100
AcDbEntity
  8
Y
100
AcDbLine
 62
2
  6
CONTINUOUS
 10
5.8313808584
 20
4.3835538245
 11
6.1314808584
 21
4.3835538245
  0
LINE
  5
2F3
100
AcDbEntity
  8
0
100
AcDbLine
 62
3
  6
CONTINUOUS
 10
6.8350846514
 20
4.3912511017
 11
6.8193366199
 21
4.3912511017
  0
LINE
  5
2F4
100
AcDbEntity
  8
0
100
AcDbLine
 62
3
  6
CONTINUOUS
 10
6.8193366199
 20
4.4699912592
 11
6.8350846514
 21
4.4699912592
  0
LINE
  5
2F5
100
AcDbEntity
  8
Y
100
AcDbLine
 62
2
  6
CONTINUOUS
 10
4.4972808584
 20
4.4745538245
 11
4.7973808584
 21
4.4745538245
  0
LINE
  5
2F6
100
AcDbEntity
  8
Y
100
AcDbLine
 62
2
  6
CONTINUOUS
 10
5.8313808584
 20
4.4745538245
 11
6.1314808584
 21
4.4745538245
  0
LINE
  5
2F7
100
AcDbEntity
  8
Y
100
AcDbLine
 62
2
  6
CONTINUOUS
 10
4.4802808584
 20
4.4915538245
 11
4.8143808584
 21
4.4915538245
  0
LINE
  5
2F8
100
AcDbEntity
  8
Y
100
AcDbLine
 62
2
  6
CONTINUOUS
 10
5.8143808584
 20
4.4915538245
 11
6.1484808584
 21
4.4915538245
  0
LINE
  5
2F9
100
AcDbEntity
  8
0
100
AcDbLine
 62
3
  6
CONTINUOUS
 10
6.7681555175
 20
4.5211723616
 11
6.8193366199
 21
4.5211723616
  0
LINE
  5
2FA
100
AcDbEntity
  8
0
100
AcDbLine
 62
3
  6
CONTINUOUS
 10
6.8350846514
 20
4.5211723616
 11
6.8862657538
 21
4.5211723616
  0
LINE
  5
2FB
100
AcDbEntity
  8
0
100
AcDbLine
 62
3
  6
CONTINUOUS
 10
6.8862657538
 20
4.5369203931
 11
6.8350846514
 21
4.5369203931
  0
LINE
  5
2FC
100
AcDbEntity
  8
0
100
AcDbLine
 62
3
  6
CONTINUOUS
 10
6.8193366199
 20
4.5369203931
 11
6.7681555175
 21
4.5369203931
  0
LINE
  5
2FD
100
AcDbEntity
  8
0
100
AcDbLine
 62
3
  6
CONTINUOUS
 10
6.8350846514
 20
4.5881014954
 11
6.8193366199
 21
4.5881014954
  0
LINE
  5
2FE
100
AcDbEntity
  8
Y
100
AcDbLine
 62
2
  6
CONTINUOUS
 10
7.3284398401
 20
4.6165538245
 11
7.3897208758
 21
4.6165538245
  0
LINE
  5
2FF
100
AcDbEntity
  8
0
100
AcDbLine
 62
3
  6
CONTINUOUS
 10
6.8193366199
 20
4.6668416529
 11
6.8350846514
 21
4.6668416529
  0
LINE
  5
300
100
AcDbEntity
  8
Y
100
AcDbLine
 62
2
  6
CONTINUOUS
 10
7.4934892749
 20
4.67901754
 11
7.4915213608
 21
4.67901754
  0
LINE
  5
301
100
AcDbEntity
  8
Y
100
AcDbLine
 62
2
  6
CONTINUOUS
 10
7.3386605446
 20
4.67901754
 11
7.3784278883
 21
4.67901754
  0
LINE
  5
302
100
AcDbEntity
  8
Y
100
AcDbLine
 62
2
  6
CONTINUOUS
 10
7.8646673305
 20
4.2283419263
 11
7.6948132325
 21
4.2417097337
  0
LINE
  5
303
100
AcDbEntity
  8
Y
100
AcDbLine
 62
2
  6
CONTINUOUS
 10
2.9339484844
 20
4.6163979154
 11
2.7094358654
 21
4.6340674417
  0
LINE
  5
304
100
AcDbEntity
  8
Y
100
AcDbLine
 62
2
  6
CONTINUOUS
 10
7.2795772257
 20
3.7137808424
 11
7.3077680043
 21
3.7035202381
  0
LINE
  5
305
100
AcDbEntity
  8
Y
100
AcDbLine
 62
2
  6
CONTINUOUS
 10
7.3436948398
 20
2.8240039118
 11
7.1154929098
 21
3.0522058419
  0
LINE
  5
306
100
AcDbEntity
  8
Y
100
AcDbLine
 62
2
  6
CONTINUOUS
 10
3.7093309457
 20
6.4583678059
 11
3.9375328758
 21
6.2301658759
  0
LINE
  5
307
100
AcDbEntity
  8
Y
100
AcDbLine
 62
2
  6
CONTINUOUS
 10
5.8313808584
 20
4.4745538245
 11
5.8143808584
 21
4.4915538245
  0
LINE
  5
308
100
AcDbEntity
  8
Y
100
AcDbLine
 62
2
  6
CONTINUOUS
 10
6.1314808584
 20
4.4745538245
 11
6.1314808584
 21
4.3835538245
  0
LINE
  5
309
100
AcDbEntity
  8
Y
100
AcDbLine
 62
2
  6
CONTINUOUS
 10
6.1484808584
 20
4.4915538245
 11
6.1484808584
 21
4.3665538245
  0
LINE
  5
30A
100
AcDbEntity
  8
Y
100
AcDbLine
 62
2
  6
CONTINUOUS
 10
7.2173066182
 20
5.2728038245
 11
7.2146066182
 21
5.2701038245
  0
LINE
  5
30B
100
AcDbEntity
  8
0
100
AcDbLine
 62
3
  6
CONTINUOUS
 10
6.684124588
 20
4.342023804
 11
6.722879927
 21
4.3614549287
  0
LINE
  5
30C
100
AcDbEntity
  8
0
100
AcDbLine
 62
3
  6
CONTINUOUS
 10
6.7128569953
 20
4.3620429403
 11
6.6736673286
 21
4.3426118155
  0
LINE
  5
30D
100
AcDbEntity
  8
0
100
AcDbLine
 62
3
  6
CONTINUOUS
 10
6.7681555175
 20
4.7180227553
 11
6.8193366199
 21
4.7180227553
  0
LINE
  5
30E
100
AcDbEntity
  8
0
100
AcDbLine
 62
3
  6
CONTINUOUS
 10
6.8350846514
 20
4.7180227553
 11
6.8862657538
 21
4.7180227553
  0
LINE
  5
30F
100
AcDbEntity
  8
0
100
AcDbLine
 62
3
  6
CONTINUOUS
 10
6.6756358325
 20
4.7333546351
 11
6.722879927
 21
4.7333546351
  0
LINE
  5
310
100
AcDbEntity
  8
0
100
AcDbLine
 62
3
  6
CONTINUOUS
 10
6.8862657538
 20
4.7337707868
 11
6.8350846514
 21
4.7337707868
  0
LINE
  5
311
100
AcDbEntity
  8
0
100
AcDbLine
 62
3
  6
CONTINUOUS
 10
6.8193366199
 20
4.7337707868
 11
6.7681555175
 21
4.7337707868
  0
LINE
  5
312
100
AcDbEntity
  8
0
100
AcDbLine
 62
3
  6
CONTINUOUS
 10
6.722879927
 20
4.738717305
 11
6.6856748016
 21
4.738717305
  0
LINE
  5
313
100
AcDbEntity
  8
0
100
AcDbLine
 62
3
  6
CONTINUOUS
 10
6.6756358325
 20
4.7579356758
 11
6.7132579126
 21
4.7579356758
  0
LINE
  5
314
100
AcDbEntity
  8
0
100
AcDbLine
 62
3
  6
CONTINUOUS
 10
6.722879927
 20
4.7632983457
 11
6.6756358325
 21
4.7632983457
  0
LINE
  5
315
100
AcDbEntity
  8
Y
100
AcDbLine
 62
2
  6
CONTINUOUS
 10
6.4283912877
 20
4.7790538245
 11
6.6368808584
 21
4.7790538245
  0
LINE
  5
316
100
AcDbEntity
  8
0
100
AcDbLine
 62
3
  6
CONTINUOUS
 10
6.8350846514
 20
4.7849518891
 11
6.8193366199
 21
4.7849518891
  0
LINE
  5
317
100
AcDbEntity
  8
0
100
AcDbLine
 62
3
  6
CONTINUOUS
 10
6.8193366199
 20
4.8636920466
 11
6.8350846514
 21
4.8636920466
  0
LINE
  5
318
100
AcDbEntity
  8
0
100
AcDbLine
 62
3
  6
CONTINUOUS
 10
6.6937051753
 20
4.8980840717
 11
6.7015203905
 21
4.8980840717
  0
LINE
  5
319
100
AcDbEntity
  8
0
100
AcDbLine
 62
3
  6
CONTINUOUS
 10
6.7681555175
 20
4.914873149
 11
6.8193366199
 21
4.914873149
  0
LINE
  5
31A
100
AcDbEntity
  8
0
100
AcDbLine
 62
3
  6
CONTINUOUS
 10
6.8350846514
 20
4.914873149
 11
6.8862657538
 21
4.914873149
  0
LINE
  5
31B
100
AcDbEntity
  8
0
100
AcDbLine
 62
3
  6
CONTINUOUS
 10
6.6724859589
 20
4.919303286
 11
6.6937051753
 21
4.919303286
  0
LINE
  5
31C
100
AcDbEntity
  8
0
100
AcDbLine
 62
3
  6
CONTINUOUS
 10
6.7015203905
 20
4.919303286
 11
6.7227396069
 21
4.919303286
  0
LINE
  5
31D
100
AcDbEntity
  8
0
100
AcDbLine
 62
3
  6
CONTINUOUS
 10
6.7227396069
 20
4.9271184992
 11
6.7015203905
 21
4.9271184992
  0
LINE
  5
31E
100
AcDbEntity
  8
0
100
AcDbLine
 62
3
  6
CONTINUOUS
 10
6.6937051753
 20
4.9271184992
 11
6.6724859589
 21
4.9271184992
  0
LINE
  5
31F
100
AcDbEntity
  8
0
100
AcDbLine
 62
3
  6
CONTINUOUS
 10
6.8862657538
 20
4.9306211805
 11
6.8350846514
 21
4.9306211805
  0
LINE
  5
320
100
AcDbEntity
  8
0
100
AcDbLine
 62
3
  6
CONTINUOUS
 10
6.8193366199
 20
4.9306211805
 11
6.7681555175
 21
4.9306211805
  0
LINE
  5
321
100
AcDbEntity
  8
0
100
AcDbLine
 62
3
  6
CONTINUOUS
 10
6.7015203905
 20
4.9483377155
 11
6.6937051753
 21
4.9483377155
  0
LINE
  5
322
100
AcDbEntity
  8
Y
100
AcDbLine
 62
2
  6
CONTINUOUS
 10
6.4283912877
 20
4.9590538245
 11
6.6368808584
 21
4.9590538245
  0
LINE
  5
323
100
AcDbEntity
  8
0
100
AcDbLine
 62
3
  6
CONTINUOUS
 10
6.8350846514
 20
4.9818022828
 11
6.8193366199
 21
4.9818022828
  0
LINE
  5
324
100
AcDbEntity
  8
0
100
AcDbLine
 62
3
  6
CONTINUOUS
 10
6.8193366199
 20
5.0605424403
 11
6.8350846514
 21
5.0605424403
  0
LINE
  5
325
100
AcDbEntity
  8
Y
100
AcDbLine
 62
2
  6
CONTINUOUS
 10
6.1314808584
 20
4.3835538245
 11
6.1484808584
 21
4.3665538245
  0
LINE
  5
326
100
AcDbEntity
  8
Y
100
AcDbLine
 62
2
  6
CONTINUOUS
 10
7.2146066182
 20
3.5880038245
 11
7.2173066182
 21
3.5853038245
  0
LINE
  5
327
100
AcDbEntity
  8
Y
100
AcDbLine
 62
2
  6
CONTINUOUS
 10
6.4283912877
 20
4.0790538245
 11
6.4283912877
 21
3.8990538245
  0
LINE
  5
328
100
AcDbEntity
  8
Y
100
AcDbLine
 62
2
  6
CONTINUOUS
 10
6.4283912877
 20
4.7790538245
 11
6.4283912877
 21
4.9590538245
  0
LINE
  5
329
100
AcDbEntity
  8
Y
100
AcDbLine
 62
2
  6
CONTINUOUS
 10
6.4966308584
 20
4.0790538245
 11
6.4966308584
 21
3.8990538245
  0
LINE
  5
32A
100
AcDbEntity
  8
Y
100
AcDbLine
 62
2
  6
CONTINUOUS
 10
6.4966308584
 20
4.7790538245
 11
6.4966308584
 21
4.9590538245
  0
LINE
  5
32B
100
AcDbEntity
  8
0
100
AcDbLine
 62
3
  6
CONTINUOUS
 10
6.5272106357
 20
5.3806211805
 11
6.5272106357
 21
4.9590538245
  0
LINE
  5
32C
100
AcDbEntity
  8
0
100
AcDbLine
 62
3
  6
CONTINUOUS
 10
6.5272106357
 20
4.7790538245
 11
6.5272106357
 21
4.0790538245
  0
LINE
  5
32D
100
AcDbEntity
  8
0
100
AcDbLine
 62
3
  6
CONTINUOUS
 10
6.5272106357
 20
3.8990538245
 11
6.5272106357
 21
3.4806211805
  0
LINE
  5
32E
100
AcDbEntity
  8
Y
100
AcDbLine
 62
2
  6
CONTINUOUS
 10
6.6528808584
 20
4.0630538245
 11
6.6528808584
 21
3.9150538245
  0
LINE
  5
32F
100
AcDbEntity
  8
Y
100
AcDbLine
 62
2
  6
CONTINUOUS
 10
6.6528808584
 20
4.7950538245
 11
6.6528808584
 21
4.9430538245
  0
LINE
  5
330
100
AcDbEntity
  8
0
100
AcDbLine
 62
3
  6
CONTINUOUS
 10
6.6697303207
 20
5.2180227553
 11
6.6697303207
 21
3.6432196057
  0
LINE
  5
331
100
AcDbEntity
  8
0
100
AcDbLine
 62
3
  6
CONTINUOUS
 10
6.6724859589
 20
4.9271184992
 11
6.6724859589
 21
4.919303286
  0
LINE
  5
332
100
AcDbEntity
  8
0
100
AcDbLine
 62
3
  6
CONTINUOUS
 10
6.6736673286
 20
4.3676290547
 11
6.6736673286
 21
4.3620429403
  0
LINE
  5
333
100
AcDbEntity
  8
0
100
AcDbLine
 62
3
  6
CONTINUOUS
 10
6.6736673286
 20
4.3426118155
 11
6.6736673286
 21
4.3364376895
  0
LINE
  5
334
100
AcDbEntity
  8
0
100
AcDbLine
 62
3
  6
CONTINUOUS
 10
6.6736673286
 20
4.138184084
 11
6.6736673286
 21
4.1325979695
  0
LINE
  5
335
100
AcDbEntity
  8
0
100
AcDbLine
 62
3
  6
CONTINUOUS
 10
6.6736673286
 20
3.9434451813
 11
6.6736673286
 21
3.9378590715
  0
LINE
  5
336
100
AcDbEntity
  8
0
100
AcDbLine
 62
3
  6
CONTINUOUS
 10
6.6736673286
 20
3.762199832
 11
6.6736673286
 21
3.7566137175
  0
LINE
  5
337
100
AcDbEntity
  8
0
100
AcDbLine
 62
3
  6
CONTINUOUS
 10
6.6736673286
 20
3.738171523
 11
6.6736673286
 21
3.7325854085
  0
LINE
  5
338
100
AcDbEntity
  8
0
100
AcDbLine
 62
3
  6
CONTINUOUS
 10
6.6736673286
 20
3.7121118983
 11
6.6736673286
 21
3.7056437665
  0
LINE
  5
339
100
AcDbEntity
  8
0
100
AcDbLine
 62
3
  6
CONTINUOUS
 10
6.6756358325
 20
4.7632983457
 11
6.6756358325
 21
4.7579356758
  0
LINE
  5
33A
100
AcDbEntity
  8
0
100
AcDbLine
 62
3
  6
CONTINUOUS
 10
6.6756358325
 20
4.7392817961
 11
6.6756358325
 21
4.7333546351
  0
LINE
  5
33B
100
AcDbEntity
  8
0
100
AcDbLine
 62
3
  6
CONTINUOUS
 10
6.6907731327
 20
4.5126314858
 11
6.6907731327
 21
4.5206498335
  0
LINE
  5
33C
100
AcDbEntity
  8
0
100
AcDbLine
 62
3
  6
CONTINUOUS
 10
6.6920761146
 20
4.2946888363
 11
6.6920761146
 21
4.3002749461
  0
LINE
  5
33D
100
AcDbEntity
  8
0
100
AcDbLine
 62
3
  6
CONTINUOUS
 10
6.6937051753
 20
4.9483377155
 11
6.6937051753
 21
4.9271184992
  0
LINE
  5
33E
100
AcDbEntity
  8
0
100
AcDbLine
 62
3
  6
CONTINUOUS
 10
6.6937051753
 20
4.919303286
 11
6.6937051753
 21
4.8980840717
  0
LINE
  5
33F
100
AcDbEntity
  8
0
100
AcDbLine
 62
3
  6
CONTINUOUS
 10
6.6943065512
 20
5.1432196058
 11
6.6943065512
 21
5.0947086124
  0
LINE
  5
340
100
AcDbEntity
  8
0
100
AcDbLine
 62
3
  6
CONTINUOUS
 10
6.6943145696
 20
3.7325854085
 11
6.6943145696
 21
3.7204242494
  0
LINE
  5
341
100
AcDbEntity
  8
0
100
AcDbLine
 62
3
  6
CONTINUOUS
 10
6.7005956071
 20
3.7218408265
 11
6.7005956071
 21
3.7325854085
  0
LINE
  5
342
100
AcDbEntity
  8
0
100
AcDbLine
 62
3
  6
CONTINUOUS
 10
6.7008548665
 20
5.0947086124
 11
6.7008548665
 21
5.1432196058
  0
LINE
  5
343
100
AcDbEntity
  8
0
100
AcDbLine
 62
3
  6
CONTINUOUS
 10
6.7015203905
 20
4.8980840717
 11
6.7015203905
 21
4.919303286
  0
LINE
  5
344
100
AcDbEntity
  8
0
100
AcDbLine
 62
3
  6
CONTINUOUS
 10
6.7015203905
 20
4.9271184992
 11
6.7015203905
 21
4.9483377155
  0
LINE
  5
345
100
AcDbEntity
  8
Y
100
AcDbLine
 62
2
  6
CONTINUOUS
 10
7.3891837192
 20
4.6165538245
 11
7.3897208758
 21
4.6171717658
  0
LINE
  5
346
100
AcDbEntity
  8
Y
100
AcDbLine
 62
2
  6
CONTINUOUS
 10
7.4915213608
 20
4.67901754
 11
7.4910021388
 21
4.67856721
  0
LINE
  5
347
100
AcDbEntity
  8
Y
100
AcDbLine
 62
2
  6
CONTINUOUS
 10
7.3791407906
 20
4.1794927986
 11
7.3784278883
 21
4.1790901091
  0
LINE
  5
348
100
AcDbEntity
  8
0
100
AcDbLine
 62
3
  6
CONTINUOUS
 10
6.6943065512
 20
5.0947086124
 11
6.7008548665
 21
5.0947086124
  0
LINE
  5
349
100
AcDbEntity
  8
0
100
AcDbLine
 62
3
  6
CONTINUOUS
 10
6.7681555175
 20
5.1117235427
 11
6.8193366199
 21
5.1117235427
  0
LINE
  5
34A
100
AcDbEntity
  8
0
100
AcDbLine
 62
3
  6
CONTINUOUS
 10
6.8350846514
 20
5.1117235427
 11
6.8862657538
 21
5.1117235427
  0
LINE
  5
34B
100
AcDbEntity
  8
0
100
AcDbLine
 62
3
  6
CONTINUOUS
 10
6.8862657538
 20
5.1274715742
 11
6.8350846514
 21
5.1274715742
  0
LINE
  5
34C
100
AcDbEntity
  8
0
100
AcDbLine
 62
3
  6
CONTINUOUS
 10
6.8193366199
 20
5.1274715742
 11
6.7681555175
 21
5.1274715742
  0
LINE
  5
34D
100
AcDbEntity
  8
0
100
AcDbLine
 62
3
  6
CONTINUOUS
 10
6.7008548665
 20
5.1432196058
 11
6.6943065512
 21
5.1432196058
  0
LINE
  5
34E
100
AcDbEntity
  8
0
100
AcDbLine
 62
3
  6
CONTINUOUS
 10
6.8350846514
 20
5.1786526765
 11
6.8193366199
 21
5.1786526765
  0
LINE
  5
34F
100
AcDbEntity
  8
0
100
AcDbLine
 62
3
  6
CONTINUOUS
 10
6.9846909506
 20
5.2180227553
 11
6.6697303207
 21
5.2180227553
  0
LINE
  5
350
100
AcDbEntity
  8
Y
100
AcDbLine
 62
2
  6
CONTINUOUS
 10
7.1842102438
 20
5.2701038245
 11
7.2146066182
 21
5.2701038245
  0
LINE
  5
351
100
AcDbEntity
  8
Y
100
AcDbLine
 62
2
  6
CONTINUOUS
 10
7.1831360282
 20
5.2728038245
 11
7.2173066182
 21
5.2728038245
  0
LINE
  5
352
100
AcDbEntity
  8
0
100
AcDbLine
 62
3
  6
CONTINUOUS
 10
7.1372106357
 20
5.3806211805
 11
6.5272106357
 21
5.3806211805
  0
LINE
  5
353
100
AcDbEntity
  8
Y
100
AcDbLine
 62
2
  6
CONTINUOUS
 10
6.8583808584
 20
5.3890538245
 11
6.8303808584
 21
5.3890538245
  0
LINE
  5
354
100
AcDbEntity
  8
0
100
AcDbLine
 62
3
  6
CONTINUOUS
 10
6.7066093667
 20
4.5205696488
 11
6.7066093667
 21
4.5125513034
  0
LINE
  5
355
100
AcDbEntity
  8
0
100
AcDbLine
 62
3
  6
CONTINUOUS
 10
6.7073777914
 20
4.3002749461
 11
6.7073777914
 21
4.2946888363
  0
LINE
  5
356
100
AcDbEntity
  8
0
100
AcDbLine
 62
3
  6
CONTINUOUS
 10
6.7165988881
 20
4.1510936214
 11
6.7165988881
 21
4.138184084
  0
LINE
  5
357
100
AcDbEntity
  8
0
100
AcDbLine
 62
3
  6
CONTINUOUS
 10
6.7165988881
 20
4.1325979695
 11
6.7165988881
 21
4.119688433
  0
LINE
  5
358
100
AcDbEntity
  8
0
100
AcDbLine
 62
3
  6
CONTINUOUS
 10
6.7165988881
 20
3.9563547213
 11
6.7165988881
 21
3.9434451813
  0
LINE
  5
359
100
AcDbEntity
  8
0
100
AcDbLine
 62
3
  6
CONTINUOUS
 10
6.7165988881
 20
3.9378590715
 11
6.7165988881
 21
3.9249495315
  0
LINE
  5
35A
100
AcDbEntity
  8
0
100
AcDbLine
 62
3
  6
CONTINUOUS
 10
6.7165988881
 20
3.7751093695
 11
6.7165988881
 21
3.762199832
  0
LINE
  5
35B
100
AcDbEntity
  8
0
100
AcDbLine
 62
3
  6
CONTINUOUS
 10
6.7165988881
 20
3.7566137175
 11
6.7165988881
 21
3.743704181
  0
LINE
  5
35C
100
AcDbEntity
  8
0
100
AcDbLine
 62
3
  6
CONTINUOUS
 10
6.7165988881
 20
3.7325854085
 11
6.7165988881
 21
3.7225892027
  0
LINE
  5
35D
100
AcDbEntity
  8
0
100
AcDbLine
 62
3
  6
CONTINUOUS
 10
6.7227396069
 20
4.919303286
 11
6.7227396069
 21
4.9271184992
  0
LINE
  5
35E
100
AcDbEntity
  8
0
100
AcDbLine
 62
3
  6
CONTINUOUS
 10
6.722879927
 20
3.719328411
 11
6.722879927
 21
3.738171523
  0
LINE
  5
35F
100
AcDbEntity
  8
0
100
AcDbLine
 62
3
  6
CONTINUOUS
 10
6.722879927
 20
3.743704181
 11
6.722879927
 21
3.7751093695
  0
LINE
  5
360
100
AcDbEntity
  8
0
100
AcDbLine
 62
3
  6
CONTINUOUS
 10
6.722879927
 20
3.9249495315
 11
6.722879927
 21
3.9563547213
  0
LINE
  5
361
100
AcDbEntity
  8
0
100
AcDbLine
 62
3
  6
CONTINUOUS
 10
6.722879927
 20
4.119688433
 11
6.722879927
 21
4.1510936214
  0
LINE
  5
362
100
AcDbEntity
  8
0
100
AcDbLine
 62
3
  6
CONTINUOUS
 10
6.722879927
 20
4.3364376895
 11
6.722879927
 21
4.342023804
  0
LINE
  5
363
100
AcDbEntity
  8
0
100
AcDbLine
 62
3
  6
CONTINUOUS
 10
6.722879927
 20
4.3614549287
 11
6.722879927
 21
4.3676290547
  0
LINE
  5
364
100
AcDbEntity
  8
0
100
AcDbLine
 62
3
  6
CONTINUOUS
 10
6.722879927
 20
4.7333546351
 11
6.722879927
 21
4.738717305
  0
LINE
  5
365
100
AcDbEntity
  8
0
100
AcDbLine
 62
3
  6
CONTINUOUS
 10
6.722879927
 20
4.7573711848
 11
6.722879927
 21
4.7632983457
  0
LINE
  5
366
100
AcDbEntity
  8
0
100
AcDbLine
 62
3
  6
CONTINUOUS
 10
6.7287854388
 20
5.2180227553
 11
6.7287854388
 21
3.6432196057
  0
LINE
  5
367
100
AcDbEntity
  8
0
100
AcDbLine
 62
3
  6
CONTINUOUS
 10
6.7681555175
 20
5.1274715742
 11
6.7681555175
 21
5.1117235427
  0
LINE
  5
368
100
AcDbEntity
  8
0
100
AcDbLine
 62
3
  6
CONTINUOUS
 10
6.7681555175
 20
4.9306211805
 11
6.7681555175
 21
4.914873149
  0
LINE
  5
369
100
AcDbEntity
  8
0
100
AcDbLine
 62
3
  6
CONTINUOUS
 10
6.7681555175
 20
4.7337707868
 11
6.7681555175
 21
4.7180227553
  0
LINE
  5
36A
100
AcDbEntity
  8
0
100
AcDbLine
 62
3
  6
CONTINUOUS
 10
6.7681555175
 20
4.5369203931
 11
6.7681555175
 21
4.5211723616
  0
LINE
  5
36B
100
AcDbEntity
  8
0
100
AcDbLine
 62
3
  6
CONTINUOUS
 10
6.7681555175
 20
4.3400699994
 11
6.7681555175
 21
4.3243219679
  0
LINE
  5
36C
100
AcDbEntity
  8
0
100
AcDbLine
 62
3
  6
CONTINUOUS
 10
6.7681555175
 20
4.1432196057
 11
6.7681555175
 21
4.1274715742
  0
LINE
  5
36D
100
AcDbEntity
  8
0
100
AcDbLine
 62
3
  6
CONTINUOUS
 10
6.7681555175
 20
3.946369212
 11
6.7681555175
 21
3.9306211805
  0
LINE
  5
36E
100
AcDbEntity
  8
0
100
AcDbLine
 62
3
  6
CONTINUOUS
 10
6.7681555175
 20
3.7495188183
 11
6.7681555175
 21
3.7337707868
  0
LINE
  5
36F
100
AcDbEntity
  8
Y
100
AcDbLine
 62
2
  6
CONTINUOUS
 10
6.8143808584
 20
3.4530538245
 11
6.8143808584
 21
3.3850538245
  0
LINE
  5
370
100
AcDbEntity
  8
Y
100
AcDbLine
 62
2
  6
CONTINUOUS
 10
6.8143808584
 20
5.4050538245
 11
6.8143808584
 21
5.4730538245
  0
LINE
  5
371
100
AcDbEntity
  8
0
100
AcDbLine
 62
3
  6
CONTINUOUS
 10
6.8193366199
 20
5.1786526765
 11
6.8193366199
 21
5.1274715742
  0
LINE
  5
372
100
AcDbEntity
  8
0
100
AcDbLine
 62
3
  6
CONTINUOUS
 10
6.8193366199
 20
5.1117235427
 11
6.8193366199
 21
5.0605424403
  0
LINE
  5
373
100
AcDbEntity
  8
0
100
AcDbLine
 62
3
  6
CONTINUOUS
 10
6.8193366199
 20
4.9818022828
 11
6.8193366199
 21
4.9306211805
  0
LINE
  5
374
100
AcDbEntity
  8
0
100
AcDbLine
 62
3
  6
CONTINUOUS
 10
6.8193366199
 20
4.914873149
 11
6.8193366199
 21
4.8636920466
  0
LINE
  5
375
100
AcDbEntity
  8
0
100
AcDbLine
 62
3
  6
CONTINUOUS
 10
6.8193366199
 20
4.7849518891
 11
6.8193366199
 21
4.7337707868
  0
LINE
  5
376
100
AcDbEntity
  8
0
100
AcDbLine
 62
3
  6
CONTINUOUS
 10
6.8193366199
 20
4.7180227553
 11
6.8193366199
 21
4.6668416529
  0
LINE
  5
377
100
AcDbEntity
  8
0
100
AcDbLine
 62
3
  6
CONTINUOUS
 10
6.8193366199
 20
4.5881014954
 11
6.8193366199
 21
4.5369203931
  0
LINE
  5
378
100
AcDbEntity
  8
0
100
AcDbLine
 62
3
  6
CONTINUOUS
 10
6.8193366199
 20
4.5211723616
 11
6.8193366199
 21
4.4699912592
  0
LINE
  5
379
100
AcDbEntity
  8
0
100
AcDbLine
 62
3
  6
CONTINUOUS
 10
6.8193366199
 20
4.3912511017
 11
6.8193366199
 21
4.3400699994
  0
LINE
  5
37A
100
AcDbEntity
  8
0
100
AcDbLine
 62
3
  6
CONTINUOUS
 10
6.8193366199
 20
4.3243219679
 11
6.8193366199
 21
4.2731408655
  0
LINE
  5
37B
100
AcDbEntity
  8
0
100
AcDbLine
 62
3
  6
CONTINUOUS
 10
6.8193366199
 20
4.194400708
 11
6.8193366199
 21
4.1432196057
  0
LINE
  5
37C
100
AcDbEntity
  8
0
100
AcDbLine
 62
3
  6
CONTINUOUS
 10
6.8193366199
 20
4.1274715742
 11
6.8193366199
 21
4.0762904718
  0
LINE
  5
37D
100
AcDbEntity
  8
0
100
AcDbLine
 62
3
  6
CONTINUOUS
 10
6.8193366199
 20
3.9975503143
 11
6.8193366199
 21
3.946369212
  0
LINE
  5
37E
100
AcDbEntity
  8
0
100
AcDbLine
 62
3
  6
CONTINUOUS
 10
6.8193366199
 20
3.9306211805
 11
6.8193366199
 21
3.8794400781
  0
LINE
  5
37F
100
AcDbEntity
  8
0
100
AcDbLine
 62
3
  6
CONTINUOUS
 10
6.8193366199
 20
3.8006999206
 11
6.8193366199
 21
3.7495188183
  0
LINE
  5
380
100
AcDbEntity
  8
0
100
AcDbLine
 62
3
  6
CONTINUOUS
 10
6.8193366199
 20
3.7337707868
 11
6.8193366199
 21
3.6825896844
  0
LINE
  5
381
100
AcDbEntity
  8
0
100
AcDbLine
 62
3
  6
CONTINUOUS
 10
6.8350846514
 20
3.6825896844
 11
6.8350846514
 21
3.7337707868
  0
LINE
  5
382
100
AcDbEntity
  8
0
100
AcDbLine
 62
3
  6
CONTINUOUS
 10
6.8350846514
 20
3.7495188183
 11
6.8350846514
 21
3.8006999206
  0
LINE
  5
383
100
AcDbEntity
  8
0
100
AcDbLine
 62
3
  6
CONTINUOUS
 10
6.8350846514
 20
3.8794400781
 11
6.8350846514
 21
3.9306211805
  0
LINE
  5
384
100
AcDbEntity
  8
0
100
AcDbLine
 62
3
  6
CONTINUOUS
 10
6.8350846514
 20
3.946369212
 11
6.8350846514
 21
3.9975503143
  0
LINE
  5
385
100
AcDbEntity
  8
0
100
AcDbLine
 62
3
  6
CONTINUOUS
 10
6.8350846514
 20
4.0762904718
 11
6.8350846514
 21
4.1274715742
  0
LINE
  5
386
100
AcDbEntity
  8
0
100
AcDbLine
 62
3
  6
CONTINUOUS
 10
6.8350846514
 20
4.1432196057
 11
6.8350846514
 21
4.194400708
  0
LINE
  5
387
100
AcDbEntity
  8
0
100
AcDbLine
 62
3
  6
CONTINUOUS
 10
6.8350846514
 20
4.2731408655
 11
6.8350846514
 21
4.3243219679
  0
LINE
  5
388
100
AcDbEntity
  8
0
100
AcDbLine
 62
3
  6
CONTINUOUS
 10
6.8350846514
 20
4.3400699994
 11
6.8350846514
 21
4.3912511017
  0
LINE
  5
389
100
AcDbEntity
  8
0
100
AcDbLine
 62
3
  6
CONTINUOUS
 10
6.8350846514
 20
4.4699912592
 11
6.8350846514
 21
4.5211723616
  0
LINE
  5
38A
100
AcDbEntity
  8
0
100
AcDbLine
 62
3
  6
CONTINUOUS
 10
6.8350846514
 20
4.5369203931
 11
6.8350846514
 21
4.5881014954
  0
LINE
  5
38B
100
AcDbEntity
  8
0
100
AcDbLine
 62
3
  6
CONTINUOUS
 10
6.8350846514
 20
4.6668416529
 11
6.8350846514
 21
4.7180227553
  0
LINE
  5
38C
100
AcDbEntity
  8
0
100
AcDbLine
 62
3
  6
CONTINUOUS
 10
6.8350846514
 20
4.7337707868
 11
6.8350846514
 21
4.7849518891
  0
LINE
  5
38D
100
AcDbEntity
  8
0
100
AcDbLine
 62
3
  6
CONTINUOUS
 10
6.8350846514
 20
4.8636920466
 11
6.8350846514
 21
4.914873149
  0
LINE
  5
38E
100
AcDbEntity
  8
0
100
AcDbLine
 62
3
  6
CONTINUOUS
 10
6.8350846514
 20
4.9306211805
 11
6.8350846514
 21
4.9818022828
  0
LINE
  5
38F
100
AcDbEntity
  8
0
100
AcDbLine
 62
3
  6
CONTINUOUS
 10
6.8350846514
 20
5.0605424403
 11
6.8350846514
 21
5.1117235427
  0
LINE
  5
390
100
AcDbEntity
  8
0
100
AcDbLine
 62
3
  6
CONTINUOUS
 10
6.8350846514
 20
5.1274715742
 11
6.8350846514
 21
5.1786526765
  0
LINE
  5
391
100
AcDbEntity
  8
Y
100
AcDbLine
 62
2
  6
CONTINUOUS
 10
6.8743808584
 20
5.4730538245
 11
6.8743808584
 21
5.4050538245
  0
LINE
  5
392
100
AcDbEntity
  8
Y
100
AcDbLine
 62
2
  6
CONTINUOUS
 10
6.8743808584
 20
3.3850538245
 11
6.8743808584
 21
3.4530538245
  0
LINE
  5
393
100
AcDbEntity
  8
0
100
AcDbLine
 62
3
  6
CONTINUOUS
 10
6.8862657538
 20
3.7337707868
 11
6.8862657538
 21
3.7495188183
  0
LINE
  5
394
100
AcDbEntity
  8
0
100
AcDbLine
 62
3
  6
CONTINUOUS
 10
6.8862657538
 20
3.9306211805
 11
6.8862657538
 21
3.946369212
  0
LINE
  5
395
100
AcDbEntity
  8
0
100
AcDbLine
 62
3
  6
CONTINUOUS
 10
6.8862657538
 20
4.1274715742
 11
6.8862657538
 21
4.1432196057
  0
LINE
  5
396
100
AcDbEntity
  8
0
100
AcDbLine
 62
3
  6
CONTINUOUS
 10
6.8862657538
 20
4.3243219679
 11
6.8862657538
 21
4.3400699994
  0
LINE
  5
397
100
AcDbEntity
  8
0
100
AcDbLine
 62
3
  6
CONTINUOUS
 10
6.8862657538
 20
4.5211723616
 11
6.8862657538
 21
4.5369203931
  0
LINE
  5
398
100
AcDbEntity
  8
0
100
AcDbLine
 62
3
  6
CONTINUOUS
 10
6.8862657538
 20
4.7180227553
 11
6.8862657538
 21
4.7337707868
  0
LINE
  5
399
100
AcDbEntity
  8
0
100
AcDbLine
 62
3
  6
CONTINUOUS
 10
6.8862657538
 20
4.914873149
 11
6.8862657538
 21
4.9306211805
  0
LINE
  5
39A
100
AcDbEntity
  8
0
100
AcDbLine
 62
3
  6
CONTINUOUS
 10
6.8862657538
 20
5.1117235427
 11
6.8862657538
 21
5.1274715742
  0
LINE
  5
39B
100
AcDbEntity
  8
0
100
AcDbLine
 62
3
  6
CONTINUOUS
 10
6.9256358325
 20
5.2180227553
 11
6.9256358325
 21
3.6432196057
  0
LINE
  5
39C
100
AcDbEntity
  8
0
100
AcDbLine
 62
3
  6
CONTINUOUS
 10
6.9846909506
 20
5.2180227553
 11
6.9846909506
 21
3.6432196057
  0
LINE
  5
39D
100
AcDbEntity
  8
Y
100
AcDbLine
 62
2
  6
CONTINUOUS
 10
7.3349485279
 20
5.2454161541
 11
7.3077680043
 21
5.154587411
  0
LINE
  5
39E
100
AcDbEntity
  8
Y
100
AcDbLine
 62
2
  6
CONTINUOUS
 10
7.3349485279
 20
5.2454161541
 11
7.3355014516
 21
5.2471894109
  0
LINE
  5
39F
100
AcDbEntity
  8
Y
100
AcDbLine
 62
2
  6
CONTINUOUS
 10
7.4919660582
 20
4.2411199662
 11
7.4924991207
 21
4.2415538245
  0
LINE
  5
3A0
100
AcDbEntity
  8
Y
100
AcDbLine
 62
2
  6
CONTINUOUS
 10
6.8303808584
 20
5.4890538245
 11
6.8583808584
 21
5.4890538245
  0
LINE
  5
3A1
100
AcDbEntity
  8
Y
100
AcDbLine
 62
2
  6
CONTINUOUS
 10
7.3791407906
 20
4.6786148504
 11
7.3784278883
 21
4.67901754
  0
LINE
  5
3A2
100
AcDbEntity
  8
Y
100
AcDbLine
 62
2
  6
CONTINUOUS
 10
7.4919660582
 20
4.6169876829
 11
7.4924991207
 21
4.6165538245
  0
LINE
  5
3A3
100
AcDbEntity
  8
Y
100
AcDbLine
 62
2
  6
CONTINUOUS
 10
7.4915213608
 20
4.1790901091
 11
7.4910021388
 21
4.1795404391
  0
LINE
  5
3A4
100
AcDbEntity
  8
Y
100
AcDbLine
 62
2
  6
CONTINUOUS
 10
7.3891837192
 20
4.2415538245
 11
7.3897208758
 21
4.2409358833
  0
LINE
  5
3A5
100
AcDbEntity
  8
Y
100
AcDbLine
 62
2
  6
CONTINUOUS
 10
7.3349485279
 20
3.612691495
 11
7.3077680043
 21
3.7035202381
  0
LINE
  5
3A6
100
AcDbEntity
  8
Y
100
AcDbLine
 62
2
  6
CONTINUOUS
 10
7.3897208758
 20
4.6171717658
 11
7.3894761573
 21
4.6260230108
  0
LINE
  5
3A7
100
AcDbEntity
  8
Y
100
AcDbLine
 62
2
  6
CONTINUOUS
 10
7.2146066182
 20
5.2701038245
 11
7.2146066182
 21
5.1895586444
  0
LINE
  5
3A8
100
AcDbEntity
  8
0
100
AcDbLine
 62
2
  6
CONTINUOUS
 10
7.2146066182
 20
3.6716837164
 11
7.2146066182
 21
3.5880038245
  0
LINE
  5
3A9
100
AcDbEntity
  8
Y
100
AcDbLine
 62
2
  6
CONTINUOUS
 10
7.2173066182
 20
5.2728038245
 11
7.2173066182
 21
5.1819748383
  0
LINE
  5
3AA
100
AcDbEntity
  8
0
100
AcDbLine
 62
2
  6
CONTINUOUS
 10
7.2173066182
 20
3.6792675225
 11
7.2173066182
 21
3.5853038245
  0
LINE
  5
3AB
100
AcDbEntity
  8
Y
100
AcDbLine
 62
2
  6
CONTINUOUS
 10
7.3284398401
 20
4.2415538245
 11
7.3284398401
 21
4.6165538245
  0
LINE
  5
3AC
100
AcDbEntity
  8
Y
100
AcDbLine
 62
2
  6
CONTINUOUS
 10
7.3891837192
 20
4.2415538245
 11
7.3891837192
 21
4.6165538245
  0
LINE
  5
3AD
100
AcDbEntity
  8
Y
100
AcDbLine
 62
2
  6
CONTINUOUS
 10
7.3897208758
 20
4.2409358833
 11
7.3894761573
 21
4.2320846383
  0
LINE
  5
3AE
100
AcDbEntity
  8
Y
100
AcDbLine
 62
2
  6
CONTINUOUS
 10
7.4910021388
 20
4.67856721
 11
7.490064373
 21
4.6698448927
  0
LINE
  5
3AF
100
AcDbEntity
  8
Y
100
AcDbLine
 62
2
  6
CONTINUOUS
 10
7.3894761573
 20
4.2320846383
 11
7.3884465994
 21
4.2228332541
  0
LINE
  5
3B0
100
AcDbEntity
  8
Y
100
AcDbLine
 62
2
  6
CONTINUOUS
 10
7.3884465994
 20
4.2228332541
 11
7.3864469792
 21
4.2098671742
  0
LINE
  5
3B1
100
AcDbEntity
  8
Y
100
AcDbLine
 62
2
  6
CONTINUOUS
 10
7.3864469792
 20
4.2098671742
 11
7.3839946784
 21
4.1969790428
  0
LINE
  5
3B2
100
AcDbEntity
  8
Y
100
AcDbLine
 62
2
  6
CONTINUOUS
 10
7.3839946784
 20
4.1969790428
 11
7.3818706363
 21
4.1879161215
  0
LINE
  5
3B3
100
AcDbEntity
  8
Y
100
AcDbLine
 62
2
  6
CONTINUOUS
 10
7.3818706363
 20
4.1879161215
 11
7.3791407906
 21
4.1794927986
  0
LINE
  5
3B4
100
AcDbEntity
  8
Y
100
AcDbLine
 62
2
  6
CONTINUOUS
 10
7.3354873101
 20
3.6107174814
 11
7.3362099135
 21
3.6121818621
  0
LINE
  5
3B5
100
AcDbEntity
  8
B
100
AcDbLine
 62
7
  6
CENTER
 10
5.7286771543
 20
6.1297767823
 11
5.8059512204
 21
6.1090712587
  0
LINE
  5
3B6
100
AcDbEntity
  8
Y
100
AcDbLine
 62
2
  6
CONTINUOUS
 10
7.3818706363
 20
4.6701915276
 11
7.3791407906
 21
4.6786148504
  0
LINE
  5
3B7
100
AcDbEntity
  8
Y
100
AcDbLine
 62
2
  6
CONTINUOUS
 10
7.3349485279
 20
3.612691495
 11
7.3354873101
 21
3.6107174814
  0
LINE
  5
3B8
100
AcDbEntity
  8
Y
100
AcDbLine
 62
2
  6
CONTINUOUS
 10
7.3839946784
 20
4.6611286063
 11
7.3818706363
 21
4.6701915276
  0
LINE
  5
3B9
100
AcDbEntity
  8
Y
100
AcDbLine
 62
2
  6
CONTINUOUS
 10
7.3864469792
 20
4.6482404749
 11
7.3839946784
 21
4.6611286063
  0
LINE
  5
3BA
100
AcDbEntity
  8
Y
100
AcDbLine
 62
2
  6
CONTINUOUS
 10
7.3884465994
 20
4.6352743949
 11
7.3864469792
 21
4.6482404749
  0
LINE
  5
3BB
100
AcDbEntity
  8
Y
100
AcDbLine
 62
2
  6
CONTINUOUS
 10
7.3894761573
 20
4.6260230108
 11
7.3884465994
 21
4.6352743949
  0
LINE
  5
3BC
100
AcDbEntity
  8
Y
100
AcDbLine
 62
2
  6
CONTINUOUS
 10
7.4910021388
 20
4.1795404391
 11
7.490064373
 21
4.1882627564
  0
LINE
  5
3BD
100
AcDbEntity
  8
Y
100
AcDbLine
 62
2
  6
CONTINUOUS
 10
7.490143624
 20
4.6348236552
 11
7.4907557536
 21
4.6256763759
  0
LINE
  5
3BE
100
AcDbEntity
  8
Y
100
AcDbLine
 62
2
  6
CONTINUOUS
 10
7.490064373
 20
4.1882627564
 11
7.4897388424
 21
4.1974247131
  0
LINE
  5
3BF
100
AcDbEntity
  8
Y
100
AcDbLine
 62
2
  6
CONTINUOUS
 10
7.4897472481
 20
4.6477502591
 11
7.490143624
 21
4.6348236552
  0
LINE
  5
3C0
100
AcDbEntity
  8
Y
100
AcDbLine
 62
2
  6
CONTINUOUS
 10
7.4897388424
 20
4.660682936
 11
7.4897472481
 21
4.6477502591
  0
LINE
  5
3C1
100
AcDbEntity
  8
Y
100
AcDbLine
 62
2
  6
CONTINUOUS
 10
7.4897388424
 20
4.1974247131
 11
7.4897472481
 21
4.21035739
  0
LINE
  5
3C2
100
AcDbEntity
  8
Y
100
AcDbLine
 62
2
  6
CONTINUOUS
 10
7.4897472481
 20
4.21035739
 11
7.490143624
 21
4.2232839939
  0
LINE
  5
3C3
100
AcDbEntity
  8
Y
100
AcDbLine
 62
2
  6
CONTINUOUS
 10
7.490064373
 20
4.6698448927
 11
7.4897388424
 21
4.660682936
  0
LINE
  5
3C4
100
AcDbEntity
  8
Y
100
AcDbLine
 62
2
  6
CONTINUOUS
 10
7.490143624
 20
4.2232839939
 11
7.4907557536
 21
4.2324312732
  0
LINE
  5
3C5
100
AcDbEntity
  8
Y
100
AcDbLine
 62
2
  6
CONTINUOUS
 10
7.4907557536
 20
4.2324312732
 11
7.4919660582
 21
4.2411199662
  0
LINE
  5
3C6
100
AcDbEntity
  8
Y
100
AcDbLine
 62
2
  6
CONTINUOUS
 10
6.6912288411
 20
2.6279417732
 11
7.1154929098
 21
3.0522058419
  0
LINE
  5
3C7
100
AcDbEntity
  8
B
100
AcDbLine
 62
7
  6
CENTER
 10
4.8228104965
 20
6.1090712587
 11
4.9000845626
 21
6.1297767823
  0
LINE
  5
3C8
100
AcDbEntity
  8
Y
100
AcDbLine
 62
2
  6
CONTINUOUS
 10
7.3355014516
 20
5.2471894109
 11
7.3362099135
 21
5.2459257869
  0
LINE
  5
3C9
100
AcDbEntity
  8
Y
100
AcDbLine
 62
2
  6
CONTINUOUS
 10
7.4907557536
 20
4.6256763759
 11
7.4919660582
 21
4.6169876829
  0
LINE
  5
3CA
100
AcDbEntity
  8
B
100
AcDbLine
 62
7
  6
CENTER
 10
4.6610485933
 20
6.7127749002
 11
4.7383226594
 21
6.7334804238
  0
LINE
  5
3CB
100
AcDbEntity
  8
B
100
AcDbLine
 62
7
  6
CENTER
 10
5.8904390575
 20
6.7334804238
 11
5.9677131236
 21
6.7127749002
  0
ARC
  5
3CC
100
AcDbEntity
  8
0
100
AcDbCircle
 62
3
  6
CONTINUOUS
 10
4.860769732
 20
4.3472689596
 40
2.5
100
AcDbArc
 50
6.1835512735
 51
24.414877695
  0
ARC
  5
3CD
100
AcDbEntity
  8
Y
100
AcDbCircle
 62
2
  6
CONTINUOUS
 10
5.7673141874
 20
2.7386836285
 40
0.1775
100
AcDbArc
 50
285.0
 51
105.0000154649
  0
ARC
  5
3CE
100
AcDbEntity
  8
Y
100
AcDbCircle
 62
2
  6
CONTINUOUS
 10
4.8614475295
 20
2.7386836285
 40
0.1775
100
AcDbArc
 50
74.9999876019
 51
255.0
  0
ARC
  5
3CF
100
AcDbEntity
  8
Y
100
AcDbCircle
 62
2
  6
CONTINUOUS
 10
4.6996856263
 20
2.1349799871
 40
0.1775
100
AcDbArc
 50
74.9999876019
 51
255.0
  0
ARC
  5
3D0
100
AcDbEntity
  8
Y
100
AcDbCircle
 62
2
  6
CONTINUOUS
 10
4.8614475295
 20
2.7386836285
 40
0.0925
100
AcDbArc
 50
75.0000182846
 51
255.0
  0
ARC
  5
3D1
100
AcDbEntity
  8
Y
100
AcDbCircle
 62
2
  6
CONTINUOUS
 10
4.6996856263
 20
2.1349799871
 40
0.0925
100
AcDbArc
 50
75.0000182846
 51
255.0
  0
ARC
  5
3D2
100
AcDbEntity
  8
Y
100
AcDbCircle
 62
2
  6
CONTINUOUS
 10
5.7673141874
 20
2.7386836285
 40
0.0925
100
AcDbArc
 50
285.0
 51
105.0000224714
  0
ARC
  5
3D3
100
AcDbEntity
  8
0
100
AcDbCircle
 62
3
  6
CONTINUOUS
 10
4.860769732
 20
4.5139734013
 40
2.5
100
AcDbArc
 50
335.585122305
 51
353.7441810386
  0
ARC
  5
3D4
100
AcDbEntity
  8
Y
100
AcDbCircle
 62
2
  6
CONTINUOUS
 10
4.8614475295
 20
6.1194240205
 40
0.1775
100
AcDbArc
 50
105.0
 51
285.0000123981
  0
ARC
  5
3D5
100
AcDbEntity
  8
Y
100
AcDbCircle
 62
2
  6
CONTINUOUS
 10
4.6996856263
 20
6.723127662
 40
0.1775
100
AcDbArc
 50
105.0
 51
285.0000123981
  0
CIRCLE
  5
3D6
100
AcDbEntity
  8
Y
100
AcDbCircle
 62
2
  6
CONTINUOUS
 10
4.2782677232
 20
6.0917631709
 40
0.12
  0
CIRCLE
  5
3D7
100
AcDbEntity
  8
Y
100
AcDbCircle
 62
2
  6
CONTINUOUS
 10
4.2782677232
 20
6.0917631709
 40
0.107
  0
ARC
  5
3D8
100
AcDbEntity
  8
Y
100
AcDbCircle
 62
2
  6
CONTINUOUS
 10
4.8614475295
 20
6.1194240205
 40
0.0925
100
AcDbArc
 50
105.0
 51
284.9999817154
  0
ARC
  5
3D9
100
AcDbEntity
  8
Y
100
AcDbCircle
 62
2
  6
CONTINUOUS
 10
4.6996856263
 20
6.723127662
 40
0.0925
100
AcDbArc
 50
105.0
 51
284.9999817154
  0
CIRCLE
  5
3DA
100
AcDbEntity
  8
Y
100
AcDbCircle
 62
2
  6
CONTINUOUS
 10
4.2782677232
 20
6.0917631709
 40
0.06
  0
CIRCLE
  5
3DB
100
AcDbEntity
  8
Y
100
AcDbCircle
 62
2
  6
CONTINUOUS
 10
5.3143808584
 20
4.4290538245
 40
2.633
  0
ARC
  5
3DC
100
AcDbEntity
  8
Y
100
AcDbCircle
 62
2
  6
CONTINUOUS
 10
5.3143808584
 20
4.4290538245
 40
2.613
100
AcDbArc
 50
175.5
 51
195.0
  0
ARC
  5
3DD
100
AcDbEntity
  8
Y
100
AcDbCircle
 62
2
  6
CONTINUOUS
 10
5.3143808584
 20
4.4290538245
 40
2.5873346242
100
AcDbArc
 50
128.3416097046
 51
141.6583902954
  0
ARC
  5
3DE
100
AcDbEntity
  8
Y
100
AcDbCircle
 62
2
  6
CONTINUOUS
 10
5.3143808584
 20
4.4290538245
 40
2.5873346242
100
AcDbArc
 50
308.3416097046
 51
321.6583902954
  0
ARC
  5
3DF
100
AcDbEntity
  8
Y
100
AcDbCircle
 62
2
  6
CONTINUOUS
 10
5.3143808584
 20
4.4290538245
 40
2.5581724641
100
AcDbArc
 50
175.5
 51
195.0
  0
ARC
  5
3E0
100
AcDbEntity
  8
Y
100
AcDbCircle
 62
2
  6
CONTINUOUS
 10
5.3143808584
 20
4.4290538245
 40
2.5581724641
100
AcDbArc
 50
355.5
 51
15.0
  0
ARC
  5
3E1
100
AcDbEntity
  8
Y
100
AcDbCircle
 62
2
  6
CONTINUOUS
 10
5.3143808584
 20
4.4290538245
 40
2.5558421321
100
AcDbArc
 50
175.5
 51
195.0
  0
ARC
  5
3E2
100
AcDbEntity
  8
Y
100
AcDbCircle
 62
2
  6
CONTINUOUS
 10
5.3143808584
 20
4.4290538245
 40
2.5558421321
100
AcDbArc
 50
355.5
 51
15.0
  0
ARC
  5
3E3
100
AcDbEntity
  8
Y
100
AcDbCircle
 62
2
  6
CONTINUOUS
 10
5.3143808584
 20
4.4290538245
 40
2.5525
100
AcDbArc
 50
75.0
 51
125.0
  0
ARC
  5
3E4
100
AcDbEntity
  8
Y
100
AcDbCircle
 62
2
  6
CONTINUOUS
 10
5.3143808584
 20
4.4290538245
 40
2.5525
100
AcDbArc
 50
235.5
 51
285.0
  0
ARC
  5
3E5
100
AcDbEntity
  8
Y
100
AcDbCircle
 62
2
  6
CONTINUOUS
 10
5.3143808584
 20
4.4290538245
 40
2.5502
100
AcDbArc
 50
105.6630904547
 51
125.0
  0
ARC
  5
3E6
100
AcDbEntity
  8
Y
100
AcDbCircle
 62
2
  6
CONTINUOUS
 10
5.3143808584
 20
4.4290538245
 40
2.5502
100
AcDbArc
 50
235.5
 51
254.3369095453
  0
ARC
  5
3E7
100
AcDbEntity
  8
Y
100
AcDbCircle
 62
2
  6
CONTINUOUS
 10
5.3143808584
 20
4.4290538245
 40
2.533
100
AcDbArc
 50
195.0
 51
235.5
  0
ARC
  5
3E8
100
AcDbEntity
  8
Y
100
AcDbCircle
 62
2
  6
CONTINUOUS
 10
5.3143808584
 20
4.4290538245
 40
2.533
100
AcDbArc
 50
141.8018850076
 51
175.5
  0
ARC
  5
3E9
100
AcDbEntity
  8
Y
100
AcDbCircle
 62
2
  6
CONTINUOUS
 10
5.3143808584
 20
4.4290538245
 40
2.533
100
AcDbArc
 50
125.0
 51
128.1981149924
  0
ARC
  5
3EA
100
AcDbEntity
  8
Y
100
AcDbCircle
 62
2
  6
CONTINUOUS
 10
5.3143808584
 20
4.4290538245
 40
2.533
100
AcDbArc
 50
286.889541694
 51
308.1981149924
  0
ARC
  5
3EB
100
AcDbEntity
  8
Y
100
AcDbCircle
 62
2
  6
CONTINUOUS
 10
5.3143808584
 20
4.4290538245
 40
2.533
100
AcDbArc
 50
321.8018850076
 51
355.5
  0
ARC
  5
3EC
100
AcDbEntity
  8
Y
100
AcDbCircle
 62
2
  6
CONTINUOUS
 10
5.3143808584
 20
4.4290538245
 40
2.533
100
AcDbArc
 50
15.0
 51
73.110458306
  0
ARC
  5
3ED
100
AcDbEntity
  8
Y
100
AcDbCircle
 62
2
  6
CONTINUOUS
 10
5.3143808584
 20
4.4290538245
 40
2.514
100
AcDbArc
 50
308.1464628934
 51
321.8535371066
  0
ARC
  5
3EE
100
AcDbEntity
  8
Y
100
AcDbCircle
 62
2
  6
CONTINUOUS
 10
5.3143808584
 20
4.4290538245
 40
2.514
100
AcDbArc
 50
128.1464628934
 51
141.8535371066
  0
ARC
  5
3EF
100
AcDbEntity
  8
Y
100
AcDbCircle
 62
2
  6
CONTINUOUS
 10
5.3143808584
 20
4.4290538245
 40
2.4675
100
AcDbArc
 50
75.0
 51
105.0
  0
ARC
  5
3F0
100
AcDbEntity
  8
Y
100
AcDbCircle
 62
2
  6
CONTINUOUS
 10
5.3143808584
 20
4.4290538245
 40
2.4675
100
AcDbArc
 50
255.0
 51
285.0
  0
ARC
  5
3F1
100
AcDbEntity
  8
Y
100
AcDbCircle
 62
2
  6
CONTINUOUS
 10
5.3143808584
 20
4.4290538245
 40
2.4455236519
100
AcDbArc
 50
127.9535992189
 51
142.0464007811
  0
ARC
  5
3F2
100
AcDbEntity
  8
Y
100
AcDbCircle
 62
2
  6
CONTINUOUS
 10
5.3143808584
 20
4.4290538245
 40
2.4455236519
100
AcDbArc
 50
307.9535992189
 51
322.0464007811
  0
ARC
  5
3F3
100
AcDbEntity
  8
Y
100
AcDbCircle
 62
2
  6
CONTINUOUS
 10
5.3143808584
 20
4.4290538245
 40
2.3877931435
100
AcDbArc
 50
142.2176600965
 51
250.7395061162
  0
ARC
  5
3F4
100
AcDbEntity
  8
Y
100
AcDbCircle
 62
2
  6
CONTINUOUS
 10
5.3143808584
 20
4.4290538245
 40
2.3877931435
100
AcDbArc
 50
109.2604938838
 51
127.7823399035
  0
ARC
  5
3F5
100
AcDbEntity
  8
Y
100
AcDbCircle
 62
2
  6
CONTINUOUS
 10
5.3143808584
 20
4.4290538245
 40
2.3877931435
100
AcDbArc
 50
289.2604938838
 51
307.7823399035
  0
ARC
  5
3F6
100
AcDbEntity
  8
Y
100
AcDbCircle
 62
2
  6
CONTINUOUS
 10
5.3143808584
 20
4.4290538245
 40
2.3877931435
100
AcDbArc
 50
322.2176600965
 51
70.7395061162
  0
ARC
  5
3F7
100
AcDbEntity
  8
B
100
AcDbCircle
 62
7
  6
CENTER
 10
5.3143808584
 20
4.4290538245
 40
2.375
100
AcDbArc
 50
256.8776428999
 51
282.9515174144
  0
ARC
  5
3F8
100
AcDbEntity
  8
B
100
AcDbCircle
 62
7
  6
CENTER
 10
5.3143808584
 20
4.4290538245
 40
2.375
100
AcDbArc
 50
286.749483976
 51
290.2641591007
  0
ARC
  5
3F9
100
AcDbEntity
  8
B
100
AcDbCircle
 62
7
  6
CENTER
 10
5.3143808584
 20
4.4290538245
 40
2.375
100
AcDbArc
 50
76.9904044621
 51
103.0447905988
  0
ARC
  5
3FA
100
AcDbEntity
  8
B
100
AcDbCircle
 62
7
  6
CENTER
 10
5.3143808584
 20
4.4290538245
 40
2.375
100
AcDbArc
 50
106.7306571988
 51
110.4666104299
  0
ARC
  5
3FB
100
AcDbEntity
  8
B
100
AcDbCircle
 62
7
  6
CENTER
 10
5.3143808584
 20
4.4290538245
 40
2.375
100
AcDbArc
 50
69.1764076837
 51
73.2300293215
  0
ARC
  5
3FC
100
AcDbEntity
  8
B
100
AcDbCircle
 62
5
  6
CENTER
 10
5.3143808584
 20
4.4290538245
 40
2.375
100
AcDbArc
 50
249.0787377088
 51
253.195618796
  0
ARC
  5
3FD
100
AcDbEntity
  8
Y
100
AcDbCircle
 62
2
  6
CONTINUOUS
 10
5.3143808584
 20
4.4290538245
 40
2.2825
100
AcDbArc
 50
74.9999990893
 51
105.000000741
  0
ARC
  5
3FE
100
AcDbEntity
  8
Y
100
AcDbCircle
 62
2
  6
CONTINUOUS
 10
5.3143808584
 20
4.4290538245
 40
2.2825
100
AcDbArc
 50
254.999999259
 51
285.0000009107
  0
ARC
  5
3FF
100
AcDbEntity
  8
Y
100
AcDbCircle
 62
2
  6
CONTINUOUS
 10
5.3143808584
 20
4.4290538245
 40
2.207632385
100
AcDbArc
 50
353.8718161092
 51
6.1281838908
  0
ARC
  5
400
100
AcDbEntity
  8
Y
100
AcDbCircle
 62
2
  6
CONTINUOUS
 10
5.3143808584
 20
4.4290538245
 40
2.1975
100
AcDbArc
 50
74.9999987508
 51
105.0000010014
  0
ARC
  5
401
100
AcDbEntity
  8
Y
100
AcDbCircle
 62
2
  6
CONTINUOUS
 10
5.3143808584
 20
4.4290538245
 40
2.1975
100
AcDbArc
 50
254.9999989986
 51
285.0000012492
  0
ARC
  5
402
100
AcDbEntity
  8
Y
100
AcDbCircle
 62
2
  6
CONTINUOUS
 10
5.3143808584
 20
4.4290538245
 40
2.1914430465
100
AcDbArc
 50
6.5496134783
 51
22.0
  0
ARC
  5
403
100
AcDbEntity
  8
Y
100
AcDbCircle
 62
2
  6
CONTINUOUS
 10
5.3143808584
 20
4.4290538245
 40
2.1914430465
100
AcDbArc
 50
338.0
 51
353.4503865217
  0
ARC
  5
404
100
AcDbEntity
  8
Y
100
AcDbCircle
 62
2
  6
CONTINUOUS
 10
5.3143808584
 20
4.4290538245
 40
2.1861736926
100
AcDbArc
 50
355.0799092072
 51
4.9200907928
  0
ARC
  5
405
100
AcDbEntity
  8
Y
100
AcDbCircle
 62
2
  6
CONTINUOUS
 10
5.3143808584
 20
4.4290538245
 40
2.1806128796
100
AcDbArc
 50
338.0
 51
22.0
  0
ARC
  5
406
100
AcDbEntity
  8
Y
100
AcDbCircle
 62
2
  6
CONTINUOUS
 10
5.3143808584
 20
4.4290538245
 40
2.1213182925
100
AcDbArc
 50
340.0
 51
20.0
  0
ARC
  5
407
100
AcDbEntity
  8
Y
100
AcDbCircle
 62
2
  6
CONTINUOUS
 10
5.3143808584
 20
4.4290538245
 40
2.0913182925
100
AcDbArc
 50
338.0
 51
22.0
  0
ARC
  5
408
100
AcDbEntity
  8
Y
100
AcDbCircle
 62
2
  6
CONTINUOUS
 10
5.3143808584
 20
4.4290538245
 40
2.083257824
100
AcDbArc
 50
354.8362052417
 51
5.1637947583
  0
ARC
  5
409
100
AcDbEntity
  8
Y
100
AcDbCircle
 62
2
  6
CONTINUOUS
 10
5.3143808584
 20
4.4290538245
 40
2.0791277018
100
AcDbArc
 50
6.9051044506
 51
22.0006648621
  0
ARC
  5
40A
100
AcDbEntity
  8
Y
100
AcDbCircle
 62
2
  6
CONTINUOUS
 10
5.3143808584
 20
4.4290538245
 40
2.0791277018
100
AcDbArc
 50
337.9993351379
 51
353.0948955494
  0
ARC
  5
40B
100
AcDbEntity
  8
Y
100
AcDbCircle
 62
2
  6
CONTINUOUS
 10
5.3143808584
 20
4.4290538245
 40
1.9275
100
AcDbArc
 50
75.0
 51
105.0
  0
ARC
  5
40C
100
AcDbEntity
  8
Y
100
AcDbCircle
 62
2
  6
CONTINUOUS
 10
5.3143808584
 20
4.4290538245
 40
1.9275
100
AcDbArc
 50
255.0
 51
285.0
  0
ARC
  5
40D
100
AcDbEntity
  8
Y
100
AcDbCircle
 62
2
  6
CONTINUOUS
 10
5.3143808584
 20
4.4290538245
 40
1.8425
100
AcDbArc
 50
75.0
 51
105.0
  0
ARC
  5
40E
100
AcDbEntity
  8
Y
100
AcDbCircle
 62
2
  6
CONTINUOUS
 10
5.3143808584
 20
4.4290538245
 40
1.8425
100
AcDbArc
 50
255.0
 51
285.0
  0
ARC
  5
40F
100
AcDbEntity
  8
B
100
AcDbCircle
 62
7
  6
CENTER
 10
5.3143808584
 20
4.4290538245
 40
1.75
100
AcDbArc
 50
257.7596783494
 51
282.037534114
  0
ARC
  5
410
100
AcDbEntity
  8
B
100
AcDbCircle
 62
7
  6
CENTER
 10
5.3143808584
 20
4.4290538245
 40
1.75
100
AcDbArc
 50
287.352593254
 51
292.1480892207
  0
ARC
  5
411
100
AcDbEntity
  8
B
100
AcDbCircle
 62
7
  6
CENTER
 10
5.3143808584
 20
4.4290538245
 40
1.75
100
AcDbArc
 50
107.5589530253
 51
112.1438420221
  0
ARC
  5
412
100
AcDbEntity
  8
B
100
AcDbCircle
 62
7
  6
CENTER
 10
5.3143808584
 20
4.4290538245
 40
1.75
100
AcDbArc
 50
77.4925441604
 51
102.440003218
  0
ARC
  5
413
100
AcDbEntity
  8
B
100
AcDbCircle
 62
7
  6
CENTER
 10
5.3143808584
 20
4.4290538245
 40
1.75
100
AcDbArc
 50
67.5348823607
 51
72.7773714176
  0
ARC
  5
414
100
AcDbEntity
  8
B
100
AcDbCircle
 62
7
  6
CENTER
 10
5.3143808584
 20
4.4290538245
 40
1.75
100
AcDbArc
 50
247.1872643117
 51
252.5707206415
  0
ARC
  5
415
100
AcDbEntity
  8
Y
100
AcDbCircle
 62
2
  6
CONTINUOUS
 10
5.3143808584
 20
4.4290538245
 40
1.6575
100
AcDbArc
 50
75.0
 51
105.0
  0
ARC
  5
416
100
AcDbEntity
  8
Y
100
AcDbCircle
 62
2
  6
CONTINUOUS
 10
5.3143808584
 20
4.4290538245
 40
1.6575
100
AcDbArc
 50
255.0
 51
285.0
  0
ARC
  5
417
100
AcDbEntity
  8
Y
100
AcDbCircle
 62
2
  6
CONTINUOUS
 10
5.3143808584
 20
4.4290538245
 40
1.5725
100
AcDbArc
 50
75.0
 51
105.0
  0
ARC
  5
418
100
AcDbEntity
  8
Y
100
AcDbCircle
 62
2
  6
CONTINUOUS
 10
5.3143808584
 20
4.4290538245
 40
1.5725
100
AcDbArc
 50
255.0
 51
285.0
  0
CIRCLE
  5
419
100
AcDbEntity
  8
Y
100
AcDbCircle
 62
2
  6
CONTINUOUS
 10
5.3143808584
 20
4.4290538245
 40
1.114
  0
CIRCLE
  5
41A
100
AcDbEntity
  8
Y
100
AcDbCircle
 62
2
  6
CONTINUOUS
 10
5.3143808584
 20
4.4290538245
 40
0.5
  0
ARC
  5
41B
100
AcDbEntity
  8
Y
100
AcDbCircle
 62
2
  6
CONTINUOUS
 10
5.7673141874
 20
6.1194240205
 40
0.1775
100
AcDbArc
 50
254.9999845351
 51
75.0
  0
ARC
  5
41C
100
AcDbEntity
  8
Y
100
AcDbCircle
 62
2
  6
CONTINUOUS
 10
5.7673141874
 20
6.1194240205
 40
0.0925
100
AcDbArc
 50
254.9999775286
 51
75.0
  0
ARC
  5
41D
100
AcDbEntity
  8
Y
100
AcDbCircle
 62
2
  6
CONTINUOUS
 10
5.9290760906
 20
2.1349799871
 40
0.1775
100
AcDbArc
 50
285.0
 51
105.0000154649
  0
CIRCLE
  5
41E
100
AcDbEntity
  8
Y
100
AcDbCircle
 62
2
  6
CONTINUOUS
 10
6.1743808584
 20
2.8591812182
 40
0.12
  0
CIRCLE
  5
41F
100
AcDbEntity
  8
Y
100
AcDbCircle
 62
2
  6
CONTINUOUS
 10
6.1743808584
 20
2.8591812182
 40
0.107
  0
ARC
  5
420
100
AcDbEntity
  8
Y
100
AcDbCircle
 62
2
  6
CONTINUOUS
 10
5.9290760906
 20
2.1349799871
 40
0.0925
100
AcDbArc
 50
285.0
 51
105.0000224714
  0
CIRCLE
  5
421
100
AcDbEntity
  8
0
100
AcDbCircle
 62
3
  6
CONTINUOUS
 10
6.8272106357
 20
4.3321959836
 40
0.0688976378
  0
CIRCLE
  5
422
100
AcDbEntity
  8
0
100
AcDbCircle
 62
3
  6
CONTINUOUS
 10
6.8272106357
 20
4.1353455899
 40
0.0688976378
  0
CIRCLE
  5
423
100
AcDbEntity
  8
0
100
AcDbCircle
 62
3
  6
CONTINUOUS
 10
6.8272106357
 20
3.9384951962
 40
0.0688976378
  0
CIRCLE
  5
424
100
AcDbEntity
  8
0
100
AcDbCircle
 62
3
  6
CONTINUOUS
 10
6.8272106357
 20
3.7416448025
 40
0.0688976378
  0
CIRCLE
  5
425
100
AcDbEntity
  8
Y
100
AcDbCircle
 62
2
  6
CONTINUOUS
 10
6.1743808584
 20
2.8591812182
 40
0.06
  0
ARC
  5
426
100
AcDbEntity
  8
Y
100
AcDbCircle
 62
2
  6
CONTINUOUS
 10
7.2941829798
 20
3.6291618456
 40
0.056157675
100
AcDbArc
 50
157.9753847862
 51
338.0
  0
ARC
  5
427
100
AcDbEntity
  8
Y
100
AcDbCircle
 62
2
  6
CONTINUOUS
 10
7.2941829798
 20
3.6291618456
 40
0.04396706
100
AcDbArc
 50
158.0
 51
338.0
  0
CIRCLE
  5
428
100
AcDbEntity
  8
0
100
AcDbCircle
 62
3
  6
CONTINUOUS
 10
7.1272106357
 20
3.8846211805
 40
0.025
  0
CIRCLE
  5
429
100
AcDbEntity
  8
0
100
AcDbCircle
 62
3
  6
CONTINUOUS
 10
7.1272106357
 20
4.0406211805
 40
0.025
  0
CIRCLE
  5
42A
100
AcDbEntity
  8
0
100
AcDbCircle
 62
3
  6
CONTINUOUS
 10
7.1272106357
 20
4.1966211805
 40
0.025
  0
CIRCLE
  5
42B
100
AcDbEntity
  8
0
100
AcDbCircle
 62
3
  6
CONTINUOUS
 10
7.1272106357
 20
4.3526211805
 40
0.025
  0
CIRCLE
  5
42C
100
AcDbEntity
  8
0
100
AcDbCircle
 62
3
  6
CONTINUOUS
 10
7.1272106357
 20
3.8846211805
 40
0.0225
  0
CIRCLE
  5
42D
100
AcDbEntity
  8
0
100
AcDbCircle
 62
3
  6
CONTINUOUS
 10
7.1272106357
 20
4.0406211805
 40
0.0225
  0
CIRCLE
  5
42E
100
AcDbEntity
  8
0
100
AcDbCircle
 62
3
  6
CONTINUOUS
 10
7.1272106357
 20
4.1966211805
 40
0.0225
  0
CIRCLE
  5
42F
100
AcDbEntity
  8
0
100
AcDbCircle
 62
3
  6
CONTINUOUS
 10
7.1272106357
 20
4.3526211805
 40
0.0225
  0
ARC
  5
430
100
AcDbEntity
  8
Y
100
AcDbCircle
 62
2
  6
CONTINUOUS
 10
6.8583808584
 20
3.4530538245
 40
0.016
100
AcDbArc
 50
0.0
 51
90.0
  0
ARC
  5
431
100
AcDbEntity
  8
Y
100
AcDbCircle
 62
2
  6
CONTINUOUS
 10
6.8303808584
 20
3.4530538245
 40
0.016
100
AcDbArc
 50
90.0
 51
180.0
  0
ARC
  5
432
100
AcDbEntity
  8
Y
100
AcDbCircle
 62
2
  6
CONTINUOUS
 10
6.8583808584
 20
3.3850538245
 40
0.016
100
AcDbArc
 50
270.0
 51
360.0
  0
ARC
  5
433
100
AcDbEntity
  8
Y
100
AcDbCircle
 62
2
  6
CONTINUOUS
 10
6.8303808584
 20
3.3850538245
 40
0.016
100
AcDbArc
 50
180.0
 51
270.0
  0
ARC
  5
434
100
AcDbEntity
  8
Y
100
AcDbCircle
 62
2
  6
CONTINUOUS
 10
7.4934892749
 20
4.1950901091
 40
0.016
100
AcDbArc
 50
270.0
 51
353.8718161092
  0
ARC
  5
435
100
AcDbEntity
  8
Y
100
AcDbCircle
 62
2
  6
CONTINUOUS
 10
6.6368808584
 20
3.9150538245
 40
0.016
100
AcDbArc
 50
270.0
 51
360.0
  0
ARC
  5
436
100
AcDbEntity
  8
Y
100
AcDbCircle
 62
2
  6
CONTINUOUS
 10
6.6368808584
 20
4.0630538245
 40
0.016
100
AcDbArc
 50
0.0
 51
90.0
  0
CIRCLE
  5
437
100
AcDbEntity
  8
0
100
AcDbCircle
 62
3
  6
CONTINUOUS
 10
7.1272106357
 20
3.8846211805
 40
0.0125
  0
CIRCLE
  5
438
100
AcDbEntity
  8
0
100
AcDbCircle
 62
3
  6
CONTINUOUS
 10
7.1272106357
 20
4.0406211805
 40
0.0125
  0
CIRCLE
  5
439
100
AcDbEntity
  8
0
100
AcDbCircle
 62
3
  6
CONTINUOUS
 10
7.1272106357
 20
4.1966211805
 40
0.0125
  0
CIRCLE
  5
43A
100
AcDbEntity
  8
0
100
AcDbCircle
 62
3
  6
CONTINUOUS
 10
7.1272106357
 20
4.3526211805
 40
0.0125
  0
ARC
  5
43B
100
AcDbEntity
  8
Y
100
AcDbCircle
 62
2
  6
CONTINUOUS
 10
5.9290760906
 20
6.723127662
 40
0.1775
100
AcDbArc
 50
254.9999845351
 51
75.0
  0
ARC
  5
43C
100
AcDbEntity
  8
Y
100
AcDbCircle
 62
2
  6
CONTINUOUS
 10
5.9290760906
 20
6.723127662
 40
0.0925
100
AcDbArc
 50
254.9999775286
 51
75.0
  0
CIRCLE
  5
43D
100
AcDbEntity
  8
0
100
AcDbCircle
 62
3
  6
CONTINUOUS
 10
6.8272106357
 20
5.1195975584
 40
0.0688976378
  0
CIRCLE
  5
43E
100
AcDbEntity
  8
0
100
AcDbCircle
 62
3
  6
CONTINUOUS
 10
6.8272106357
 20
4.9227471647
 40
0.0688976378
  0
CIRCLE
  5
43F
100
AcDbEntity
  8
0
100
AcDbCircle
 62
3
  6
CONTINUOUS
 10
6.8272106357
 20
4.725896771
 40
0.0688976378
  0
CIRCLE
  5
440
100
AcDbEntity
  8
0
100
AcDbCircle
 62
3
  6
CONTINUOUS
 10
6.8272106357
 20
4.5290463773
 40
0.0688976378
  0
ARC
  5
441
100
AcDbEntity
  8
Y
100
AcDbCircle
 62
2
  6
CONTINUOUS
 10
7.2941829798
 20
5.2289458035
 40
0.056157675
100
AcDbArc
 50
22.0
 51
202.0246152138
  0
ARC
  5
442
100
AcDbEntity
  8
Y
100
AcDbCircle
 62
2
  6
CONTINUOUS
 10
7.2941829798
 20
5.2289458035
 40
0.04396706
100
AcDbArc
 50
22.0
 51
202.0
  0
CIRCLE
  5
443
100
AcDbEntity
  8
0
100
AcDbCircle
 62
3
  6
CONTINUOUS
 10
7.1272106357
 20
4.5086211805
 40
0.025
  0
CIRCLE
  5
444
100
AcDbEntity
  8
0
100
AcDbCircle
 62
3
  6
CONTINUOUS
 10
7.1272106357
 20
4.6646211805
 40
0.025
  0
CIRCLE
  5
445
100
AcDbEntity
  8
0
100
AcDbCircle
 62
3
  6
CONTINUOUS
 10
7.1272106357
 20
4.8206211805
 40
0.025
  0
CIRCLE
  5
446
100
AcDbEntity
  8
0
100
AcDbCircle
 62
3
  6
CONTINUOUS
 10
7.1272106357
 20
4.9766211805
 40
0.025
  0
CIRCLE
  5
447
100
AcDbEntity
  8
0
100
AcDbCircle
 62
3
  6
CONTINUOUS
 10
7.1272106357
 20
4.9766211805
 40
0.0225
  0
CIRCLE
  5
448
100
AcDbEntity
  8
0
100
AcDbCircle
 62
3
  6
CONTINUOUS
 10
7.1272106357
 20
4.5086211805
 40
0.0225
  0
CIRCLE
  5
449
100
AcDbEntity
  8
0
100
AcDbCircle
 62
3
  6
CONTINUOUS
 10
7.1272106357
 20
4.8206211805
 40
0.0225
  0
CIRCLE
  5
44A
100
AcDbEntity
  8
0
100
AcDbCircle
 62
3
  6
CONTINUOUS
 10
7.1272106357
 20
4.6646211805
 40
0.0225
  0
ARC
  5
44B
100
AcDbEntity
  8
Y
100
AcDbCircle
 62
2
  6
CONTINUOUS
 10
7.4934892749
 20
4.66301754
 40
0.016
100
AcDbArc
 50
6.1281838908
 51
90.0
  0
ARC
  5
44C
100
AcDbEntity
  8
Y
100
AcDbCircle
 62
2
  6
CONTINUOUS
 10
6.8303808584
 20
5.4730538245
 40
0.016
100
AcDbArc
 50
90.0
 51
180.0
  0
ARC
  5
44D
100
AcDbEntity
  8
Y
100
AcDbCircle
 62
2
  6
CONTINUOUS
 10
6.8583808584
 20
5.4730538245
 40
0.016
100
AcDbArc
 50
0.0
 51
90.0
  0
ARC
  5
44E
100
AcDbEntity
  8
Y
100
AcDbCircle
 62
2
  6
CONTINUOUS
 10
6.8303808584
 20
5.4050538245
 40
0.016
100
AcDbArc
 50
180.0
 51
270.0
  0
ARC
  5
44F
100
AcDbEntity
  8
Y
100
AcDbCircle
 62
2
  6
CONTINUOUS
 10
6.8583808584
 20
5.4050538245
 40
0.016
100
AcDbArc
 50
270.0
 51
360.0
  0
ARC
  5
450
100
AcDbEntity
  8
Y
100
AcDbCircle
 62
2
  6
CONTINUOUS
 10
6.6368808584
 20
4.7950538245
 40
0.016
100
AcDbArc
 50
270.0
 51
360.0
  0
ARC
  5
451
100
AcDbEntity
  8
Y
100
AcDbCircle
 62
2
  6
CONTINUOUS
 10
6.6368808584
 20
4.9430538245
 40
0.016
100
AcDbArc
 50
0.0
 51
90.0
  0
CIRCLE
  5
452
100
AcDbEntity
  8
0
100
AcDbCircle
 62
3
  6
CONTINUOUS
 10
7.1272106357
 20
4.9766211805
 40
0.0125
  0
CIRCLE
  5
453
100
AcDbEntity
  8
0
100
AcDbCircle
 62
3
  6
CONTINUOUS
 10
7.1272106357
 20
4.8206211805
 40
0.0125
  0
CIRCLE
  5
454
100
AcDbEntity
  8
0
100
AcDbCircle
 62
3
  6
CONTINUOUS
 10
7.1272106357
 20
4.5086211805
 40
0.0125
  0
CIRCLE
  5
455
100
AcDbEntity
  8
0
100
AcDbCircle
 62
3
  6
CONTINUOUS
 10
7.1272106357
 20
4.6646211805
 40
0.0125
  0
ENDSEC
  0
SECTION
  2
OBJECTS
  0
DICTIONARY
  5
C
100
AcDbDictionary
280
0
281
1
  3
ACAD_GROUP
350
D
  3
ACAD_MLINESTYLE
350
17
  3
ACAD_LAYOUT
350
1A
  3
ACAD_PLOTSETTINGS
350
19
  3
ACAD_PLOTSTYLENAME
350
E
  0
DICTIONARY
  5
D
102
{ACAD_REACTORS
330
C
102
}
100
AcDbDictionary
280
0
281
1
  0
ACDBDICTIONARYWDFLT
  5
E
102
{ACAD_REACTORS
330
C
102
}
100
AcDbDictionary
281
1
  3
Normal
350
F
100
AcDbDictionaryWithDefault
340
F
  0
DICTIONARY
  5
17
102
{ACAD_REACTORS
330
C
102
}
100
AcDbDictionary
280
0
281
1
  3
Standard
350
18
  0
DICTIONARY
  5
19
102
{ACAD_REACTORS
330
C
102
}
100
AcDbDictionary
281
1
  0
DICTIONARY
  5
1A
102
{ACAD_REACTORS
330
C
102
}
100
AcDbDictionary
281
1
  3
Model
350
456
  3
Layout1
350
457
  0
ACDBPLACEHOLDER
  5
F
102
{ACAD_REACTORS
330
E
102
}
  0
MLINESTYLE
  5
18
102
{ACAD_REACTORS
330
17
102
}
100
AcDbMlineStyle
  2
STANDARD
 70
0
  3

 62
256
 51
90.0
 52
90.0
 71
2
 49
0.5
 62
256
  6
BYLAYER
 49
-0.5
 62
256
  6
BYLAYER
  0
LAYOUT
  5
456
102
{ACAD_REACTORS
330
1A
102
}
100
AcDbPlotSettings
  1

  2
none_device
  4
ANSI_A_(11.00_x_8.50_Inches)
  6

 40
0.0
 41
0.0
 42
0.0
 43
0.0
 44
279.4
 45
215.9
 46
0.0
 47
0.0
 48
0.0
 49
0.0
140
0.0
141
0.0
142
1.0
143
1.0
 70
1024
 72
0
 73
0
 74
0
  7

 75
0
147
1.0
148
0.0
149
0.0
100
AcDbLayout
  1
Model
 70
0
 71
0
 10
0.0
 20
0.0
 11
11.0
 21
8.5
 12
0.0
 22
0.0
 32
0.0
 14
0.0
 24
0.0
 34
0.0
 15
0.0
 25
0.0
 35
0.0
146
0.0
 13
0.0
 23
0.0
 33
0.0
 16
1.0
 26
0.0
 36
0.0
 17
0.0
 27
1.0
 37
0.0
 76
0
330
225
345
0
346
0
  0
LAYOUT
  5
457
102
{ACAD_REACTORS
330
1A
102
}
100
AcDbPlotSettings
  1

  2
none_device
  4
ANSI_A_(11.00_x_8.50_Inches)
  6

 40
0.0
 41
0.0
 42
0.0
 43
0.0
 44
279.4
 45
215.9
 46
0.0
 47
0.0
 48
0.0
 49
0.0
140
0.0
141
0.0
142
1.0
143
1.0
 70
0
 72
0
 73
0
 74
0
  7

 75
0
147
1.0
148
0.0
149
0.0
100
AcDbLayout
  1
Layout1
 70
0
 71
1
 10
0.0
 20
0.0
 11
11.0
 21
8.5
 12
0.0
 22
0.0
 32
0.0
 14
0.0
 24
0.0
 34
0.0
 15
0.0
 25
0.0
 35
0.0
146
0.0
 13
0.0
 23
0.0
 33
0.0
 16
1.0
 26
0.0
 36
0.0
 17
0.0
 27
1.0
 37
0.0
 76
0
330
226
345
0
346
0
  0
ENDSEC
  0
EOF
