999
DXF file: D928.dxf
999
Pro/ENGINEER 2009380 by Parametric Technology Corporation
  0
SECTION
  2
HEADER
  9
$ACADVER
  1
AC1015
  9
$DWGCODEPAGE
  3
ANSI_1252
  9
$EXTMAX
 10
11.0
 20
8.5
 30
0.0
  9
$EXTMIN
 10
0.0
 20
0.0
 30
0.0
  9
$LIMMIN
 10
0.0
 20
0.0
  9
$LIMMAX
 10
11.0
 20
8.5
  9
$VIEWCTR
 10
5.5
 20
4.25
  9
$VIEWSIZE
 40
8.5
  9
$CLAYER
  8
0
  9
$LTSCALE
 40
0.605
  9
$CELTYPE
  6
BYLAYER
  9
$DIMSCALE
 40
1.0
  9
$DIMASZ
 40
0.1875
  9
$DIMEXO
 40
0.06875
  9
$DIMDLI
 40
0.418
  9
$DIMEXE
 40
0.198
  9
$DIMCEN
 40
0.099
  9
$DIMLFAC
 40
1.0
  9
$DIMBLK
  1
_CLOSED
  9
$DIMTXT
 40
0.125
  9
$DIMTOL
 70
0
  9
$DIMLIM
 70
0
  9
$DIMTFAC
 40
1.0
  9
$PDMODE
 70
3
  9
$PDSIZE
 40
0.3125
  9
$HANDSEED
  5
779
  9
$TILEMODE
 70
1
  9
$MEASUREMENT
 70
0
  9
$INSUNITS
 70
1
  0
ENDSEC
  0
SECTION
  2
CLASSES
  0
CLASS
  1
ACDBDICTIONARYWDFLT
  2
AcDbDictionaryWithDefault
  3
AutoCAD 2000
 90
0
280
0
281
0
  0
CLASS
  1
ACDBPLACEHOLDER
  2
AcDbPlaceHolder
  3
AutoCAD 2000
 90
0
280
0
281
0
  0
CLASS
  1
LAYOUT
  2
AcDbLayout
  3
AutoCAD 2000
 90
0
280
0
281
0
  0
ENDSEC
  0
SECTION
  2
TABLES
  0
TABLE
  2
VPORT
  5
8
100
AcDbSymbolTable
 70
2
  0
VPORT
  5
1F4
100
AcDbSymbolTableRecord
100
AcDbViewportTableRecord
  2
*ACTIVE
 70
0
 10
0.0
 20
0.0
 11
1.0
 21
1.0
 12
5.5
 22
4.25
 13
0.0
 23
0.0
 14
1.0
 24
1.0
 15
0.0
 25
0.0
 16
0.0
 26
0.0
 36
1.0
 17
0.0
 27
0.0
 37
0.0
 40
8.5
 41
1.2941176471
 42
50.0
 43
0.0
 44
0.0
 50
0.0
 51
0.0
 71
0
 72
100
 73
1
 74
1
 75
0
 76
0
 77
0
 78
0
  0
ENDTAB
  0
TABLE
  2
LTYPE
  5
5
100
AcDbSymbolTable
 70
6
  0
LTYPE
  5
14
100
AcDbSymbolTableRecord
100
AcDbLinetypeTableRecord
  2
BYBLOCK
 70
0
  3

 72
65
 73
0
 40
0.0
  0
LTYPE
  5
15
100
AcDbSymbolTableRecord
100
AcDbLinetypeTableRecord
  2
BYLAYER
 70
0
  3

 72
65
 73
0
 40
0.0
  0
LTYPE
  5
16
100
AcDbSymbolTableRecord
100
AcDbLinetypeTableRecord
  2
CONTINUOUS
 70
64
  3
Solid line
 72
65
 73
0
 40
0.0
  0
LTYPE
  5
1F5
100
AcDbSymbolTableRecord
100
AcDbLinetypeTableRecord
  2
CENTER
 70
64
  3
____ _ ____ _ ____ _ ____ _ ____ _ ____ _ ____
 72
65
 73
4
 40
0.6
 49
0.375
 74
0
 49
-0.075
 74
0
 49
0.075
 74
0
 49
-0.075
 74
0
  0
LTYPE
  5
1F6
100
AcDbSymbolTableRecord
100
AcDbLinetypeTableRecord
  2
HIDDEN
 70
64
  3
- - - - - - - - - - - - - - - - - - - -
 72
65
 73
2
 40
0.2
 49
0.1
 74
0
 49
-0.1
 74
0
  0
LTYPE
  5
1F7
100
AcDbSymbolTableRecord
100
AcDbLinetypeTableRecord
  2
PHANTOM
 70
64
  3
_____ _ _ _____ _ _ _____ _ _ _____
 72
65
 73
6
 40
0.8
 49
0.45
 74
0
 49
-0.05
 74
0
 49
0.1
 74
0
 49
-0.05
 74
0
 49
0.1
 74
0
 49
-0.05
 74
0
  0
LTYPE
  5
1F8
100
AcDbSymbolTableRecord
100
AcDbLinetypeTableRecord
  2
DOT
 70
64
  3
. . . . . . . . . . . . . . . . . . . .
 72
65
 73
2
 40
0.2
 49
0.1
 74
0
 49
-0.1
 74
0
  0
LTYPE
  5
1F9
100
AcDbSymbolTableRecord
100
AcDbLinetypeTableRecord
  2
DASHED
 70
64
  3
- - - - - - - - - - - - - - - - - - - -
 72
65
 73
2
 40
0.2
 49
0.1
 74
0
 49
-0.1
 74
0
  0
ENDTAB
  0
TABLE
  2
LAYER
  5
2
100
AcDbSymbolTable
 70
36
  0
LAYER
  5
10
100
AcDbSymbolTableRecord
100
AcDbLayerTableRecord
  2
0
 70
0
 62
7
  6
CONTINUOUS
370
-3
390
F
  0
LAYER
  5
1FA
100
AcDbSymbolTableRecord
100
AcDbLayerTableRecord
  2
DEFAULT_1
 70
0
 62
7
  6
CENTER
370
-3
390
F
  0
LAYER
  5
1FB
100
AcDbSymbolTableRecord
100
AcDbLayerTableRecord
  2
DEFAULT_2
 70
0
 62
8
  6
HIDDEN
370
-3
390
F
  0
LAYER
  5
1FC
100
AcDbSymbolTableRecord
100
AcDbLayerTableRecord
  2
DEFAULT_3
 70
0
 62
7
  6
PHANTOM
370
-3
390
F
  0
LAYER
  5
1FD
100
AcDbSymbolTableRecord
100
AcDbLayerTableRecord
  2
DFN0102_DRL
 70
0
 62
7
  6
CONTINUOUS
370
-3
390
F
  0
LAYER
  5
1FE
100
AcDbSymbolTableRecord
100
AcDbLayerTableRecord
  2
DFP0102_DRL
 70
0
 62
7
  6
CONTINUOUS
370
-3
390
F
  0
LAYER
  5
1FF
100
AcDbSymbolTableRecord
100
AcDbLayerTableRecord
  2
SST_PHO
 70
0
 62
7
  6
CONTINUOUS
370
-3
390
F
  0
ENDTAB
  0
TABLE
  2
STYLE
  5
3
100
AcDbSymbolTable
 70
1
  0
STYLE
  5
11
100
AcDbSymbolTableRecord
100
AcDbTextStyleTableRecord
  2
STANDARD
 70
0
 40
0.0
 41
0.8
 50
0.0
 71
0
 42
0.2
  3
txt
  4

  0
STYLE
  5
200
100
AcDbSymbolTableRecord
100
AcDbTextStyleTableRecord
  2
TEXTSTYLE_1
 70
0
 40
0.0
 41
0.8
 50
0.0
 71
0
 42
0.2
  3
gdt
  4

  0
ENDTAB
  0
TABLE
  2
VIEW
  5
6
100
AcDbSymbolTable
 70
0
  0
ENDTAB
  0
TABLE
  2
UCS
  5
7
100
AcDbSymbolTable
 70
0
  0
ENDTAB
  0
TABLE
  2
APPID
  5
9
100
AcDbSymbolTable
 70
1
  0
APPID
  5
201
100
AcDbSymbolTableRecord
100
AcDbRegAppTableRecord
  2
ACAD
 70
0
  0
ENDTAB
  0
TABLE
  2
BLOCK_RECORD
  5
1
100
AcDbSymbolTable
 70
0
  0
BLOCK_RECORD
  5
202
100
AcDbSymbolTableRecord
100
AcDbBlockTableRecord
  2
*Model_Space
  0
BLOCK_RECORD
  5
203
100
AcDbSymbolTableRecord
100
AcDbBlockTableRecord
  2
*Paper_Space
  0
BLOCK_RECORD
  5
204
100
AcDbSymbolTableRecord
100
AcDbBlockTableRecord
  2
_CLOSED
  0
BLOCK_RECORD
  5
205
100
AcDbSymbolTableRecord
100
AcDbBlockTableRecord
  2
*D0
  0
BLOCK_RECORD
  5
206
100
AcDbSymbolTableRecord
100
AcDbBlockTableRecord
  2
*D1
  0
ENDTAB
  0
TABLE
  2
DIMSTYLE
  5
A
100
AcDbSymbolTable
 70
1
100
AcDbDimStyleTable
 71
0
  0
DIMSTYLE
105
207
100
AcDbSymbolTableRecord
100
AcDbDimStyleTableRecord
  2
STANDARD
 70
0
  3

  4

 40
1.0
 41
0.1875
 42
0.0625
 43
0.38
 44
0.18
 45
0.0
 46
0.0
 47
0.01
 48
0.01
140
0.125
141
0.09
142
0.0
143
25.4
144
1.0
145
0.0
146
1.0
147
0.09
 71
0.0
 72
0.0
 73
1
 74
1
 75
0
 76
0
 77
0
 78
4
170
0
171
2
172
0
173
0
174
0
175
0
176
0
177
0
178
0
270
2
271
2
272
2
273
2
274
2
275
0
280
0
281
0
282
0
283
1
284
4
285
0
286
0
287
3
288
0
340
11
341
204
342
204
343
204
344
204
  0
DIMSTYLE
105
208
100
AcDbSymbolTableRecord
100
AcDbDimStyleTableRecord
  2
DIMSTYLE_1
 70
0
  3

  4

 40
1.0
 41
0.1875
 42
0.0625
 43
0.38
 44
0.18
 45
0.0
 46
0.0
 47
0.0
 48
0.0
140
0.125
141
0.09
142
0.0
143
25.4
144
1.0
145
0.0
146
1.0
147
0.09
 71
0.0
 72
0.0
 73
1
 74
1
 75
0
 76
0
 77
0
 78
4
170
0
171
2
172
0
173
0
174
0
175
0
176
0
177
0
178
0
270
2
271
2
272
2
273
2
274
2
275
0
280
0
281
0
282
0
283
1
284
4
285
0
286
0
287
3
288
0
340
11
341
204
342
204
343
204
344
204
  0
ENDTAB
  0
ENDSEC
  0
SECTION
  2
BLOCKS
  0
BLOCK
  5
20
100
AcDbEntity
  8
0
100
AcDbBlockBegin
  2
*Model_Space
 70
0
 10
0.0
 20
0.0
 30
0.0
  3
*Model_Space
  1

  0
ENDBLK
  5
21
100
AcDbEntity
  8
0
100
AcDbBlockEnd
  0
BLOCK
  5
1C
100
AcDbEntity
  8
0
100
AcDbBlockBegin
  2
*Paper_Space
 70
0
 10
0.0
 20
0.0
 30
0.0
  3
*Paper_Space
  1

  0
ENDBLK
  5
1D
100
AcDbEntity
  8
0
100
AcDbBlockEnd
  0
BLOCK
  5
209
100
AcDbEntity
  8
0
100
AcDbBlockBegin
  2
_CLOSED
 70
64
 10
0.0
 20
0.0
  3
_CLOSED
  1

  0
LINE
  5
20A
100
AcDbEntity
  8
0
  6
BYBLOCK
 62
0
100
AcDbLine
 10
0.0
 20
0.0
 11
-1.0
 21
0.1666666667
  0
LINE
  5
20B
100
AcDbEntity
  8
0
  6
BYBLOCK
 62
0
100
AcDbLine
 10
-1.0
 20
0.1666666667
 11
-1.0
 21
-0.1666666667
  0
LINE
  5
20C
100
AcDbEntity
  8
0
  6
BYBLOCK
 62
0
100
AcDbLine
 10
-1.0
 20
-0.1666666667
 11
0.0
 21
0.0
  0
LINE
  5
20D
100
AcDbEntity
  8
0
  6
BYBLOCK
 62
0
100
AcDbLine
 10
-1.0
 20
0.0
 11
0.0
 21
0.0
  0
ENDBLK
  5
20E
100
AcDbEntity
  8
0
  6
BYBLOCK
 62
0
100
AcDbBlockEnd
  0
BLOCK
  5
20F
100
AcDbEntity
  8
0
100
AcDbBlockBegin
 62
2
  6
CONTINUOUS
  2
*D0
 70
65
 10
0.0
 20
0.0
  3
*D0
  1

  0
MTEXT
  5
210
100
AcDbEntity
  8
0
100
AcDbMText
 62
2
  6
CONTINUOUS
  7
STANDARD
 71
2
 72
1
 10
4.2630108527
 20
5.052635908
 30
0.0
 11
1.0
 21
0.0
 31
0.0
 44
0.9
  1
5.00
 40
0.125
 41
0.4
  0
LINE
  5
211
100
AcDbEntity
  8
0
100
AcDbLine
 62
2
  6
CONTINUOUS
 10
6.7630108527
 20
4.5472530725
 11
6.7630108527
 21
5.115135908
  0
LINE
  5
212
100
AcDbEntity
  8
0
100
AcDbLine
 62
2
  6
CONTINUOUS
 10
1.7630108527
 20
4.5472530725
 11
1.7630108527
 21
5.115135908
  0
LINE
  5
213
100
AcDbEntity
  8
0
100
AcDbLine
 62
2
  6
CONTINUOUS
 10
6.7630108527
 20
4.990135908
 11
4.5255108527
 21
4.990135908
  0
LINE
  5
214
100
AcDbEntity
  8
0
100
AcDbLine
 62
2
  6
CONTINUOUS
 10
1.7630108527
 20
4.990135908
 11
4.0005108527
 21
4.990135908
  0
INSERT
  5
215
100
AcDbEntity
  8
0
100
AcDbBlockReference
 62
2
  6
CONTINUOUS
  2
_CLOSED
 10
6.7630108527
 20
4.990135908
 41
0.1875
 42
0.1875
 43
0.1875
  0
INSERT
  5
216
100
AcDbEntity
  8
0
100
AcDbBlockReference
 62
2
  6
CONTINUOUS
  2
_CLOSED
 10
1.7630108527
 20
4.990135908
 41
0.1875
 42
0.1875
 43
0.1875
 50
180.0
  0
ENDBLK
  5
217
100
AcDbEntity
  8
0
  6
BYBLOCK
 62
0
100
AcDbBlockEnd
  0
BLOCK
  5
218
100
AcDbEntity
  8
0
100
AcDbBlockBegin
 62
2
  6
CONTINUOUS
  2
*D1
 70
65
 10
0.0
 20
0.0
  3
*D1
  1

  0
MTEXT
  5
219
100
AcDbEntity
  8
0
100
AcDbMText
 62
2
  6
CONTINUOUS
  7
STANDARD
 71
2
 72
1
 10
7.1147010908
 20
3.0972530725
 30
0.0
 11
1.0
 21
0.0
 31
0.0
 44
0.9
  1
2.90
 40
0.125
 41
0.4
  0
LINE
  5
21A
100
AcDbEntity
  8
0
100
AcDbLine
 62
2
  6
CONTINUOUS
 10
6.8255108527
 20
4.4847530725
 11
7.2397010908
 21
4.4847530725
  0
LINE
  5
21B
100
AcDbEntity
  8
0
100
AcDbLine
 62
2
  6
CONTINUOUS
 10
6.8255108527
 20
1.5847530725
 11
7.2397010908
 21
1.5847530725
  0
LINE
  5
21C
100
AcDbEntity
  8
0
100
AcDbLine
 62
2
  6
CONTINUOUS
 10
7.1147010908
 20
4.4847530725
 11
7.1147010908
 21
3.1597530725
  0
LINE
  5
21D
100
AcDbEntity
  8
0
100
AcDbLine
 62
2
  6
CONTINUOUS
 10
7.1147010908
 20
1.5847530725
 11
7.1147010908
 21
2.9097530725
  0
INSERT
  5
21E
100
AcDbEntity
  8
0
100
AcDbBlockReference
 62
2
  6
CONTINUOUS
  2
_CLOSED
 10
7.1147010908
 20
4.4847530725
 41
0.1875
 42
0.1875
 43
0.1875
 50
90.0
  0
INSERT
  5
21F
100
AcDbEntity
  8
0
100
AcDbBlockReference
 62
2
  6
CONTINUOUS
  2
_CLOSED
 10
7.1147010908
 20
1.5847530725
 41
0.1875
 42
0.1875
 43
0.1875
 50
270.0
  0
ENDBLK
  5
220
100
AcDbEntity
  8
0
  6
BYBLOCK
 62
0
100
AcDbBlockEnd
  0
ENDSEC
  0
SECTION
  2
ENTITIES
  0
DIMENSION
  5
221
100
AcDbEntity
  8
0
100
AcDbDimension
 62
2
  6
CONTINUOUS
  2
*D0
 10
1.7630108527
 20
4.990135908
 11
4.0630108527
 21
4.990135908
 70
160
 71
2
 42
5.0
  3
DIMSTYLE_1
100
AcDbAlignedDimension
 13
6.7630108527
 23
4.5472530725
 14
1.7630108527
 24
4.5472530725
 50
180.0
100
AcDbRotatedDimension
  0
DIMENSION
  5
222
100
AcDbEntity
  8
0
100
AcDbDimension
 62
2
  6
CONTINUOUS
  2
*D1
 10
7.1147010908
 20
1.5847530725
 11
6.9147010908
 21
3.0347530725
 70
160
 71
2
 42
2.9
  3
DIMSTYLE_1
100
AcDbAlignedDimension
 13
6.8255108527
 23
4.4847530725
 14
6.8255108527
 24
1.5847530725
 50
270.0
100
AcDbRotatedDimension
  0
LINE
  5
223
100
AcDbEntity
  8
SST_PHO
100
AcDbLine
 62
7
  6
CONTINUOUS
 10
1.7630108527
 20
1.5847530725
 11
1.7630108527
 21
4.4847530725
  0
LINE
  5
224
100
AcDbEntity
  8
SST_PHO
100
AcDbLine
 62
7
  6
CONTINUOUS
 10
1.8130108527
 20
3.7097530725
 11
1.8130108527
 21
2.1097530725
  0
LINE
  5
225
100
AcDbEntity
  8
SST_PHO
100
AcDbLine
 62
7
  6
CONTINUOUS
 10
1.8630108527
 20
2.4597530725
 11
1.8630108527
 21
2.8347530725
  0
LINE
  5
226
100
AcDbEntity
  8
SST_PHO
100
AcDbLine
 62
7
  6
CONTINUOUS
 10
1.8630108527
 20
2.9847530725
 11
1.8630108527
 21
3.3597530725
  0
LINE
  5
227
100
AcDbEntity
  8
SST_PHO
100
AcDbLine
 62
7
  6
CONTINUOUS
 10
1.9630108527
 20
3.7097530725
 11
1.9630108527
 21
3.5097530725
  0
LINE
  5
228
100
AcDbEntity
  8
SST_PHO
100
AcDbLine
 62
7
  6
CONTINUOUS
 10
1.9630108527
 20
2.1097530725
 11
1.9630108527
 21
2.3097530725
  0
LINE
  5
229
100
AcDbEntity
  8
SST_PHO
100
AcDbLine
 62
7
  6
CONTINUOUS
 10
2.0630108527
 20
2.3097530725
 11
2.0630108527
 21
2.1097530725
  0
LINE
  5
22A
100
AcDbEntity
  8
SST_PHO
100
AcDbLine
 62
7
  6
CONTINUOUS
 10
2.0630108527
 20
3.5097530725
 11
2.0630108527
 21
3.7097530725
  0
LINE
  5
22B
100
AcDbEntity
  8
SST_PHO
100
AcDbLine
 62
7
  6
CONTINUOUS
 10
2.3840108527
 20
2.4757530725
 11
2.3920108527
 21
2.4557530725
  0
LINE
  5
22C
100
AcDbEntity
  8
SST_PHO
100
AcDbLine
 62
7
  6
CONTINUOUS
 10
2.3840108527
 20
2.5757530725
 11
2.3920108527
 21
2.5557530725
  0
LINE
  5
22D
100
AcDbEntity
  8
SST_PHO
100
AcDbLine
 62
7
  6
CONTINUOUS
 10
2.3710108527
 20
3.2027530725
 11
2.3680108527
 21
3.2407530725
  0
LINE
  5
22E
100
AcDbEntity
  8
SST_PHO
100
AcDbLine
 62
7
  6
CONTINUOUS
 10
2.1630108527
 20
3.3597530725
 11
2.1630108527
 21
2.4597530725
  0
LINE
  5
22F
100
AcDbEntity
  8
SST_PHO
100
AcDbLine
 62
7
  6
CONTINUOUS
 10
2.2130108527
 20
2.1097530725
 11
2.2130108527
 21
3.7097530725
  0
LINE
  5
230
100
AcDbEntity
  8
SST_PHO
100
AcDbLine
 62
7
  6
CONTINUOUS
 10
2.2380108527
 20
2.8347530725
 11
2.2380108527
 21
3.1347530725
  0
LINE
  5
231
100
AcDbEntity
  8
SST_PHO
100
AcDbLine
 62
7
  6
CONTINUOUS
 10
2.2430108527
 20
2.9097530725
 11
2.2430108527
 21
2.8997530725
  0
LINE
  5
232
100
AcDbEntity
  8
SST_PHO
100
AcDbLine
 62
7
  6
CONTINUOUS
 10
2.2630108527
 20
4.0597530725
 11
2.2630108527
 21
3.4097530725
  0
LINE
  5
233
100
AcDbEntity
  8
SST_PHO
100
AcDbLine
 62
7
  6
CONTINUOUS
 10
2.2880108527
 20
3.1847530725
 11
2.2880108527
 21
3.1347530725
  0
LINE
  5
234
100
AcDbEntity
  8
SST_PHO
100
AcDbLine
 62
7
  6
CONTINUOUS
 10
2.2880108527
 20
2.7847530725
 11
2.2880108527
 21
2.8347530725
  0
LINE
  5
235
100
AcDbEntity
  8
SST_PHO
100
AcDbLine
 62
7
  6
CONTINUOUS
 10
2.3330108527
 20
2.8997530725
 11
2.3330108527
 21
2.9097530725
  0
LINE
  5
236
100
AcDbEntity
  8
SST_PHO
100
AcDbLine
 62
7
  6
CONTINUOUS
 10
2.3380108527
 20
3.1347530725
 11
2.3380108527
 21
2.8347530725
  0
LINE
  5
237
100
AcDbEntity
  8
SST_PHO
100
AcDbLine
 62
7
  6
CONTINUOUS
 10
2.3630108527
 20
2.6347530725
 11
2.3630108527
 21
3.0597530725
  0
LINE
  5
238
100
AcDbEntity
  8
SST_PHO
100
AcDbLine
 62
7
  6
CONTINUOUS
 10
2.3780108527
 20
3.3547530725
 11
2.3780108527
 21
3.4147530725
  0
LINE
  5
239
100
AcDbEntity
  8
SST_PHO
100
AcDbLine
 62
7
  6
CONTINUOUS
 10
2.3820108527
 20
2.6537530725
 11
2.3820108527
 21
2.6957530725
  0
LINE
  5
23A
100
AcDbEntity
  8
SST_PHO
100
AcDbLine
 62
7
  6
CONTINUOUS
 10
2.3880108527
 20
2.4347530725
 11
2.3880108527
 21
1.7347530725
  0
LINE
  5
23B
100
AcDbEntity
  8
SST_PHO
100
AcDbLine
 62
7
  6
CONTINUOUS
 10
2.4200108527
 20
2.6747530725
 11
2.4200108527
 21
2.6537530725
  0
LINE
  5
23C
100
AcDbEntity
  8
SST_PHO
100
AcDbLine
 62
7
  6
CONTINUOUS
 10
2.4380108527
 20
2.6427530725
 11
2.4380108527
 21
2.7067530725
  0
LINE
  5
23D
100
AcDbEntity
  8
SST_PHO
100
AcDbLine
 62
7
  6
CONTINUOUS
 10
2.4630108527
 20
4.1847530725
 11
2.4630108527
 21
4.0847530725
  0
LINE
  5
23E
100
AcDbEntity
  8
SST_PHO
100
AcDbLine
 62
7
  6
CONTINUOUS
 10
2.4760108527
 20
2.6957530725
 11
2.4760108527
 21
2.6857530725
  0
LINE
  5
23F
100
AcDbEntity
  8
SST_PHO
100
AcDbLine
 62
7
  6
CONTINUOUS
 10
2.4760108527
 20
2.6637530725
 11
2.4760108527
 21
2.6427530725
  0
LINE
  5
240
100
AcDbEntity
  8
SST_PHO
100
AcDbLine
 62
7
  6
CONTINUOUS
 10
2.3850108527
 20
2.5977530725
 11
2.3840108527
 21
2.5757530725
  0
LINE
  5
241
100
AcDbEntity
  8
SST_PHO
100
AcDbLine
 62
7
  6
CONTINUOUS
 10
2.3850108527
 20
2.4977530725
 11
2.3840108527
 21
2.4757530725
  0
LINE
  5
242
100
AcDbEntity
  8
SST_PHO
100
AcDbLine
 62
7
  6
CONTINUOUS
 10
3.4955108527
 20
1.6269530725
 11
3.5074108527
 21
1.6234530725
  0
LINE
  5
243
100
AcDbEntity
  8
SST_PHO
100
AcDbLine
 62
7
  6
CONTINUOUS
 10
3.5788108527
 20
1.6297530725
 11
3.5879108527
 21
1.6269530725
  0
LINE
  5
244
100
AcDbEntity
  8
SST_PHO
100
AcDbLine
 62
7
  6
CONTINUOUS
 10
3.4990108527
 20
1.6703530725
 11
3.5291108527
 21
1.6605530725
  0
LINE
  5
245
100
AcDbEntity
  8
SST_PHO
100
AcDbLine
 62
7
  6
CONTINUOUS
 10
3.5319108527
 20
1.6668530725
 11
3.5018108527
 21
1.6766530725
  0
LINE
  5
246
100
AcDbEntity
  8
SST_PHO
100
AcDbLine
 62
7
  6
CONTINUOUS
 10
3.5081108527
 20
1.6290530725
 11
3.4974785693
 21
1.632597167
  0
LINE
  5
247
100
AcDbEntity
  8
SST_PHO
100
AcDbLine
 62
7
  6
CONTINUOUS
 10
3.5263108527
 20
1.6955530725
 11
3.5179108527
 21
1.6983530725
  0
LINE
  5
248
100
AcDbEntity
  8
SST_PHO
100
AcDbLine
 62
7
  6
CONTINUOUS
 10
3.5998108527
 20
1.6955530725
 11
3.6040108527
 21
1.6941530725
  0
LINE
  5
249
100
AcDbEntity
  8
SST_PHO
100
AcDbLine
 62
7
  6
CONTINUOUS
 10
3.6117108527
 20
1.6955530725
 11
3.5991108527
 21
1.6997530725
  0
LINE
  5
24A
100
AcDbEntity
  8
SST_PHO
100
AcDbLine
 62
7
  6
CONTINUOUS
 10
3.4430108527
 20
1.7025530725
 11
3.4507108527
 21
1.6997530725
  0
LINE
  5
24B
100
AcDbEntity
  8
SST_PHO
100
AcDbLine
 62
7
  6
CONTINUOUS
 10
3.4234108527
 20
1.6241530725
 11
3.4178108527
 21
1.6262530725
  0
LINE
  5
24C
100
AcDbEntity
  8
SST_PHO
100
AcDbLine
 62
7
  6
CONTINUOUS
 10
3.4395108527
 20
1.6913530725
 11
3.4451108527
 21
1.6892530725
  0
LINE
  5
24D
100
AcDbEntity
  8
SST_PHO
100
AcDbLine
 62
7
  6
CONTINUOUS
 10
3.440490774
 20
1.6979329937
 11
3.4472108527
 21
1.695412915
  0
LINE
  5
24E
100
AcDbEntity
  8
SST_PHO
100
AcDbLine
 62
7
  6
CONTINUOUS
 10
3.4412187268
 20
1.7003412615
 11
3.4486108527
 21
1.6975692142
  0
LINE
  5
24F
100
AcDbEntity
  8
SST_PHO
100
AcDbLine
 62
7
  6
CONTINUOUS
 10
3.5172108527
 20
1.6927530725
 11
3.5228108527
 21
1.6906530725
  0
LINE
  5
250
100
AcDbEntity
  8
SST_PHO
100
AcDbLine
 62
7
  6
CONTINUOUS
 10
3.4955108527
 20
1.6647530725
 11
3.5060108527
 21
1.6605530725
  0
LINE
  5
251
100
AcDbEntity
  8
SST_PHO
100
AcDbLine
 62
7
  6
CONTINUOUS
 10
3.5095108527
 20
1.6339530725
 11
3.5011108527
 21
1.6374530725
  0
LINE
  5
252
100
AcDbEntity
  8
SST_PHO
100
AcDbLine
 62
7
  6
CONTINUOUS
 10
3.6208108527
 20
1.6437530725
 11
3.6145108527
 21
1.6465530725
  0
LINE
  5
253
100
AcDbEntity
  8
SST_PHO
100
AcDbLine
 62
7
  6
CONTINUOUS
 10
3.5872108527
 20
1.6311530725
 11
3.5795108527
 21
1.6346530725
  0
LINE
  5
254
100
AcDbEntity
  8
SST_PHO
100
AcDbLine
 62
7
  6
CONTINUOUS
 10
3.424586837
 20
1.6264211827
 11
3.4153466795
 21
1.6310412615
  0
LINE
  5
255
100
AcDbEntity
  8
SST_PHO
100
AcDbLine
 62
7
  6
CONTINUOUS
 10
3.4253706953
 20
1.6307329937
 11
3.4169706953
 21
1.6349329937
  0
LINE
  5
256
100
AcDbEntity
  8
SST_PHO
100
AcDbLine
 62
7
  6
CONTINUOUS
 10
3.4269108527
 20
1.6353530725
 11
3.4199108527
 21
1.6388530725
  0
LINE
  5
257
100
AcDbEntity
  8
SST_PHO
100
AcDbLine
 62
7
  6
CONTINUOUS
 10
3.3719608527
 20
1.6658731512
 11
3.375740774
 21
1.6639829937
  0
LINE
  5
258
100
AcDbEntity
  8
SST_PHO
100
AcDbLine
 62
7
  6
CONTINUOUS
 10
3.3739084905
 20
1.6659290567
 11
3.3778773882
 21
1.6639444111
  0
LINE
  5
259
100
AcDbEntity
  8
SST_PHO
100
AcDbLine
 62
7
  6
CONTINUOUS
 10
3.3656608527
 20
1.7005231512
 11
3.3707010102
 21
1.6980030725
  0
LINE
  5
25A
100
AcDbEntity
  8
SST_PHO
100
AcDbLine
 62
7
  6
CONTINUOUS
 10
3.3672935299
 20
1.7023117339
 11
3.3725852622
 21
1.6996656709
  0
LINE
  5
25B
100
AcDbEntity
  8
SST_PHO
100
AcDbLine
 62
7
  6
CONTINUOUS
 10
3.6040108527
 20
1.6941530725
 11
3.6068108527
 21
1.6927530725
  0
LINE
  5
25C
100
AcDbEntity
  8
SST_PHO
100
AcDbLine
 62
7
  6
CONTINUOUS
 10
3.4178108527
 20
1.6262530725
 11
3.4108108527
 21
1.6304530725
  0
LINE
  5
25D
100
AcDbEntity
  8
SST_PHO
100
AcDbLine
 62
7
  6
CONTINUOUS
 10
3.5375108527
 20
1.6633530725
 11
3.5319108527
 21
1.6668530725
  0
LINE
  5
25E
100
AcDbEntity
  8
SST_PHO
100
AcDbLine
 62
7
  6
CONTINUOUS
 10
3.4507108527
 20
1.6997530725
 11
3.4584108527
 21
1.6948530725
  0
LINE
  5
25F
100
AcDbEntity
  8
SST_PHO
100
AcDbLine
 62
7
  6
CONTINUOUS
 10
3.5795108527
 20
1.6346530725
 11
3.5753108527
 21
1.6374530725
  0
LINE
  5
260
100
AcDbEntity
  8
SST_PHO
100
AcDbLine
 62
7
  6
CONTINUOUS
 10
3.5235108527
 20
1.6563530725
 11
3.5312108527
 21
1.6507530725
  0
LINE
  5
261
100
AcDbEntity
  8
SST_PHO
100
AcDbLine
 62
7
  6
CONTINUOUS
 10
3.4451108527
 20
1.6892530725
 11
3.4507108527
 21
1.6850530725
  0
LINE
  5
262
100
AcDbEntity
  8
SST_PHO
100
AcDbLine
 62
7
  6
CONTINUOUS
 10
3.4472108527
 20
1.695412915
 11
3.4539309315
 21
1.6903731512
  0
LINE
  5
263
100
AcDbEntity
  8
SST_PHO
100
AcDbLine
 62
7
  6
CONTINUOUS
 10
3.4486108527
 20
1.6975692142
 11
3.4560029787
 21
1.6920251197
  0
LINE
  5
264
100
AcDbEntity
  8
SST_PHO
100
AcDbLine
 62
7
  6
CONTINUOUS
 10
3.5291108527
 20
1.6605530725
 11
3.5375108527
 21
1.6542530725
  0
LINE
  5
265
100
AcDbEntity
  8
SST_PHO
100
AcDbLine
 62
7
  6
CONTINUOUS
 10
3.5697108527
 20
1.6367530725
 11
3.5788108527
 21
1.6297530725
  0
LINE
  5
266
100
AcDbEntity
  8
SST_PHO
100
AcDbLine
 62
7
  6
CONTINUOUS
 10
2.3920108527
 20
2.4557530725
 11
2.4080108527
 21
2.4417530725
  0
LINE
  5
267
100
AcDbEntity
  8
SST_PHO
100
AcDbLine
 62
7
  6
CONTINUOUS
 10
3.3707010102
 20
1.6980030725
 11
3.375740774
 21
1.69359323
  0
LINE
  5
268
100
AcDbEntity
  8
SST_PHO
100
AcDbLine
 62
7
  6
CONTINUOUS
 10
2.3920108527
 20
2.5557530725
 11
2.4080108527
 21
2.5417530725
  0
LINE
  5
269
100
AcDbEntity
  8
SST_PHO
100
AcDbLine
 62
7
  6
CONTINUOUS
 10
3.3725852622
 20
1.6996656709
 11
3.3778773882
 21
1.6950349623
  0
LINE
  5
26A
100
AcDbEntity
  8
SST_PHO
100
AcDbLine
 62
7
  6
CONTINUOUS
 10
3.4878108527
 20
1.6339530725
 11
3.4955108527
 21
1.6269530725
  0
LINE
  5
26B
100
AcDbEntity
  8
SST_PHO
100
AcDbLine
 62
7
  6
CONTINUOUS
 10
3.4974785693
 20
1.632597167
 11
3.492652585
 21
1.637285356
  0
LINE
  5
26C
100
AcDbEntity
  8
SST_PHO
100
AcDbLine
 62
7
  6
CONTINUOUS
 10
3.375740774
 20
1.6639829937
 11
3.3807809315
 21
1.65894323
  0
LINE
  5
26D
100
AcDbEntity
  8
SST_PHO
100
AcDbLine
 62
7
  6
CONTINUOUS
 10
3.4108108527
 20
1.6304530725
 11
3.4031108527
 21
1.6381530725
  0
LINE
  5
26E
100
AcDbEntity
  8
SST_PHO
100
AcDbLine
 62
7
  6
CONTINUOUS
 10
3.3778773882
 20
1.6639444111
 11
3.3831695142
 21
1.6586526788
  0
LINE
  5
26F
100
AcDbEntity
  8
SST_PHO
100
AcDbLine
 62
7
  6
CONTINUOUS
 10
3.4153466795
 20
1.6310412615
 11
3.4079549472
 21
1.6384329937
  0
LINE
  5
270
100
AcDbEntity
  8
SST_PHO
100
AcDbLine
 62
7
  6
CONTINUOUS
 10
3.4169706953
 20
1.6349329937
 11
3.4102510102
 21
1.6416530725
  0
LINE
  5
271
100
AcDbEntity
  8
SST_PHO
100
AcDbLine
 62
7
  6
CONTINUOUS
 10
3.4199108527
 20
1.6388530725
 11
3.4143108527
 21
1.6444530725
  0
LINE
  5
272
100
AcDbEntity
  8
SST_PHO
100
AcDbLine
 62
7
  6
CONTINUOUS
 10
1.8130108527
 20
3.3097530725
 11
1.8630108527
 21
3.2597530725
  0
LINE
  5
273
100
AcDbEntity
  8
SST_PHO
100
AcDbLine
 62
7
  6
CONTINUOUS
 10
3.4584108527
 20
1.6948530725
 11
3.4633108527
 21
1.6899530725
  0
LINE
  5
274
100
AcDbEntity
  8
SST_PHO
100
AcDbLine
 62
7
  6
CONTINUOUS
 10
3.4885108527
 20
1.6717530725
 11
3.4955108527
 21
1.6647530725
  0
LINE
  5
275
100
AcDbEntity
  8
SST_PHO
100
AcDbLine
 62
7
  6
CONTINUOUS
 10
3.5018108527
 20
1.6766530725
 11
3.4983108527
 21
1.6801530725
  0
LINE
  5
276
100
AcDbEntity
  8
SST_PHO
100
AcDbLine
 62
7
  6
CONTINUOUS
 10
3.5753108527
 20
1.6374530725
 11
3.5739108527
 21
1.6388530725
  0
LINE
  5
277
100
AcDbEntity
  8
SST_PHO
100
AcDbLine
 62
7
  6
CONTINUOUS
 10
3.5228108527
 20
1.6906530725
 11
3.5277108527
 21
1.6857530725
  0
LINE
  5
278
100
AcDbEntity
  8
SST_PHO
100
AcDbLine
 62
7
  6
CONTINUOUS
 10
3.5333108527
 20
1.6885530725
 11
3.5263108527
 21
1.6955530725
  0
LINE
  5
279
100
AcDbEntity
  8
SST_PHO
100
AcDbLine
 62
7
  6
CONTINUOUS
 10
3.5382108527
 20
1.6920530725
 11
3.5305108527
 21
1.6997530725
  0
LINE
  5
27A
100
AcDbEntity
  8
SST_PHO
100
AcDbLine
 62
7
  6
CONTINUOUS
 10
2.3920108527
 20
2.6427530725
 11
2.3820108527
 21
2.6537530725
  0
LINE
  5
27B
100
AcDbEntity
  8
SST_PHO
100
AcDbLine
 62
7
  6
CONTINUOUS
 10
2.4100108527
 20
2.7067530725
 11
2.4200108527
 21
2.6957530725
  0
LINE
  5
27C
100
AcDbEntity
  8
SST_PHO
100
AcDbLine
 62
7
  6
CONTINUOUS
 10
2.4660108527
 20
2.6747530725
 11
2.4760108527
 21
2.6637530725
  0
LINE
  5
27D
100
AcDbEntity
  8
SST_PHO
100
AcDbLine
 62
7
  6
CONTINUOUS
 10
2.4660108527
 20
2.7067530725
 11
2.4760108527
 21
2.6957530725
  0
LINE
  5
27E
100
AcDbEntity
  8
SST_PHO
100
AcDbLine
 62
7
  6
CONTINUOUS
 10
3.4920108527
 20
1.6780530725
 11
3.4990108527
 21
1.6703530725
  0
LINE
  5
27F
100
AcDbEntity
  8
SST_PHO
100
AcDbLine
 62
7
  6
CONTINUOUS
 10
2.6150108527
 20
2.6747530725
 11
2.6250108527
 21
2.6637530725
  0
LINE
  5
280
100
AcDbEntity
  8
SST_PHO
100
AcDbLine
 62
7
  6
CONTINUOUS
 10
2.6150108527
 20
2.7067530725
 11
2.6250108527
 21
2.6957530725
  0
LINE
  5
281
100
AcDbEntity
  8
SST_PHO
100
AcDbLine
 62
7
  6
CONTINUOUS
 10
2.4940108527
 20
2.6957530725
 11
2.5320108527
 21
2.6537530725
  0
LINE
  5
282
100
AcDbEntity
  8
SST_PHO
100
AcDbLine
 62
7
  6
CONTINUOUS
 10
3.6068108527
 20
1.6927530725
 11
3.6131108527
 21
1.6857530725
  0
LINE
  5
283
100
AcDbEntity
  8
SST_PHO
100
AcDbLine
 62
7
  6
CONTINUOUS
 10
2.7370108527
 20
2.6427530725
 11
2.7090108527
 21
2.6747530725
  0
LINE
  5
284
100
AcDbEntity
  8
SST_PHO
100
AcDbLine
 62
7
  6
CONTINUOUS
 10
3.6187108527
 20
1.6864530725
 11
3.6131108527
 21
1.6934530725
  0
LINE
  5
285
100
AcDbEntity
  8
SST_PHO
100
AcDbLine
 62
7
  6
CONTINUOUS
 10
3.5424108527
 20
1.6570530725
 11
3.5375108527
 21
1.6633530725
  0
LINE
  5
286
100
AcDbEntity
  8
SST_PHO
100
AcDbLine
 62
7
  6
CONTINUOUS
 10
3.4507108527
 20
1.6850530725
 11
3.4549108527
 21
1.6794530725
  0
LINE
  5
287
100
AcDbEntity
  8
SST_PHO
100
AcDbLine
 62
7
  6
CONTINUOUS
 10
3.4539309315
 20
1.6903731512
 11
3.4589706953
 21
1.6836530725
  0
LINE
  5
288
100
AcDbEntity
  8
SST_PHO
100
AcDbLine
 62
7
  6
CONTINUOUS
 10
3.4560029787
 20
1.6920251197
 11
3.4615466795
 21
1.6846329937
  0
LINE
  5
289
100
AcDbEntity
  8
SST_PHO
100
AcDbLine
 62
7
  6
CONTINUOUS
 10
2.6400108527
 20
2.5037530725
 11
2.6280108527
 21
2.5217530725
  0
LINE
  5
28A
100
AcDbEntity
  8
SST_PHO
100
AcDbLine
 62
7
  6
CONTINUOUS
 10
2.6400108527
 20
2.6037530725
 11
2.6280108527
 21
2.6217530725
  0
LINE
  5
28B
100
AcDbEntity
  8
SST_PHO
100
AcDbLine
 62
7
  6
CONTINUOUS
 10
3.4633108527
 20
1.6899530725
 11
3.4668108527
 21
1.6843530725
  0
LINE
  5
28C
100
AcDbEntity
  8
SST_PHO
100
AcDbLine
 62
7
  6
CONTINUOUS
 10
3.5011108527
 20
1.6374530725
 11
3.4955108527
 21
1.6465530725
  0
LINE
  5
28D
100
AcDbEntity
  8
SST_PHO
100
AcDbLine
 62
7
  6
CONTINUOUS
 10
3.4031108527
 20
1.6381530725
 11
3.3989108527
 21
1.6451530725
  0
LINE
  5
28E
100
AcDbEntity
  8
SST_PHO
100
AcDbLine
 62
7
  6
CONTINUOUS
 10
2.4020108527
 20
3.1327530725
 11
2.3830108527
 21
3.1657530725
  0
LINE
  5
28F
100
AcDbEntity
  8
SST_PHO
100
AcDbLine
 62
7
  6
CONTINUOUS
 10
3.375740774
 20
1.69359323
 11
3.3782608527
 21
1.6891829937
  0
LINE
  5
290
100
AcDbEntity
  8
SST_PHO
100
AcDbLine
 62
7
  6
CONTINUOUS
 10
3.3778773882
 20
1.6950349623
 11
3.3805234512
 21
1.6904046473
  0
LINE
  5
291
100
AcDbEntity
  8
SST_PHO
100
AcDbLine
 62
7
  6
CONTINUOUS
 10
2.3830108527
 20
3.1657530725
 11
2.3710108527
 21
3.2027530725
  0
LINE
  5
292
100
AcDbEntity
  8
SST_PHO
100
AcDbLine
 62
7
  6
CONTINUOUS
 10
2.6440108527
 20
2.4817530725
 11
2.6400108527
 21
2.5037530725
  0
LINE
  5
293
100
AcDbEntity
  8
SST_PHO
100
AcDbLine
 62
7
  6
CONTINUOUS
 10
2.6440108527
 20
2.5817530725
 11
2.6400108527
 21
2.6037530725
  0
LINE
  5
294
100
AcDbEntity
  8
SST_PHO
100
AcDbLine
 62
7
  6
CONTINUOUS
 10
2.7060108527
 20
3.2617530725
 11
2.7080108527
 21
3.2347530725
  0
LINE
  5
295
100
AcDbEntity
  8
SST_PHO
100
AcDbLine
 62
7
  6
CONTINUOUS
 10
2.4880108527
 20
4.2097530725
 11
2.4880108527
 21
4.3097530725
  0
LINE
  5
296
100
AcDbEntity
  8
SST_PHO
100
AcDbLine
 62
7
  6
CONTINUOUS
 10
2.4940108527
 20
2.7067530725
 11
2.4940108527
 21
2.6427530725
  0
LINE
  5
297
100
AcDbEntity
  8
SST_PHO
100
AcDbLine
 62
7
  6
CONTINUOUS
 10
2.5320108527
 20
2.7067530725
 11
2.5320108527
 21
2.6427530725
  0
LINE
  5
298
100
AcDbEntity
  8
SST_PHO
100
AcDbLine
 62
7
  6
CONTINUOUS
 10
2.5630108527
 20
2.7597530725
 11
2.5630108527
 21
2.6347530725
  0
LINE
  5
299
100
AcDbEntity
  8
SST_PHO
100
AcDbLine
 62
7
  6
CONTINUOUS
 10
2.5870108527
 20
2.6427530725
 11
2.5870108527
 21
2.7067530725
  0
LINE
  5
29A
100
AcDbEntity
  8
SST_PHO
100
AcDbLine
 62
7
  6
CONTINUOUS
 10
2.6250108527
 20
2.6957530725
 11
2.6250108527
 21
2.6857530725
  0
LINE
  5
29B
100
AcDbEntity
  8
SST_PHO
100
AcDbLine
 62
7
  6
CONTINUOUS
 10
2.6250108527
 20
2.6637530725
 11
2.6250108527
 21
2.6537530725
  0
LINE
  5
29C
100
AcDbEntity
  8
SST_PHO
100
AcDbLine
 62
7
  6
CONTINUOUS
 10
2.6380108527
 20
1.7347530725
 11
2.6380108527
 21
2.4347530725
  0
LINE
  5
29D
100
AcDbEntity
  8
SST_PHO
100
AcDbLine
 62
7
  6
CONTINUOUS
 10
2.6430108527
 20
2.7067530725
 11
2.6430108527
 21
2.6427530725
  0
LINE
  5
29E
100
AcDbEntity
  8
SST_PHO
100
AcDbLine
 62
7
  6
CONTINUOUS
 10
2.6630108527
 20
4.3047530725
 11
2.6630108527
 21
4.2147530725
  0
LINE
  5
29F
100
AcDbEntity
  8
SST_PHO
100
AcDbLine
 62
7
  6
CONTINUOUS
 10
2.6730108527
 20
4.2147530725
 11
2.6730108527
 21
4.3047530725
  0
LINE
  5
2A0
100
AcDbEntity
  8
SST_PHO
100
AcDbLine
 62
7
  6
CONTINUOUS
 10
2.6880108527
 20
4.3097530725
 11
2.6880108527
 21
4.2097530725
  0
LINE
  5
2A1
100
AcDbEntity
  8
SST_PHO
100
AcDbLine
 62
7
  6
CONTINUOUS
 10
2.6990108527
 20
2.6427530725
 11
2.6990108527
 21
2.7067530725
  0
LINE
  5
2A2
100
AcDbEntity
  8
SST_PHO
100
AcDbLine
 62
7
  6
CONTINUOUS
 10
2.7130108527
 20
4.0847530725
 11
2.7130108527
 21
4.1847530725
  0
LINE
  5
2A3
100
AcDbEntity
  8
SST_PHO
100
AcDbLine
 62
7
  6
CONTINUOUS
 10
2.7630108527
 20
2.6347530725
 11
2.7630108527
 21
3.0597530725
  0
LINE
  5
2A4
100
AcDbEntity
  8
SST_PHO
100
AcDbLine
 62
7
  6
CONTINUOUS
 10
2.7080108527
 20
3.2347530725
 11
2.7040108527
 21
3.1967530725
  0
LINE
  5
2A5
100
AcDbEntity
  8
SST_PHO
100
AcDbLine
 62
7
  6
CONTINUOUS
 10
2.3680108527
 20
3.2407530725
 11
2.3740108527
 21
3.2787530725
  0
LINE
  5
2A6
100
AcDbEntity
  8
SST_PHO
100
AcDbLine
 62
7
  6
CONTINUOUS
 10
6.5130108527
 20
1.6257530725
 11
6.4640108527
 21
1.6137530725
  0
LINE
  5
2A7
100
AcDbEntity
  8
SST_PHO
100
AcDbLine
 62
7
  6
CONTINUOUS
 10
6.4640108527
 20
1.6137530725
 11
6.4130108527
 21
1.6097530725
  0
LINE
  5
2A8
100
AcDbEntity
  8
SST_PHO
100
AcDbLine
 62
7
  6
CONTINUOUS
 10
6.7630108527
 20
1.5847530725
 11
1.7630108527
 21
1.5847530725
  0
LINE
  5
2A9
100
AcDbEntity
  8
SST_PHO
100
AcDbLine
 62
7
  6
CONTINUOUS
 10
3.4339108527
 20
1.7032530725
 11
3.4430108527
 21
1.7025530725
  0
LINE
  5
2AA
100
AcDbEntity
  8
SST_PHO
100
AcDbLine
 62
7
  6
CONTINUOUS
 10
3.4283108527
 20
1.6234530725
 11
3.4234108527
 21
1.6241530725
  0
LINE
  5
2AB
100
AcDbEntity
  8
SST_PHO
100
AcDbLine
 62
7
  6
CONTINUOUS
 10
3.3618809315
 20
1.7011530725
 11
3.3656608527
 21
1.7005231512
  0
LINE
  5
2AC
100
AcDbEntity
  8
SST_PHO
100
AcDbLine
 62
7
  6
CONTINUOUS
 10
3.3633242386
 20
1.7029731512
 11
3.3672935299
 21
1.7023117339
  0
LINE
  5
2AD
100
AcDbEntity
  8
SST_PHO
100
AcDbLine
 62
7
  6
CONTINUOUS
 10
3.5060108527
 20
1.6605530725
 11
3.5235108527
 21
1.6563530725
  0
LINE
  5
2AE
100
AcDbEntity
  8
SST_PHO
100
AcDbLine
 62
7
  6
CONTINUOUS
 10
3.5305108527
 20
1.6997530725
 11
3.5186108527
 21
1.7032530725
  0
LINE
  5
2AF
100
AcDbEntity
  8
SST_PHO
100
AcDbLine
 62
7
  6
CONTINUOUS
 10
2.4080108527
 20
2.4417530725
 11
2.4290108527
 21
2.4347530725
  0
LINE
  5
2B0
100
AcDbEntity
  8
SST_PHO
100
AcDbLine
 62
7
  6
CONTINUOUS
 10
2.6280108527
 20
2.5217530725
 11
2.6090108527
 21
2.5327530725
  0
LINE
  5
2B1
100
AcDbEntity
  8
SST_PHO
100
AcDbLine
 62
7
  6
CONTINUOUS
 10
2.6280108527
 20
2.6217530725
 11
2.6090108527
 21
2.6327530725
  0
LINE
  5
2B2
100
AcDbEntity
  8
SST_PHO
100
AcDbLine
 62
7
  6
CONTINUOUS
 10
2.4610108527
 20
3.0837530725
 11
2.4290108527
 21
3.1047530725
  0
LINE
  5
2B3
100
AcDbEntity
  8
SST_PHO
100
AcDbLine
 62
7
  6
CONTINUOUS
 10
2.9920108527
 20
2.6057530725
 11
3.0080108527
 21
2.5917530725
  0
LINE
  5
2B4
100
AcDbEntity
  8
SST_PHO
100
AcDbLine
 62
7
  6
CONTINUOUS
 10
3.0630108527
 20
2.5347530725
 11
3.1130108527
 21
2.4847530725
  0
LINE
  5
2B5
100
AcDbEntity
  8
SST_PHO
100
AcDbLine
 62
7
  6
CONTINUOUS
 10
2.4290108527
 20
3.1047530725
 11
2.4020108527
 21
3.1327530725
  0
LINE
  5
2B6
100
AcDbEntity
  8
SST_PHO
100
AcDbLine
 62
7
  6
CONTINUOUS
 10
2.6520108527
 20
3.3607530725
 11
2.6770108527
 21
3.3327530725
  0
LINE
  5
2B7
100
AcDbEntity
  8
SST_PHO
100
AcDbLine
 62
7
  6
CONTINUOUS
 10
3.6131108527
 20
1.6857530725
 11
3.6145108527
 21
1.6836530725
  0
LINE
  5
2B8
100
AcDbEntity
  8
SST_PHO
100
AcDbLine
 62
7
  6
CONTINUOUS
 10
3.6131108527
 20
1.6934530725
 11
3.6117108527
 21
1.6955530725
  0
LINE
  5
2B9
100
AcDbEntity
  8
SST_PHO
100
AcDbLine
 62
7
  6
CONTINUOUS
 10
3.2400108527
 20
2.6537530725
 11
3.2280108527
 21
2.6717530725
  0
LINE
  5
2BA
100
AcDbEntity
  8
SST_PHO
100
AcDbLine
 62
7
  6
CONTINUOUS
 10
3.5641108527
 20
1.6465530725
 11
3.5697108527
 21
1.6367530725
  0
LINE
  5
2BB
100
AcDbEntity
  8
SST_PHO
100
AcDbLine
 62
7
  6
CONTINUOUS
 10
2.6770108527
 20
3.3327530725
 11
2.6960108527
 21
3.2987530725
  0
LINE
  5
2BC
100
AcDbEntity
  8
SST_PHO
100
AcDbLine
 62
7
  6
CONTINUOUS
 10
3.5277108527
 20
1.6857530725
 11
3.5291108527
 21
1.6829530725
  0
LINE
  5
2BD
100
AcDbEntity
  8
SST_PHO
100
AcDbLine
 62
7
  6
CONTINUOUS
 10
3.5739108527
 20
1.6388530725
 11
3.5697108527
 21
1.6472530725
  0
LINE
  5
2BE
100
AcDbEntity
  8
SST_PHO
100
AcDbLine
 62
7
  6
CONTINUOUS
 10
3.6194108527
 20
1.6850530725
 11
3.6187108527
 21
1.6864530725
  0
LINE
  5
2BF
100
AcDbEntity
  8
SST_PHO
100
AcDbLine
 62
7
  6
CONTINUOUS
 10
3.4857108527
 20
1.6780530725
 11
3.4885108527
 21
1.6717530725
  0
LINE
  5
2C0
100
AcDbEntity
  8
SST_PHO
100
AcDbLine
 62
7
  6
CONTINUOUS
 10
3.4829108527
 20
1.6451530725
 11
3.4878108527
 21
1.6339530725
  0
LINE
  5
2C1
100
AcDbEntity
  8
SST_PHO
100
AcDbLine
 62
7
  6
CONTINUOUS
 10
3.4079549472
 20
1.6384329937
 11
3.4024108527
 21
1.6513692142
  0
LINE
  5
2C2
100
AcDbEntity
  8
SST_PHO
100
AcDbLine
 62
7
  6
CONTINUOUS
 10
3.4102510102
 20
1.6416530725
 11
3.4052108527
 21
1.653412915
  0
LINE
  5
2C3
100
AcDbEntity
  8
SST_PHO
100
AcDbLine
 62
7
  6
CONTINUOUS
 10
3.4143108527
 20
1.6444530725
 11
3.4101108527
 21
1.6542530725
  0
LINE
  5
2C4
100
AcDbEntity
  8
SST_PHO
100
AcDbLine
 62
7
  6
CONTINUOUS
 10
2.9840108527
 20
2.6257530725
 11
2.9920108527
 21
2.6057530725
  0
LINE
  5
2C5
100
AcDbEntity
  8
SST_PHO
100
AcDbLine
 62
7
  6
CONTINUOUS
 10
3.5438108527
 20
1.6535530725
 11
3.5424108527
 21
1.6570530725
  0
LINE
  5
2C6
100
AcDbEntity
  8
SST_PHO
100
AcDbLine
 62
7
  6
CONTINUOUS
 10
3.5417108527
 20
1.6829530725
 11
3.5382108527
 21
1.6920530725
  0
LINE
  5
2C7
100
AcDbEntity
  8
SST_PHO
100
AcDbLine
 62
7
  6
CONTINUOUS
 10
3.4668108527
 20
1.6843530725
 11
3.4689108527
 21
1.6787530725
  0
LINE
  5
2C8
100
AcDbEntity
  8
SST_PHO
100
AcDbLine
 62
7
  6
CONTINUOUS
 10
3.492652585
 20
1.637285356
 11
3.4913108527
 21
1.6409530725
  0
LINE
  5
2C9
100
AcDbEntity
  8
SST_PHO
100
AcDbLine
 62
7
  6
CONTINUOUS
 10
3.3807809315
 20
1.65894323
 11
3.382040774
 21
1.655162915
  0
LINE
  5
2CA
100
AcDbEntity
  8
SST_PHO
100
AcDbLine
 62
7
  6
CONTINUOUS
 10
3.3831695142
 20
1.6586526788
 11
3.3844923488
 21
1.6546833874
  0
LINE
  5
2CB
100
AcDbEntity
  8
SST_PHO
100
AcDbLine
 62
7
  6
CONTINUOUS
 10
3.3782608527
 20
1.6891829937
 11
3.3795206953
 21
1.6854030725
  0
LINE
  5
2CC
100
AcDbEntity
  8
SST_PHO
100
AcDbLine
 62
7
  6
CONTINUOUS
 10
3.3805234512
 20
1.6904046473
 11
3.3818462858
 21
1.6864357497
  0
LINE
  5
2CD
100
AcDbEntity
  8
SST_PHO
100
AcDbLine
 62
7
  6
CONTINUOUS
 10
3.4549108527
 20
1.6794530725
 11
3.4577108527
 21
1.6710530725
  0
LINE
  5
2CE
100
AcDbEntity
  8
SST_PHO
100
AcDbLine
 62
7
  6
CONTINUOUS
 10
3.4589706953
 20
1.6836530725
 11
3.4623309315
 21
1.6735731512
  0
LINE
  5
2CF
100
AcDbEntity
  8
SST_PHO
100
AcDbLine
 62
7
  6
CONTINUOUS
 10
3.4615466795
 20
1.6846329937
 11
3.4652427425
 21
1.6735451985
  0
LINE
  5
2D0
100
AcDbEntity
  8
SST_PHO
100
AcDbLine
 62
7
  6
CONTINUOUS
 10
3.4689108527
 20
1.6787530725
 11
3.4703108527
 21
1.6738530725
  0
LINE
  5
2D1
100
AcDbEntity
  8
SST_PHO
100
AcDbLine
 62
7
  6
CONTINUOUS
 10
2.6960108527
 20
3.2987530725
 11
2.7060108527
 21
3.2617530725
  0
LINE
  5
2D2
100
AcDbEntity
  8
SST_PHO
100
AcDbLine
 62
7
  6
CONTINUOUS
 10
3.3989108527
 20
1.6451530725
 11
3.3968108527
 21
1.6535530725
  0
LINE
  5
2D3
100
AcDbEntity
  8
SST_PHO
100
AcDbLine
 62
7
  6
CONTINUOUS
 10
2.8730108527
 20
3.0447530725
 11
2.8730108527
 21
3.3347530725
  0
LINE
  5
2D4
100
AcDbEntity
  8
SST_PHO
100
AcDbLine
 62
7
  6
CONTINUOUS
 10
2.9230108527
 20
4.4097530725
 11
2.9230108527
 21
4.0697530725
  0
LINE
  5
2D5
100
AcDbEntity
  8
SST_PHO
100
AcDbLine
 62
7
  6
CONTINUOUS
 10
2.9240108527
 20
4.0707530725
 11
2.9240108527
 21
4.0717530725
  0
LINE
  5
2D6
100
AcDbEntity
  8
SST_PHO
100
AcDbLine
 62
7
  6
CONTINUOUS
 10
2.9240108527
 20
4.4067530725
 11
2.9240108527
 21
4.4087530725
  0
LINE
  5
2D7
100
AcDbEntity
  8
SST_PHO
100
AcDbLine
 62
7
  6
CONTINUOUS
 10
2.9250108527
 20
4.0717530725
 11
2.9250108527
 21
4.0797530725
  0
LINE
  5
2D8
100
AcDbEntity
  8
SST_PHO
100
AcDbLine
 62
7
  6
CONTINUOUS
 10
2.9250108527
 20
4.3997530725
 11
2.9250108527
 21
4.4067530725
  0
LINE
  5
2D9
100
AcDbEntity
  8
SST_PHO
100
AcDbLine
 62
7
  6
CONTINUOUS
 10
2.9330108527
 20
4.4487530725
 11
2.9330108527
 21
4.4097530725
  0
LINE
  5
2DA
100
AcDbEntity
  8
SST_PHO
100
AcDbLine
 62
7
  6
CONTINUOUS
 10
2.9330108527
 20
4.3997530725
 11
2.9330108527
 21
4.0797530725
  0
LINE
  5
2DB
100
AcDbEntity
  8
SST_PHO
100
AcDbLine
 62
7
  6
CONTINUOUS
 10
2.9400108527
 20
4.4067530725
 11
2.9400108527
 21
4.3997530725
  0
LINE
  5
2DC
100
AcDbEntity
  8
SST_PHO
100
AcDbLine
 62
7
  6
CONTINUOUS
 10
2.9400108527
 20
4.0797530725
 11
2.9400108527
 21
4.0717530725
  0
LINE
  5
2DD
100
AcDbEntity
  8
SST_PHO
100
AcDbLine
 62
7
  6
CONTINUOUS
 10
2.9420108527
 20
4.4087530725
 11
2.9420108527
 21
4.4067530725
  0
LINE
  5
2DE
100
AcDbEntity
  8
SST_PHO
100
AcDbLine
 62
7
  6
CONTINUOUS
 10
2.9420108527
 20
4.0717530725
 11
2.9420108527
 21
4.0707530725
  0
LINE
  5
2DF
100
AcDbEntity
  8
SST_PHO
100
AcDbLine
 62
7
  6
CONTINUOUS
 10
2.9430108527
 20
4.4097530725
 11
2.9430108527
 21
4.0697530725
  0
LINE
  5
2E0
100
AcDbEntity
  8
SST_PHO
100
AcDbLine
 62
7
  6
CONTINUOUS
 10
2.9630108527
 20
3.4097530725
 11
2.9630108527
 21
4.0597530725
  0
LINE
  5
2E1
100
AcDbEntity
  8
SST_PHO
100
AcDbLine
 62
7
  6
CONTINUOUS
 10
2.9880108527
 20
2.8847530725
 11
2.9880108527
 21
2.6847530725
  0
LINE
  5
2E2
100
AcDbEntity
  8
SST_PHO
100
AcDbLine
 62
7
  6
CONTINUOUS
 10
3.0130108527
 20
2.5347530725
 11
3.0130108527
 21
1.7347530725
  0
LINE
  5
2E3
100
AcDbEntity
  8
SST_PHO
100
AcDbLine
 62
7
  6
CONTINUOUS
 10
3.1530108527
 20
3.3347530725
 11
3.1530108527
 21
3.0447530725
  0
LINE
  5
2E4
100
AcDbEntity
  8
SST_PHO
100
AcDbLine
 62
7
  6
CONTINUOUS
 10
3.1930108527
 20
4.4497530725
 11
3.1930108527
 21
4.4097530725
  0
LINE
  5
2E5
100
AcDbEntity
  8
SST_PHO
100
AcDbLine
 62
7
  6
CONTINUOUS
 10
3.2030108527
 20
4.0697530725
 11
3.2030108527
 21
4.4097530725
  0
LINE
  5
2E6
100
AcDbEntity
  8
SST_PHO
100
AcDbLine
 62
7
  6
CONTINUOUS
 10
3.2130108527
 20
4.0597530725
 11
3.2130108527
 21
3.4097530725
  0
LINE
  5
2E7
100
AcDbEntity
  8
SST_PHO
100
AcDbLine
 62
7
  6
CONTINUOUS
 10
3.2130108527
 20
1.7347530725
 11
3.2130108527
 21
2.5347530725
  0
LINE
  5
2E8
100
AcDbEntity
  8
SST_PHO
100
AcDbLine
 62
7
  6
CONTINUOUS
 10
3.2380108527
 20
2.6847530725
 11
3.2380108527
 21
2.8847530725
  0
LINE
  5
2E9
100
AcDbEntity
  8
SST_PHO
100
AcDbLine
 62
7
  6
CONTINUOUS
 10
2.9850108527
 20
2.6477530725
 11
2.9840108527
 21
2.6257530725
  0
LINE
  5
2EA
100
AcDbEntity
  8
SST_PHO
100
AcDbLine
 62
7
  6
CONTINUOUS
 10
2.9410108527
 20
4.4837530725
 11
2.9330108527
 21
4.4487530725
  0
LINE
  5
2EB
100
AcDbEntity
  8
SST_PHO
100
AcDbLine
 62
7
  6
CONTINUOUS
 10
2.6380108527
 20
2.5607530725
 11
2.6440108527
 21
2.5817530725
  0
LINE
  5
2EC
100
AcDbEntity
  8
SST_PHO
100
AcDbLine
 62
7
  6
CONTINUOUS
 10
2.6380108527
 20
2.4607530725
 11
2.6440108527
 21
2.4817530725
  0
LINE
  5
2ED
100
AcDbEntity
  8
SST_PHO
100
AcDbLine
 62
7
  6
CONTINUOUS
 10
2.7040108527
 20
3.1967530725
 11
2.6910108527
 21
3.1597530725
  0
LINE
  5
2EE
100
AcDbEntity
  8
SST_PHO
100
AcDbLine
 62
7
  6
CONTINUOUS
 10
2.3740108527
 20
3.2787530725
 11
2.3880108527
 21
3.3147530725
  0
LINE
  5
2EF
100
AcDbEntity
  8
SST_PHO
100
AcDbLine
 62
7
  6
CONTINUOUS
 10
2.9580108527
 20
4.5157530725
 11
2.9410108527
 21
4.4837530725
  0
LINE
  5
2F0
100
AcDbEntity
  8
SST_PHO
100
AcDbLine
 62
7
  6
CONTINUOUS
 10
4.8930108527
 20
1.7347530725
 11
4.9140108527
 21
1.7397530725
  0
LINE
  5
2F1
100
AcDbEntity
  8
SST_PHO
100
AcDbLine
 62
7
  6
CONTINUOUS
 10
3.4430108527
 20
1.6241530725
 11
3.4367108527
 21
1.6234530725
  0
LINE
  5
2F2
100
AcDbEntity
  8
SST_PHO
100
AcDbLine
 62
7
  6
CONTINUOUS
 10
3.4262108527
 20
1.7025530725
 11
3.4339108527
 21
1.7032530725
  0
LINE
  5
2F3
100
AcDbEntity
  8
SST_PHO
100
AcDbLine
 62
7
  6
CONTINUOUS
 10
3.4367108527
 20
1.6234530725
 11
3.4283108527
 21
1.6234530725
  0
LINE
  5
2F4
100
AcDbEntity
  8
SST_PHO
100
AcDbLine
 62
7
  6
CONTINUOUS
 10
3.5074108527
 20
1.6234530725
 11
3.5207108527
 21
1.6234530725
  0
LINE
  5
2F5
100
AcDbEntity
  8
SST_PHO
100
AcDbLine
 62
7
  6
CONTINUOUS
 10
3.3659703016
 20
1.62359323
 11
3.3184159709
 21
1.62359323
  0
LINE
  5
2F6
100
AcDbEntity
  8
SST_PHO
100
AcDbLine
 62
7
  6
CONTINUOUS
 10
3.3644010102
 20
1.6255530725
 11
3.3191108527
 21
1.6255530725
  0
LINE
  5
2F7
100
AcDbEntity
  8
SST_PHO
100
AcDbLine
 62
7
  6
CONTINUOUS
 10
3.4412187268
 20
1.6264211827
 11
3.424586837
 21
1.6264211827
  0
LINE
  5
2F8
100
AcDbEntity
  8
SST_PHO
100
AcDbLine
 62
7
  6
CONTINUOUS
 10
3.7030108527
 20
1.6267530725
 11
3.6957108527
 21
1.6267530725
  0
LINE
  5
2F9
100
AcDbEntity
  8
SST_PHO
100
AcDbLine
 62
7
  6
CONTINUOUS
 10
3.5879108527
 20
1.6269530725
 11
3.5991108527
 21
1.6269530725
  0
LINE
  5
2FA
100
AcDbEntity
  8
SST_PHO
100
AcDbLine
 62
7
  6
CONTINUOUS
 10
3.6530108527
 20
1.6272530725
 11
3.6460108527
 21
1.6272530725
  0
LINE
  5
2FB
100
AcDbEntity
  8
SST_PHO
100
AcDbLine
 62
7
  6
CONTINUOUS
 10
3.5200108527
 20
1.6290530725
 11
3.5081108527
 21
1.6290530725
  0
LINE
  5
2FC
100
AcDbEntity
  8
SST_PHO
100
AcDbLine
 62
7
  6
CONTINUOUS
 10
3.440490774
 20
1.6307329937
 11
3.4253706953
 21
1.6307329937
  0
LINE
  5
2FD
100
AcDbEntity
  8
SST_PHO
100
AcDbLine
 62
7
  6
CONTINUOUS
 10
3.5991108527
 20
1.6311530725
 11
3.5872108527
 21
1.6311530725
  0
LINE
  5
2FE
100
AcDbEntity
  8
SST_PHO
100
AcDbLine
 62
7
  6
CONTINUOUS
 10
3.3653108527
 20
1.6311530725
 11
3.3254108527
 21
1.6311530725
  0
LINE
  5
2FF
100
AcDbEntity
  8
SST_PHO
100
AcDbLine
 62
7
  6
CONTINUOUS
 10
3.5186108527
 20
1.6339530725
 11
3.5095108527
 21
1.6339530725
  0
LINE
  5
300
100
AcDbEntity
  8
SST_PHO
100
AcDbLine
 62
7
  6
CONTINUOUS
 10
3.3583108527
 20
1.6346530725
 11
3.3317108527
 21
1.6346530725
  0
LINE
  5
301
100
AcDbEntity
  8
SST_PHO
100
AcDbLine
 62
7
  6
CONTINUOUS
 10
3.4395108527
 20
1.6353530725
 11
3.4269108527
 21
1.6353530725
  0
LINE
  5
302
100
AcDbEntity
  8
SST_PHO
100
AcDbLine
 62
7
  6
CONTINUOUS
 10
3.4955108527
 20
1.6465530725
 11
3.4829108527
 21
1.6465530725
  0
LINE
  5
303
100
AcDbEntity
  8
SST_PHO
100
AcDbLine
 62
7
  6
CONTINUOUS
 10
3.6957108527
 20
1.6587530725
 11
3.6530108527
 21
1.6587530725
  0
LINE
  5
304
100
AcDbEntity
  8
SST_PHO
100
AcDbLine
 62
7
  6
CONTINUOUS
 10
3.3317108527
 20
1.6598530725
 11
3.3583108527
 21
1.6598530725
  0
LINE
  5
305
100
AcDbEntity
  8
SST_PHO
100
AcDbLine
 62
7
  6
CONTINUOUS
 10
3.3254108527
 20
1.6626530725
 11
3.3653108527
 21
1.6626530725
  0
LINE
  5
306
100
AcDbEntity
  8
SST_PHO
100
AcDbLine
 62
7
  6
CONTINUOUS
 10
3.3653108527
 20
1.6647530725
 11
3.3254108527
 21
1.6647530725
  0
LINE
  5
307
100
AcDbEntity
  8
SST_PHO
100
AcDbLine
 62
7
  6
CONTINUOUS
 10
3.6530108527
 20
1.6667530725
 11
3.6957108527
 21
1.6667530725
  0
LINE
  5
308
100
AcDbEntity
  8
SST_PHO
100
AcDbLine
 62
7
  6
CONTINUOUS
 10
3.3583108527
 20
1.6696530725
 11
3.3317108527
 21
1.6696530725
  0
LINE
  5
309
100
AcDbEntity
  8
SST_PHO
100
AcDbLine
 62
7
  6
CONTINUOUS
 10
3.5291108527
 20
1.6829530725
 11
3.5417108527
 21
1.6829530725
  0
LINE
  5
30A
100
AcDbEntity
  8
SST_PHO
100
AcDbLine
 62
7
  6
CONTINUOUS
 10
3.4297108527
 20
1.6913530725
 11
3.4395108527
 21
1.6913530725
  0
LINE
  5
30B
100
AcDbEntity
  8
SST_PHO
100
AcDbLine
 62
7
  6
CONTINUOUS
 10
3.3317108527
 20
1.6920530725
 11
3.3583108527
 21
1.6920530725
  0
LINE
  5
30C
100
AcDbEntity
  8
SST_PHO
100
AcDbLine
 62
7
  6
CONTINUOUS
 10
3.5102108527
 20
1.6927530725
 11
3.5172108527
 21
1.6927530725
  0
LINE
  5
30D
100
AcDbEntity
  8
SST_PHO
100
AcDbLine
 62
7
  6
CONTINUOUS
 10
4.4030108527
 20
1.6947530725
 11
4.1230108527
 21
1.6947530725
  0
LINE
  5
30E
100
AcDbEntity
  8
SST_PHO
100
AcDbLine
 62
7
  6
CONTINUOUS
 10
3.5893108527
 20
1.6955530725
 11
3.5998108527
 21
1.6955530725
  0
LINE
  5
30F
100
AcDbEntity
  8
SST_PHO
100
AcDbLine
 62
7
  6
CONTINUOUS
 10
3.3254108527
 20
1.6962530725
 11
3.3653108527
 21
1.6962530725
  0
LINE
  5
310
100
AcDbEntity
  8
SST_PHO
100
AcDbLine
 62
7
  6
CONTINUOUS
 10
3.4287309315
 20
1.6979329937
 11
3.440490774
 21
1.6979329937
  0
LINE
  5
311
100
AcDbEntity
  8
SST_PHO
100
AcDbLine
 62
7
  6
CONTINUOUS
 10
3.5179108527
 20
1.6983530725
 11
3.5074108527
 21
1.6983530725
  0
LINE
  5
312
100
AcDbEntity
  8
SST_PHO
100
AcDbLine
 62
7
  6
CONTINUOUS
 10
3.5991108527
 20
1.6997530725
 11
3.5900108527
 21
1.6997530725
  0
LINE
  5
313
100
AcDbEntity
  8
SST_PHO
100
AcDbLine
 62
7
  6
CONTINUOUS
 10
3.6460108527
 20
1.6997530725
 11
3.6530108527
 21
1.6997530725
  0
LINE
  5
314
100
AcDbEntity
  8
SST_PHO
100
AcDbLine
 62
7
  6
CONTINUOUS
 10
3.6957108527
 20
1.6997530725
 11
3.7030108527
 21
1.6997530725
  0
LINE
  5
315
100
AcDbEntity
  8
SST_PHO
100
AcDbLine
 62
7
  6
CONTINUOUS
 10
3.4282829
 20
1.7003412615
 11
3.4412187268
 21
1.7003412615
  0
LINE
  5
316
100
AcDbEntity
  8
SST_PHO
100
AcDbLine
 62
7
  6
CONTINUOUS
 10
3.3191108527
 20
1.7011530725
 11
3.3618809315
 21
1.7011530725
  0
LINE
  5
317
100
AcDbEntity
  8
SST_PHO
100
AcDbLine
 62
7
  6
CONTINUOUS
 10
3.3184159709
 20
1.7029731512
 11
3.3633242386
 21
1.7029731512
  0
LINE
  5
318
100
AcDbEntity
  8
SST_PHO
100
AcDbLine
 62
7
  6
CONTINUOUS
 10
3.5186108527
 20
1.7032530725
 11
3.5060108527
 21
1.7032530725
  0
LINE
  5
319
100
AcDbEntity
  8
SST_PHO
100
AcDbLine
 62
7
  6
CONTINUOUS
 10
2.3880108527
 20
1.7347530725
 11
2.6380108527
 21
1.7347530725
  0
LINE
  5
31A
100
AcDbEntity
  8
SST_PHO
100
AcDbLine
 62
7
  6
CONTINUOUS
 10
3.0130108527
 20
1.7347530725
 11
3.2130108527
 21
1.7347530725
  0
LINE
  5
31B
100
AcDbEntity
  8
SST_PHO
100
AcDbLine
 62
7
  6
CONTINUOUS
 10
3.6130108527
 20
1.7347530725
 11
3.8130108527
 21
1.7347530725
  0
LINE
  5
31C
100
AcDbEntity
  8
SST_PHO
100
AcDbLine
 62
7
  6
CONTINUOUS
 10
4.7230108527
 20
1.7347530725
 11
4.9030108527
 21
1.7347530725
  0
LINE
  5
31D
100
AcDbEntity
  8
SST_PHO
100
AcDbLine
 62
7
  6
CONTINUOUS
 10
5.2130108527
 20
1.7347530725
 11
5.4130108527
 21
1.7347530725
  0
LINE
  5
31E
100
AcDbEntity
  8
SST_PHO
100
AcDbLine
 62
7
  6
CONTINUOUS
 10
5.6880108527
 20
1.7347530725
 11
5.9380108527
 21
1.7347530725
  0
LINE
  5
31F
100
AcDbEntity
  8
SST_PHO
100
AcDbLine
 62
7
  6
CONTINUOUS
 10
6.0130108527
 20
1.7847530725
 11
5.9380108527
 21
1.7847530725
  0
LINE
  5
320
100
AcDbEntity
  8
SST_PHO
100
AcDbLine
 62
7
  6
CONTINUOUS
 10
5.6880108527
 20
1.7847530725
 11
5.6130108527
 21
1.7847530725
  0
LINE
  5
321
100
AcDbEntity
  8
SST_PHO
100
AcDbLine
 62
7
  6
CONTINUOUS
 10
4.6830108527
 20
1.7847530725
 11
4.6130108527
 21
1.7847530725
  0
LINE
  5
322
100
AcDbEntity
  8
SST_PHO
100
AcDbLine
 62
7
  6
CONTINUOUS
 10
2.3130108527
 20
1.7847530725
 11
2.3880108527
 21
1.7847530725
  0
LINE
  5
323
100
AcDbEntity
  8
SST_PHO
100
AcDbLine
 62
7
  6
CONTINUOUS
 10
2.6380108527
 20
1.7847530725
 11
2.7130108527
 21
1.7847530725
  0
LINE
  5
324
100
AcDbEntity
  8
SST_PHO
100
AcDbLine
 62
7
  6
CONTINUOUS
 10
4.9430108527
 20
1.7847530725
 11
5.0130108527
 21
1.7847530725
  0
LINE
  5
325
100
AcDbEntity
  8
SST_PHO
100
AcDbLine
 62
7
  6
CONTINUOUS
 10
5.9380108527
 20
1.8347530725
 11
5.6880108527
 21
1.8347530725
  0
LINE
  5
326
100
AcDbEntity
  8
SST_PHO
100
AcDbLine
 62
7
  6
CONTINUOUS
 10
4.9130108527
 20
1.8347530725
 11
4.7130108527
 21
1.8347530725
  0
LINE
  5
327
100
AcDbEntity
  8
SST_PHO
100
AcDbLine
 62
7
  6
CONTINUOUS
 10
2.6380108527
 20
1.8347530725
 11
2.3880108527
 21
1.8347530725
  0
LINE
  5
328
100
AcDbEntity
  8
SST_PHO
100
AcDbLine
 62
7
  6
CONTINUOUS
 10
4.8880108527
 20
1.8397530725
 11
4.8980108527
 21
1.8397530725
  0
LINE
  5
329
100
AcDbEntity
  8
SST_PHO
100
AcDbLine
 62
7
  6
CONTINUOUS
 10
5.0130108527
 20
1.8847530725
 11
4.9130108527
 21
1.8847530725
  0
LINE
  5
32A
100
AcDbEntity
  8
SST_PHO
100
AcDbLine
 62
7
  6
CONTINUOUS
 10
2.3130108527
 20
1.8847530725
 11
2.3880108527
 21
1.8847530725
  0
LINE
  5
32B
100
AcDbEntity
  8
SST_PHO
100
AcDbLine
 62
7
  6
CONTINUOUS
 10
2.6380108527
 20
1.8847530725
 11
2.7130108527
 21
1.8847530725
  0
LINE
  5
32C
100
AcDbEntity
  8
SST_PHO
100
AcDbLine
 62
7
  6
CONTINUOUS
 10
4.6130108527
 20
1.8847530725
 11
4.7130108527
 21
1.8847530725
  0
LINE
  5
32D
100
AcDbEntity
  8
SST_PHO
100
AcDbLine
 62
7
  6
CONTINUOUS
 10
5.6130108527
 20
1.8847530725
 11
5.6880108527
 21
1.8847530725
  0
LINE
  5
32E
100
AcDbEntity
  8
SST_PHO
100
AcDbLine
 62
7
  6
CONTINUOUS
 10
5.9380108527
 20
1.8847530725
 11
6.0130108527
 21
1.8847530725
  0
LINE
  5
32F
100
AcDbEntity
  8
SST_PHO
100
AcDbLine
 62
7
  6
CONTINUOUS
 10
4.8980108527
 20
1.9297530725
 11
4.8880108527
 21
1.9297530725
  0
LINE
  5
330
100
AcDbEntity
  8
SST_PHO
100
AcDbLine
 62
7
  6
CONTINUOUS
 10
5.9380108527
 20
1.9347530725
 11
5.6880108527
 21
1.9347530725
  0
LINE
  5
331
100
AcDbEntity
  8
SST_PHO
100
AcDbLine
 62
7
  6
CONTINUOUS
 10
2.6380108527
 20
1.9347530725
 11
2.3880108527
 21
1.9347530725
  0
LINE
  5
332
100
AcDbEntity
  8
SST_PHO
100
AcDbLine
 62
7
  6
CONTINUOUS
 10
4.6880108527
 20
1.9347530725
 11
4.9380108527
 21
1.9347530725
  0
LINE
  5
333
100
AcDbEntity
  8
SST_PHO
100
AcDbLine
 62
7
  6
CONTINUOUS
 10
4.1230108527
 20
1.9747530725
 11
4.4030108527
 21
1.9747530725
  0
LINE
  5
334
100
AcDbEntity
  8
SST_PHO
100
AcDbLine
 62
7
  6
CONTINUOUS
 10
5.0130108527
 20
1.9847530725
 11
4.9380108527
 21
1.9847530725
  0
LINE
  5
335
100
AcDbEntity
  8
SST_PHO
100
AcDbLine
 62
7
  6
CONTINUOUS
 10
4.6880108527
 20
1.9847530725
 11
4.6130108527
 21
1.9847530725
  0
LINE
  5
336
100
AcDbEntity
  8
SST_PHO
100
AcDbLine
 62
7
  6
CONTINUOUS
 10
2.3130108527
 20
1.9847530725
 11
2.3880108527
 21
1.9847530725
  0
LINE
  5
337
100
AcDbEntity
  8
SST_PHO
100
AcDbLine
 62
7
  6
CONTINUOUS
 10
2.6380108527
 20
1.9847530725
 11
2.7130108527
 21
1.9847530725
  0
LINE
  5
338
100
AcDbEntity
  8
SST_PHO
100
AcDbLine
 62
7
  6
CONTINUOUS
 10
5.6130108527
 20
1.9847530725
 11
5.6880108527
 21
1.9847530725
  0
LINE
  5
339
100
AcDbEntity
  8
SST_PHO
100
AcDbLine
 62
7
  6
CONTINUOUS
 10
5.9380108527
 20
1.9847530725
 11
6.0130108527
 21
1.9847530725
  0
LINE
  5
33A
100
AcDbEntity
  8
SST_PHO
100
AcDbLine
 62
7
  6
CONTINUOUS
 10
6.4130108527
 20
1.6097530725
 11
6.3620108527
 21
1.6137530725
  0
LINE
  5
33B
100
AcDbEntity
  8
SST_PHO
100
AcDbLine
 62
7
  6
CONTINUOUS
 10
6.3620108527
 20
1.6137530725
 11
6.3130108527
 21
1.6257530725
  0
LINE
  5
33C
100
AcDbEntity
  8
SST_PHO
100
AcDbLine
 62
7
  6
CONTINUOUS
 10
4.7170108527
 20
1.7367530725
 11
4.7230108527
 21
1.7347530725
  0
LINE
  5
33D
100
AcDbEntity
  8
SST_PHO
100
AcDbLine
 62
7
  6
CONTINUOUS
 10
2.4080108527
 20
2.5417530725
 11
2.4290108527
 21
2.5347530725
  0
LINE
  5
33E
100
AcDbEntity
  8
SST_PHO
100
AcDbLine
 62
7
  6
CONTINUOUS
 10
2.6090108527
 20
2.5327530725
 11
2.6030108527
 21
2.5347530725
  0
LINE
  5
33F
100
AcDbEntity
  8
SST_PHO
100
AcDbLine
 62
7
  6
CONTINUOUS
 10
4.9180108527
 20
1.8277530725
 11
4.8970108527
 21
1.8347530725
  0
LINE
  5
340
100
AcDbEntity
  8
SST_PHO
100
AcDbLine
 62
7
  6
CONTINUOUS
 10
2.6090108527
 20
2.6327530725
 11
2.6030108527
 21
2.6347530725
  0
LINE
  5
341
100
AcDbEntity
  8
SST_PHO
100
AcDbLine
 62
7
  6
CONTINUOUS
 10
3.0080108527
 20
2.5917530725
 11
3.0290108527
 21
2.5847530725
  0
LINE
  5
342
100
AcDbEntity
  8
SST_PHO
100
AcDbLine
 62
7
  6
CONTINUOUS
 10
4.6980108527
 20
1.7477530725
 11
4.7170108527
 21
1.7367530725
  0
LINE
  5
343
100
AcDbEntity
  8
SST_PHO
100
AcDbLine
 62
7
  6
CONTINUOUS
 10
3.2280108527
 20
2.6717530725
 11
3.2090108527
 21
2.6827530725
  0
LINE
  5
344
100
AcDbEntity
  8
SST_PHO
100
AcDbLine
 62
7
  6
CONTINUOUS
 10
2.6200108527
 20
3.3837530725
 11
2.6520108527
 21
3.3607530725
  0
LINE
  5
345
100
AcDbEntity
  8
SST_PHO
100
AcDbLine
 62
7
  6
CONTINUOUS
 10
3.5920108527
 20
2.6057530725
 11
3.6080108527
 21
2.5917530725
  0
LINE
  5
346
100
AcDbEntity
  8
SST_PHO
100
AcDbLine
 62
7
  6
CONTINUOUS
 10
3.6630108527
 20
2.5347530725
 11
3.7130108527
 21
2.4847530725
  0
LINE
  5
347
100
AcDbEntity
  8
SST_PHO
100
AcDbLine
 62
7
  6
CONTINUOUS
 10
3.8400108527
 20
2.6537530725
 11
3.8280108527
 21
2.6717530725
  0
LINE
  5
348
100
AcDbEntity
  8
SST_PHO
100
AcDbLine
 62
7
  6
CONTINUOUS
 10
3.5840108527
 20
2.6257530725
 11
3.5920108527
 21
2.6057530725
  0
LINE
  5
349
100
AcDbEntity
  8
SST_PHO
100
AcDbLine
 62
7
  6
CONTINUOUS
 10
3.5620108527
 20
1.6556530725
 11
3.5641108527
 21
1.6465530725
  0
LINE
  5
34A
100
AcDbEntity
  8
SST_PHO
100
AcDbLine
 62
7
  6
CONTINUOUS
 10
3.382040774
 20
1.655162915
 11
3.3826706953
 21
1.652012915
  0
LINE
  5
34B
100
AcDbEntity
  8
SST_PHO
100
AcDbLine
 62
7
  6
CONTINUOUS
 10
3.3844923488
 20
1.6546833874
 11
3.3851537661
 21
1.6513759071
  0
LINE
  5
34C
100
AcDbEntity
  8
SST_PHO
100
AcDbLine
 62
7
  6
CONTINUOUS
 10
3.5697108527
 20
1.6472530725
 11
3.5683108527
 21
1.6542530725
  0
LINE
  5
34D
100
AcDbEntity
  8
SST_PHO
100
AcDbLine
 62
7
  6
CONTINUOUS
 10
3.2440108527
 20
2.6317530725
 11
3.2400108527
 21
2.6537530725
  0
LINE
  5
34E
100
AcDbEntity
  8
SST_PHO
100
AcDbLine
 62
7
  6
CONTINUOUS
 10
3.1930108527
 20
4.4397530725
 11
3.1880108527
 21
4.4757530725
  0
LINE
  5
34F
100
AcDbEntity
  8
SST_PHO
100
AcDbLine
 62
7
  6
CONTINUOUS
 10
3.3795206953
 20
1.6854030725
 11
3.3801510102
 21
1.680362915
  0
LINE
  5
350
100
AcDbEntity
  8
SST_PHO
100
AcDbLine
 62
7
  6
CONTINUOUS
 10
3.3818462858
 20
1.6864357497
 11
3.3825077031
 21
1.6811436237
  0
LINE
  5
351
100
AcDbEntity
  8
SST_PHO
100
AcDbLine
 62
7
  6
CONTINUOUS
 10
3.3968108527
 20
1.6535530725
 11
3.3961108527
 21
1.6591530725
  0
LINE
  5
352
100
AcDbEntity
  8
SST_PHO
100
AcDbLine
 62
7
  6
CONTINUOUS
 10
3.5683108527
 20
1.6542530725
 11
3.5676108527
 21
1.6661530725
  0
LINE
  5
353
100
AcDbEntity
  8
SST_PHO
100
AcDbLine
 62
7
  6
CONTINUOUS
 10
3.3184159709
 20
1.62359323
 11
3.3184159709
 21
1.7029731512
  0
LINE
  5
354
100
AcDbEntity
  8
SST_PHO
100
AcDbLine
 62
7
  6
CONTINUOUS
 10
3.3191108527
 20
1.6255530725
 11
3.3191108527
 21
1.7011530725
  0
LINE
  5
355
100
AcDbEntity
  8
SST_PHO
100
AcDbLine
 62
7
  6
CONTINUOUS
 10
3.3254108527
 20
1.6311530725
 11
3.3254108527
 21
1.6626530725
  0
LINE
  5
356
100
AcDbEntity
  8
SST_PHO
100
AcDbLine
 62
7
  6
CONTINUOUS
 10
3.3254108527
 20
1.6647530725
 11
3.3254108527
 21
1.6962530725
  0
LINE
  5
357
100
AcDbEntity
  8
SST_PHO
100
AcDbLine
 62
7
  6
CONTINUOUS
 10
3.3317108527
 20
1.6346530725
 11
3.3317108527
 21
1.6598530725
  0
LINE
  5
358
100
AcDbEntity
  8
SST_PHO
100
AcDbLine
 62
7
  6
CONTINUOUS
 10
3.3317108527
 20
1.6696530725
 11
3.3317108527
 21
1.6920530725
  0
LINE
  5
359
100
AcDbEntity
  8
SST_PHO
100
AcDbLine
 62
7
  6
CONTINUOUS
 10
3.3826706953
 20
1.652012915
 11
3.3826706953
 21
1.6450829937
  0
LINE
  5
35A
100
AcDbEntity
  8
SST_PHO
100
AcDbLine
 62
7
  6
CONTINUOUS
 10
3.3851537661
 20
1.6513759071
 11
3.3851537661
 21
1.6440995292
  0
LINE
  5
35B
100
AcDbEntity
  8
SST_PHO
100
AcDbLine
 62
7
  6
CONTINUOUS
 10
3.3961108527
 20
1.6591530725
 11
3.3961108527
 21
1.6668530725
  0
LINE
  5
35C
100
AcDbEntity
  8
SST_PHO
100
AcDbLine
 62
7
  6
CONTINUOUS
 10
3.4024108527
 20
1.6513692142
 11
3.4024108527
 21
1.6735451985
  0
LINE
  5
35D
100
AcDbEntity
  8
SST_PHO
100
AcDbLine
 62
7
  6
CONTINUOUS
 10
3.4052108527
 20
1.653412915
 11
3.4052108527
 21
1.6735731512
  0
LINE
  5
35E
100
AcDbEntity
  8
SST_PHO
100
AcDbLine
 62
7
  6
CONTINUOUS
 10
3.4101108527
 20
1.6542530725
 11
3.4101108527
 21
1.6710530725
  0
LINE
  5
35F
100
AcDbEntity
  8
SST_PHO
100
AcDbLine
 62
7
  6
CONTINUOUS
 10
3.4577108527
 20
1.6710530725
 11
3.4577108527
 21
1.6556530725
  0
LINE
  5
360
100
AcDbEntity
  8
SST_PHO
100
AcDbLine
 62
7
  6
CONTINUOUS
 10
3.4623309315
 20
1.6735731512
 11
3.4623309315
 21
1.65509323
  0
LINE
  5
361
100
AcDbEntity
  8
SST_PHO
100
AcDbLine
 62
7
  6
CONTINUOUS
 10
3.4630108527
 20
4.0597530725
 11
3.4630108527
 21
3.4097530725
  0
LINE
  5
362
100
AcDbEntity
  8
SST_PHO
100
AcDbLine
 62
7
  6
CONTINUOUS
 10
3.4652427425
 20
1.6735451985
 11
3.4652427425
 21
1.6532172457
  0
LINE
  5
363
100
AcDbEntity
  8
SST_PHO
100
AcDbLine
 62
7
  6
CONTINUOUS
 10
3.4703108527
 20
1.6738530725
 11
3.4703108527
 21
1.6535530725
  0
LINE
  5
364
100
AcDbEntity
  8
SST_PHO
100
AcDbLine
 62
7
  6
CONTINUOUS
 10
3.4829108527
 20
1.6465530725
 11
3.4829108527
 21
1.6451530725
  0
LINE
  5
365
100
AcDbEntity
  8
SST_PHO
100
AcDbLine
 62
7
  6
CONTINUOUS
 10
3.4857108527
 20
1.6843530725
 11
3.4857108527
 21
1.6780530725
  0
LINE
  5
366
100
AcDbEntity
  8
SST_PHO
100
AcDbLine
 62
7
  6
CONTINUOUS
 10
3.4920108527
 20
1.6857530725
 11
3.4920108527
 21
1.6780530725
  0
LINE
  5
367
100
AcDbEntity
  8
SST_PHO
100
AcDbLine
 62
7
  6
CONTINUOUS
 10
3.4983108527
 20
1.6801530725
 11
3.4983108527
 21
1.6843530725
  0
LINE
  5
368
100
AcDbEntity
  8
SST_PHO
100
AcDbLine
 62
7
  6
CONTINUOUS
 10
3.5130108527
 20
2.9647530725
 11
3.5130108527
 21
3.0847530725
  0
LINE
  5
369
100
AcDbEntity
  8
SST_PHO
100
AcDbLine
 62
7
  6
CONTINUOUS
 10
3.5130108527
 20
3.1847530725
 11
3.5130108527
 21
3.3047530725
  0
LINE
  5
36A
100
AcDbEntity
  8
SST_PHO
100
AcDbLine
 62
7
  6
CONTINUOUS
 10
3.5312108527
 20
1.6507530725
 11
3.5312108527
 21
1.6423530725
  0
LINE
  5
36B
100
AcDbEntity
  8
SST_PHO
100
AcDbLine
 62
7
  6
CONTINUOUS
 10
3.5375108527
 20
1.6542530725
 11
3.5375108527
 21
1.6402530725
  0
LINE
  5
36C
100
AcDbEntity
  8
SST_PHO
100
AcDbLine
 62
7
  6
CONTINUOUS
 10
3.5620108527
 20
1.6668530725
 11
3.5620108527
 21
1.6556530725
  0
LINE
  5
36D
100
AcDbEntity
  8
SST_PHO
100
AcDbLine
 62
7
  6
CONTINUOUS
 10
3.5676108527
 20
1.6661530725
 11
3.5676108527
 21
1.6689530725
  0
LINE
  5
36E
100
AcDbEntity
  8
SST_PHO
100
AcDbLine
 62
7
  6
CONTINUOUS
 10
3.5880108527
 20
2.8847530725
 11
3.5880108527
 21
2.6847530725
  0
LINE
  5
36F
100
AcDbEntity
  8
SST_PHO
100
AcDbLine
 62
7
  6
CONTINUOUS
 10
3.6130108527
 20
2.5347530725
 11
3.6130108527
 21
1.7347530725
  0
LINE
  5
370
100
AcDbEntity
  8
SST_PHO
100
AcDbLine
 62
7
  6
CONTINUOUS
 10
2.3950108527
 20
2.6167530725
 11
2.3850108527
 21
2.5977530725
  0
LINE
  5
371
100
AcDbEntity
  8
SST_PHO
100
AcDbLine
 62
7
  6
CONTINUOUS
 10
2.3950108527
 20
2.5167530725
 11
2.3850108527
 21
2.4977530725
  0
LINE
  5
372
100
AcDbEntity
  8
SST_PHO
100
AcDbLine
 62
7
  6
CONTINUOUS
 10
2.3880108527
 20
3.3147530725
 11
2.4100108527
 21
3.3467530725
  0
LINE
  5
373
100
AcDbEntity
  8
SST_PHO
100
AcDbLine
 62
7
  6
CONTINUOUS
 10
2.9830108527
 20
4.5417530725
 11
2.9580108527
 21
4.5157530725
  0
LINE
  5
374
100
AcDbEntity
  8
SST_PHO
100
AcDbLine
 62
7
  6
CONTINUOUS
 10
1.8630108527
 20
3.2597530725
 11
1.8130108527
 21
3.2097530725
  0
LINE
  5
375
100
AcDbEntity
  8
SST_PHO
100
AcDbLine
 62
7
  6
CONTINUOUS
 10
3.5991108527
 20
1.6269530725
 11
3.6075108527
 21
1.6290530725
  0
LINE
  5
376
100
AcDbEntity
  8
SST_PHO
100
AcDbLine
 62
7
  6
CONTINUOUS
 10
3.5060108527
 20
1.7032530725
 11
3.4976108527
 21
1.7011530725
  0
LINE
  5
377
100
AcDbEntity
  8
SST_PHO
100
AcDbLine
 62
7
  6
CONTINUOUS
 10
6.3130108527
 20
2.2437530725
 11
6.3620108527
 21
2.2557530725
  0
LINE
  5
378
100
AcDbEntity
  8
SST_PHO
100
AcDbLine
 62
7
  6
CONTINUOUS
 10
5.9430108527
 20
2.3347530725
 11
5.9640108527
 21
2.3397530725
  0
LINE
  5
379
100
AcDbEntity
  8
SST_PHO
100
AcDbLine
 62
7
  6
CONTINUOUS
 10
3.5900108527
 20
1.6997530725
 11
3.5809108527
 21
1.6976530725
  0
LINE
  5
37A
100
AcDbEntity
  8
SST_PHO
100
AcDbLine
 62
7
  6
CONTINUOUS
 10
3.4255108527
 20
1.6906530725
 11
3.4297108527
 21
1.6913530725
  0
LINE
  5
37B
100
AcDbEntity
  8
SST_PHO
100
AcDbLine
 62
7
  6
CONTINUOUS
 10
3.423690774
 20
1.69709323
 11
3.4287309315
 21
1.6979329937
  0
LINE
  5
37C
100
AcDbEntity
  8
SST_PHO
100
AcDbLine
 62
7
  6
CONTINUOUS
 10
3.4227388055
 20
1.6994172457
 11
3.4282829
 21
1.7003412615
  0
LINE
  5
37D
100
AcDbEntity
  8
SST_PHO
100
AcDbLine
 62
7
  6
CONTINUOUS
 10
6.3620108527
 20
2.2557530725
 11
6.4130108527
 21
2.2597530725
  0
LINE
  5
37E
100
AcDbEntity
  8
SST_PHO
100
AcDbLine
 62
7
  6
CONTINUOUS
 10
5.9380108527
 20
2.0347530725
 11
5.6880108527
 21
2.0347530725
  0
LINE
  5
37F
100
AcDbEntity
  8
SST_PHO
100
AcDbLine
 62
7
  6
CONTINUOUS
 10
4.9380108527
 20
2.0347530725
 11
4.6880108527
 21
2.0347530725
  0
LINE
  5
380
100
AcDbEntity
  8
SST_PHO
100
AcDbLine
 62
7
  6
CONTINUOUS
 10
2.6380108527
 20
2.0347530725
 11
2.3880108527
 21
2.0347530725
  0
LINE
  5
381
100
AcDbEntity
  8
SST_PHO
100
AcDbLine
 62
7
  6
CONTINUOUS
 10
5.8848309315
 20
2.0581329937
 11
6.0648309315
 21
2.0581329937
  0
LINE
  5
382
100
AcDbEntity
  8
SST_PHO
100
AcDbLine
 62
7
  6
CONTINUOUS
 10
5.8846010102
 20
2.058512915
 11
6.0646010102
 21
2.058512915
  0
LINE
  5
383
100
AcDbEntity
  8
SST_PHO
100
AcDbLine
 62
7
  6
CONTINUOUS
 10
2.3130108527
 20
2.0847530725
 11
2.3880108527
 21
2.0847530725
  0
LINE
  5
384
100
AcDbEntity
  8
SST_PHO
100
AcDbLine
 62
7
  6
CONTINUOUS
 10
2.6380108527
 20
2.0847530725
 11
2.7130108527
 21
2.0847530725
  0
LINE
  5
385
100
AcDbEntity
  8
SST_PHO
100
AcDbLine
 62
7
  6
CONTINUOUS
 10
4.6130108527
 20
2.0847530725
 11
4.6880108527
 21
2.0847530725
  0
LINE
  5
386
100
AcDbEntity
  8
SST_PHO
100
AcDbLine
 62
7
  6
CONTINUOUS
 10
4.9380108527
 20
2.0847530725
 11
5.0130108527
 21
2.0847530725
  0
LINE
  5
387
100
AcDbEntity
  8
SST_PHO
100
AcDbLine
 62
7
  6
CONTINUOUS
 10
1.8130108527
 20
2.1097530725
 11
2.2130108527
 21
2.1097530725
  0
LINE
  5
388
100
AcDbEntity
  8
SST_PHO
100
AcDbLine
 62
7
  6
CONTINUOUS
 10
5.4130108527
 20
2.1347530725
 11
5.2130108527
 21
2.1347530725
  0
LINE
  5
389
100
AcDbEntity
  8
SST_PHO
100
AcDbLine
 62
7
  6
CONTINUOUS
 10
2.6380108527
 20
2.1347530725
 11
2.3880108527
 21
2.1347530725
  0
LINE
  5
38A
100
AcDbEntity
  8
SST_PHO
100
AcDbLine
 62
7
  6
CONTINUOUS
 10
4.0130108527
 20
2.1347530725
 11
4.4130108527
 21
2.1347530725
  0
LINE
  5
38B
100
AcDbEntity
  8
SST_PHO
100
AcDbLine
 62
7
  6
CONTINUOUS
 10
4.5130108527
 20
2.1347530725
 11
4.9380108527
 21
2.1347530725
  0
LINE
  5
38C
100
AcDbEntity
  8
SST_PHO
100
AcDbLine
 62
7
  6
CONTINUOUS
 10
2.3130108527
 20
2.1847530725
 11
2.3880108527
 21
2.1847530725
  0
LINE
  5
38D
100
AcDbEntity
  8
SST_PHO
100
AcDbLine
 62
7
  6
CONTINUOUS
 10
2.6380108527
 20
2.1847530725
 11
2.7130108527
 21
2.1847530725
  0
LINE
  5
38E
100
AcDbEntity
  8
SST_PHO
100
AcDbLine
 62
7
  6
CONTINUOUS
 10
5.2230108527
 20
2.1847530725
 11
5.4030108527
 21
2.1847530725
  0
LINE
  5
38F
100
AcDbEntity
  8
SST_PHO
100
AcDbLine
 62
7
  6
CONTINUOUS
 10
6.3630108527
 20
2.1847530725
 11
6.4630108527
 21
2.1847530725
  0
LINE
  5
390
100
AcDbEntity
  8
SST_PHO
100
AcDbLine
 62
7
  6
CONTINUOUS
 10
5.1830108527
 20
2.2347530725
 11
5.1130108527
 21
2.2347530725
  0
LINE
  5
391
100
AcDbEntity
  8
SST_PHO
100
AcDbLine
 62
7
  6
CONTINUOUS
 10
2.6380108527
 20
2.2347530725
 11
2.3880108527
 21
2.2347530725
  0
LINE
  5
392
100
AcDbEntity
  8
SST_PHO
100
AcDbLine
 62
7
  6
CONTINUOUS
 10
5.4430108527
 20
2.2347530725
 11
5.5130108527
 21
2.2347530725
  0
LINE
  5
393
100
AcDbEntity
  8
SST_PHO
100
AcDbLine
 62
7
  6
CONTINUOUS
 10
5.4030108527
 20
2.2847530725
 11
5.2230108527
 21
2.2847530725
  0
LINE
  5
394
100
AcDbEntity
  8
SST_PHO
100
AcDbLine
 62
7
  6
CONTINUOUS
 10
2.3130108527
 20
2.2847530725
 11
2.3880108527
 21
2.2847530725
  0
LINE
  5
395
100
AcDbEntity
  8
SST_PHO
100
AcDbLine
 62
7
  6
CONTINUOUS
 10
2.6380108527
 20
2.2847530725
 11
2.7130108527
 21
2.2847530725
  0
LINE
  5
396
100
AcDbEntity
  8
SST_PHO
100
AcDbLine
 62
7
  6
CONTINUOUS
 10
1.9630108527
 20
2.3097530725
 11
2.0630108527
 21
2.3097530725
  0
LINE
  5
397
100
AcDbEntity
  8
SST_PHO
100
AcDbLine
 62
7
  6
CONTINUOUS
 10
5.6080108527
 20
2.3097530725
 11
5.6880108527
 21
2.3097530725
  0
LINE
  5
398
100
AcDbEntity
  8
SST_PHO
100
AcDbLine
 62
7
  6
CONTINUOUS
 10
2.6380108527
 20
2.3347530725
 11
2.3880108527
 21
2.3347530725
  0
LINE
  5
399
100
AcDbEntity
  8
SST_PHO
100
AcDbLine
 62
7
  6
CONTINUOUS
 10
5.7730108527
 20
2.3347530725
 11
5.9530108527
 21
2.3347530725
  0
LINE
  5
39A
100
AcDbEntity
  8
SST_PHO
100
AcDbLine
 62
7
  6
CONTINUOUS
 10
6.4130108527
 20
2.2597530725
 11
6.4640108527
 21
2.2557530725
  0
LINE
  5
39B
100
AcDbEntity
  8
SST_PHO
100
AcDbLine
 62
7
  6
CONTINUOUS
 10
3.2090108527
 20
2.6827530725
 11
3.2030108527
 21
2.6847530725
  0
LINE
  5
39C
100
AcDbEntity
  8
SST_PHO
100
AcDbLine
 62
7
  6
CONTINUOUS
 10
3.6080108527
 20
2.5917530725
 11
3.6290108527
 21
2.5847530725
  0
LINE
  5
39D
100
AcDbEntity
  8
SST_PHO
100
AcDbLine
 62
7
  6
CONTINUOUS
 10
5.2080108527
 20
2.1917530725
 11
5.2290108527
 21
2.1847530725
  0
LINE
  5
39E
100
AcDbEntity
  8
SST_PHO
100
AcDbLine
 62
7
  6
CONTINUOUS
 10
3.8090108527
 20
2.6827530725
 11
3.8030108527
 21
2.6847530725
  0
LINE
  5
39F
100
AcDbEntity
  8
SST_PHO
100
AcDbLine
 62
7
  6
CONTINUOUS
 10
5.4090108527
 20
2.2827530725
 11
5.4030108527
 21
2.2847530725
  0
LINE
  5
3A0
100
AcDbEntity
  8
SST_PHO
100
AcDbLine
 62
7
  6
CONTINUOUS
 10
2.4970108527
 20
3.0697530725
 11
2.4610108527
 21
3.0837530725
  0
LINE
  5
3A1
100
AcDbEntity
  8
SST_PHO
100
AcDbLine
 62
7
  6
CONTINUOUS
 10
6.3130108527
 20
1.6257530725
 11
6.2650108527
 21
1.6447530725
  0
LINE
  5
3A2
100
AcDbEntity
  8
SST_PHO
100
AcDbLine
 62
7
  6
CONTINUOUS
 10
2.5850108527
 20
3.3977530725
 11
2.6200108527
 21
3.3837530725
  0
LINE
  5
3A3
100
AcDbEntity
  8
SST_PHO
100
AcDbLine
 62
7
  6
CONTINUOUS
 10
3.8280108527
 20
2.6717530725
 11
3.8090108527
 21
2.6827530725
  0
LINE
  5
3A4
100
AcDbEntity
  8
SST_PHO
100
AcDbLine
 62
7
  6
CONTINUOUS
 10
4.9340108527
 20
1.8137530725
 11
4.9180108527
 21
1.8277530725
  0
LINE
  5
3A5
100
AcDbEntity
  8
SST_PHO
100
AcDbLine
 62
7
  6
CONTINUOUS
 10
4.6860108527
 20
1.7657530725
 11
4.6980108527
 21
1.7477530725
  0
LINE
  5
3A6
100
AcDbEntity
  8
SST_PHO
100
AcDbLine
 62
7
  6
CONTINUOUS
 10
3.1880108527
 20
4.4757530725
 11
3.1730108527
 21
4.5087530725
  0
LINE
  5
3A7
100
AcDbEntity
  8
SST_PHO
100
AcDbLine
 62
7
  6
CONTINUOUS
 10
3.8440108527
 20
2.6317530725
 11
3.8400108527
 21
2.6537530725
  0
LINE
  5
3A8
100
AcDbEntity
  8
SST_PHO
100
AcDbLine
 62
7
  6
CONTINUOUS
 10
3.5445108527
 20
1.6472530725
 11
3.5438108527
 21
1.6535530725
  0
LINE
  5
3A9
100
AcDbEntity
  8
SST_PHO
100
AcDbLine
 62
7
  6
CONTINUOUS
 10
3.6460108527
 20
1.6272530725
 11
3.6460108527
 21
1.6997530725
  0
LINE
  5
3AA
100
AcDbEntity
  8
SST_PHO
100
AcDbLine
 62
7
  6
CONTINUOUS
 10
3.6530108527
 20
1.6997530725
 11
3.6530108527
 21
1.6667530725
  0
LINE
  5
3AB
100
AcDbEntity
  8
SST_PHO
100
AcDbLine
 62
7
  6
CONTINUOUS
 10
3.6530108527
 20
1.6587530725
 11
3.6530108527
 21
1.6272530725
  0
LINE
  5
3AC
100
AcDbEntity
  8
SST_PHO
100
AcDbLine
 62
7
  6
CONTINUOUS
 10
3.6957108527
 20
1.6267530725
 11
3.6957108527
 21
1.6587530725
  0
LINE
  5
3AD
100
AcDbEntity
  8
SST_PHO
100
AcDbLine
 62
7
  6
CONTINUOUS
 10
3.6957108527
 20
1.6667530725
 11
3.6957108527
 21
1.6997530725
  0
LINE
  5
3AE
100
AcDbEntity
  8
SST_PHO
100
AcDbLine
 62
7
  6
CONTINUOUS
 10
3.7030108527
 20
1.6997530725
 11
3.7030108527
 21
1.6267530725
  0
LINE
  5
3AF
100
AcDbEntity
  8
SST_PHO
100
AcDbLine
 62
7
  6
CONTINUOUS
 10
3.7230108527
 20
4.4097530725
 11
3.7230108527
 21
4.0697530725
  0
LINE
  5
3B0
100
AcDbEntity
  8
SST_PHO
100
AcDbLine
 62
7
  6
CONTINUOUS
 10
3.7240108527
 20
4.0707530725
 11
3.7240108527
 21
4.0717530725
  0
LINE
  5
3B1
100
AcDbEntity
  8
SST_PHO
100
AcDbLine
 62
7
  6
CONTINUOUS
 10
3.7240108527
 20
4.4067530725
 11
3.7240108527
 21
4.4087530725
  0
LINE
  5
3B2
100
AcDbEntity
  8
SST_PHO
100
AcDbLine
 62
7
  6
CONTINUOUS
 10
3.7250108527
 20
4.0717530725
 11
3.7250108527
 21
4.0797530725
  0
LINE
  5
3B3
100
AcDbEntity
  8
SST_PHO
100
AcDbLine
 62
7
  6
CONTINUOUS
 10
3.7250108527
 20
4.3997530725
 11
3.7250108527
 21
4.4067530725
  0
LINE
  5
3B4
100
AcDbEntity
  8
SST_PHO
100
AcDbLine
 62
7
  6
CONTINUOUS
 10
3.7330108527
 20
4.4487530725
 11
3.7330108527
 21
4.4097530725
  0
LINE
  5
3B5
100
AcDbEntity
  8
SST_PHO
100
AcDbLine
 62
7
  6
CONTINUOUS
 10
3.7330108527
 20
4.3997530725
 11
3.7330108527
 21
4.0797530725
  0
LINE
  5
3B6
100
AcDbEntity
  8
SST_PHO
100
AcDbLine
 62
7
  6
CONTINUOUS
 10
3.7400108527
 20
4.4067530725
 11
3.7400108527
 21
4.3997530725
  0
LINE
  5
3B7
100
AcDbEntity
  8
SST_PHO
100
AcDbLine
 62
7
  6
CONTINUOUS
 10
3.7400108527
 20
4.0797530725
 11
3.7400108527
 21
4.0717530725
  0
LINE
  5
3B8
100
AcDbEntity
  8
SST_PHO
100
AcDbLine
 62
7
  6
CONTINUOUS
 10
3.7420108527
 20
4.4087530725
 11
3.7420108527
 21
4.4067530725
  0
LINE
  5
3B9
100
AcDbEntity
  8
SST_PHO
100
AcDbLine
 62
7
  6
CONTINUOUS
 10
3.7420108527
 20
4.0717530725
 11
3.7420108527
 21
4.0707530725
  0
LINE
  5
3BA
100
AcDbEntity
  8
SST_PHO
100
AcDbLine
 62
7
  6
CONTINUOUS
 10
3.7430108527
 20
4.4097530725
 11
3.7430108527
 21
4.0697530725
  0
LINE
  5
3BB
100
AcDbEntity
  8
SST_PHO
100
AcDbLine
 62
7
  6
CONTINUOUS
 10
3.7430108527
 20
3.3047530725
 11
3.7430108527
 21
3.1847530725
  0
LINE
  5
3BC
100
AcDbEntity
  8
SST_PHO
100
AcDbLine
 62
7
  6
CONTINUOUS
 10
3.7430108527
 20
3.0847530725
 11
3.7430108527
 21
2.9647530725
  0
LINE
  5
3BD
100
AcDbEntity
  8
SST_PHO
100
AcDbLine
 62
7
  6
CONTINUOUS
 10
3.7830108527
 20
3.3047530725
 11
3.7830108527
 21
3.1847530725
  0
LINE
  5
3BE
100
AcDbEntity
  8
SST_PHO
100
AcDbLine
 62
7
  6
CONTINUOUS
 10
3.7830108527
 20
3.0847530725
 11
3.7830108527
 21
2.9647530725
  0
LINE
  5
3BF
100
AcDbEntity
  8
SST_PHO
100
AcDbLine
 62
7
  6
CONTINUOUS
 10
3.8130108527
 20
1.7347530725
 11
3.8130108527
 21
2.5347530725
  0
LINE
  5
3C0
100
AcDbEntity
  8
SST_PHO
100
AcDbLine
 62
7
  6
CONTINUOUS
 10
3.8380108527
 20
2.6847530725
 11
3.8380108527
 21
2.8847530725
  0
LINE
  5
3C1
100
AcDbEntity
  8
SST_PHO
100
AcDbLine
 62
7
  6
CONTINUOUS
 10
3.9930108527
 20
4.4497530725
 11
3.9930108527
 21
4.4097530725
  0
LINE
  5
3C2
100
AcDbEntity
  8
SST_PHO
100
AcDbLine
 62
7
  6
CONTINUOUS
 10
4.0030108527
 20
4.0697530725
 11
4.0030108527
 21
4.4097530725
  0
LINE
  5
3C3
100
AcDbEntity
  8
SST_PHO
100
AcDbLine
 62
7
  6
CONTINUOUS
 10
4.0130108527
 20
3.3047530725
 11
4.0130108527
 21
3.1847530725
  0
LINE
  5
3C4
100
AcDbEntity
  8
SST_PHO
100
AcDbLine
 62
7
  6
CONTINUOUS
 10
4.0130108527
 20
3.0847530725
 11
4.0130108527
 21
2.9647530725
  0
LINE
  5
3C5
100
AcDbEntity
  8
SST_PHO
100
AcDbLine
 62
7
  6
CONTINUOUS
 10
4.0130108527
 20
2.9347530725
 11
4.0130108527
 21
2.1347530725
  0
LINE
  5
3C6
100
AcDbEntity
  8
SST_PHO
100
AcDbLine
 62
7
  6
CONTINUOUS
 10
3.5850108527
 20
2.6477530725
 11
3.5840108527
 21
2.6257530725
  0
LINE
  5
3C7
100
AcDbEntity
  8
SST_PHO
100
AcDbLine
 62
7
  6
CONTINUOUS
 10
3.5438108527
 20
1.6395530725
 11
3.5445108527
 21
1.6472530725
  0
LINE
  5
3C8
100
AcDbEntity
  8
SST_PHO
100
AcDbLine
 62
7
  6
CONTINUOUS
 10
3.3825077031
 20
1.6811436237
 11
3.3818462858
 21
1.674528663
  0
LINE
  5
3C9
100
AcDbEntity
  8
SST_PHO
100
AcDbLine
 62
7
  6
CONTINUOUS
 10
3.3801510102
 20
1.680362915
 11
3.3795206953
 21
1.674062915
  0
LINE
  5
3CA
100
AcDbEntity
  8
SST_PHO
100
AcDbLine
 62
7
  6
CONTINUOUS
 10
3.3961108527
 20
1.6668530725
 11
3.3968108527
 21
1.6731530725
  0
LINE
  5
3CB
100
AcDbEntity
  8
SST_PHO
100
AcDbLine
 62
7
  6
CONTINUOUS
 10
3.3826706953
 20
1.6450829937
 11
3.382040774
 21
1.64004323
  0
LINE
  5
3CC
100
AcDbEntity
  8
SST_PHO
100
AcDbLine
 62
7
  6
CONTINUOUS
 10
3.3851537661
 20
1.6440995292
 11
3.3844923488
 21
1.6388074032
  0
LINE
  5
3CD
100
AcDbEntity
  8
SST_PHO
100
AcDbLine
 62
7
  6
CONTINUOUS
 10
3.5641108527
 20
1.6794530725
 11
3.5620108527
 21
1.6668530725
  0
LINE
  5
3CE
100
AcDbEntity
  8
SST_PHO
100
AcDbLine
 62
7
  6
CONTINUOUS
 10
3.4024108527
 20
1.6735451985
 11
3.4042588842
 21
1.6827849623
  0
LINE
  5
3CF
100
AcDbEntity
  8
SST_PHO
100
AcDbLine
 62
7
  6
CONTINUOUS
 10
3.4052108527
 20
1.6735731512
 11
3.406890774
 21
1.6819731512
  0
LINE
  5
3D0
100
AcDbEntity
  8
SST_PHO
100
AcDbLine
 62
7
  6
CONTINUOUS
 10
3.4101108527
 20
1.6710530725
 11
3.4115108527
 21
1.6780530725
  0
LINE
  5
3D1
100
AcDbEntity
  8
SST_PHO
100
AcDbLine
 62
7
  6
CONTINUOUS
 10
3.7410108527
 20
4.4837530725
 11
3.7330108527
 21
4.4487530725
  0
LINE
  5
3D2
100
AcDbEntity
  8
SST_PHO
100
AcDbLine
 62
7
  6
CONTINUOUS
 10
3.2380108527
 20
2.6107530725
 11
3.2440108527
 21
2.6317530725
  0
LINE
  5
3D3
100
AcDbEntity
  8
SST_PHO
100
AcDbLine
 62
7
  6
CONTINUOUS
 10
3.7580108527
 20
4.5157530725
 11
3.7410108527
 21
4.4837530725
  0
LINE
  5
3D4
100
AcDbEntity
  8
SST_PHO
100
AcDbLine
 62
7
  6
CONTINUOUS
 10
2.6910108527
 20
3.1597530725
 11
2.6700108527
 21
3.1277530725
  0
LINE
  5
3D5
100
AcDbEntity
  8
SST_PHO
100
AcDbLine
 62
7
  6
CONTINUOUS
 10
3.0140108527
 20
4.5607530725
 11
2.9830108527
 21
4.5417530725
  0
LINE
  5
3D6
100
AcDbEntity
  8
SST_PHO
100
AcDbLine
 62
7
  6
CONTINUOUS
 10
5.2330108527
 20
2.2847530725
 11
5.2120108527
 21
2.2797530725
  0
LINE
  5
3D7
100
AcDbEntity
  8
SST_PHO
100
AcDbLine
 62
7
  6
CONTINUOUS
 10
5.9430108527
 20
2.7347530725
 11
5.9640108527
 21
2.7397530725
  0
LINE
  5
3D8
100
AcDbEntity
  8
SST_PHO
100
AcDbLine
 62
7
  6
CONTINUOUS
 10
5.7330108527
 20
2.3847530725
 11
5.6630108527
 21
2.3847530725
  0
LINE
  5
3D9
100
AcDbEntity
  8
SST_PHO
100
AcDbLine
 62
7
  6
CONTINUOUS
 10
2.3130108527
 20
2.3847530725
 11
2.3880108527
 21
2.3847530725
  0
LINE
  5
3DA
100
AcDbEntity
  8
SST_PHO
100
AcDbLine
 62
7
  6
CONTINUOUS
 10
2.6380108527
 20
2.3847530725
 11
2.7130108527
 21
2.3847530725
  0
LINE
  5
3DB
100
AcDbEntity
  8
SST_PHO
100
AcDbLine
 62
7
  6
CONTINUOUS
 10
5.9930108527
 20
2.3847530725
 11
6.0630108527
 21
2.3847530725
  0
LINE
  5
3DC
100
AcDbEntity
  8
SST_PHO
100
AcDbLine
 62
7
  6
CONTINUOUS
 10
6.3130108527
 20
2.3847530725
 11
6.5130108527
 21
2.3847530725
  0
LINE
  5
3DD
100
AcDbEntity
  8
SST_PHO
100
AcDbLine
 62
7
  6
CONTINUOUS
 10
5.3880108527
 20
2.4097530725
 11
5.0880108527
 21
2.4097530725
  0
LINE
  5
3DE
100
AcDbEntity
  8
SST_PHO
100
AcDbLine
 62
7
  6
CONTINUOUS
 10
5.3130108527
 20
2.4147530725
 11
5.3230108527
 21
2.4147530725
  0
LINE
  5
3DF
100
AcDbEntity
  8
SST_PHO
100
AcDbLine
 62
7
  6
CONTINUOUS
 10
2.6380108527
 20
2.4347530725
 11
2.3880108527
 21
2.4347530725
  0
LINE
  5
3E0
100
AcDbEntity
  8
SST_PHO
100
AcDbLine
 62
7
  6
CONTINUOUS
 10
5.7380108527
 20
2.4347530725
 11
5.9880108527
 21
2.4347530725
  0
LINE
  5
3E1
100
AcDbEntity
  8
SST_PHO
100
AcDbLine
 62
7
  6
CONTINUOUS
 10
5.4380108527
 20
2.4597530725
 11
5.3880108527
 21
2.4597530725
  0
LINE
  5
3E2
100
AcDbEntity
  8
SST_PHO
100
AcDbLine
 62
7
  6
CONTINUOUS
 10
2.1630108527
 20
2.4597530725
 11
1.8630108527
 21
2.4597530725
  0
LINE
  5
3E3
100
AcDbEntity
  8
SST_PHO
100
AcDbLine
 62
7
  6
CONTINUOUS
 10
5.0380108527
 20
2.4597530725
 11
5.0880108527
 21
2.4597530725
  0
LINE
  5
3E4
100
AcDbEntity
  8
SST_PHO
100
AcDbLine
 62
7
  6
CONTINUOUS
 10
6.0630108527
 20
2.4847530725
 11
5.9880108527
 21
2.4847530725
  0
LINE
  5
3E5
100
AcDbEntity
  8
SST_PHO
100
AcDbLine
 62
7
  6
CONTINUOUS
 10
5.7380108527
 20
2.4847530725
 11
5.6630108527
 21
2.4847530725
  0
LINE
  5
3E6
100
AcDbEntity
  8
SST_PHO
100
AcDbLine
 62
7
  6
CONTINUOUS
 10
2.3830108527
 20
2.4847530725
 11
2.3130108527
 21
2.4847530725
  0
LINE
  5
3E7
100
AcDbEntity
  8
SST_PHO
100
AcDbLine
 62
7
  6
CONTINUOUS
 10
2.6430108527
 20
2.4847530725
 11
2.7130108527
 21
2.4847530725
  0
LINE
  5
3E8
100
AcDbEntity
  8
SST_PHO
100
AcDbLine
 62
7
  6
CONTINUOUS
 10
5.3230108527
 20
2.5047530725
 11
5.3130108527
 21
2.5047530725
  0
LINE
  5
3E9
100
AcDbEntity
  8
SST_PHO
100
AcDbLine
 62
7
  6
CONTINUOUS
 10
5.0880108527
 20
2.5097530725
 11
5.3880108527
 21
2.5097530725
  0
LINE
  5
3EA
100
AcDbEntity
  8
SST_PHO
100
AcDbLine
 62
7
  6
CONTINUOUS
 10
5.9880108527
 20
2.5347530725
 11
5.7380108527
 21
2.5347530725
  0
LINE
  5
3EB
100
AcDbEntity
  8
SST_PHO
100
AcDbLine
 62
7
  6
CONTINUOUS
 10
5.3880108527
 20
2.5347530725
 11
5.0880108527
 21
2.5347530725
  0
LINE
  5
3EC
100
AcDbEntity
  8
SST_PHO
100
AcDbLine
 62
7
  6
CONTINUOUS
 10
3.8130108527
 20
2.5347530725
 11
3.6130108527
 21
2.5347530725
  0
LINE
  5
3ED
100
AcDbEntity
  8
SST_PHO
100
AcDbLine
 62
7
  6
CONTINUOUS
 10
3.2130108527
 20
2.5347530725
 11
3.0130108527
 21
2.5347530725
  0
LINE
  5
3EE
100
AcDbEntity
  8
SST_PHO
100
AcDbLine
 62
7
  6
CONTINUOUS
 10
2.6030108527
 20
2.5347530725
 11
2.4230108527
 21
2.5347530725
  0
LINE
  5
3EF
100
AcDbEntity
  8
SST_PHO
100
AcDbLine
 62
7
  6
CONTINUOUS
 10
5.3130108527
 20
2.5397530725
 11
5.3230108527
 21
2.5397530725
  0
LINE
  5
3F0
100
AcDbEntity
  8
SST_PHO
100
AcDbLine
 62
7
  6
CONTINUOUS
 10
5.4380108527
 20
2.5847530725
 11
5.3880108527
 21
2.5847530725
  0
LINE
  5
3F1
100
AcDbEntity
  8
SST_PHO
100
AcDbLine
 62
7
  6
CONTINUOUS
 10
2.3830108527
 20
2.5847530725
 11
2.3130108527
 21
2.5847530725
  0
LINE
  5
3F2
100
AcDbEntity
  8
SST_PHO
100
AcDbLine
 62
7
  6
CONTINUOUS
 10
2.6430108527
 20
2.5847530725
 11
2.7130108527
 21
2.5847530725
  0
LINE
  5
3F3
100
AcDbEntity
  8
SST_PHO
100
AcDbLine
 62
7
  6
CONTINUOUS
 10
3.0230108527
 20
2.5847530725
 11
3.2030108527
 21
2.5847530725
  0
LINE
  5
3F4
100
AcDbEntity
  8
SST_PHO
100
AcDbLine
 62
7
  6
CONTINUOUS
 10
3.6230108527
 20
2.5847530725
 11
3.8030108527
 21
2.5847530725
  0
LINE
  5
3F5
100
AcDbEntity
  8
SST_PHO
100
AcDbLine
 62
7
  6
CONTINUOUS
 10
5.0380108527
 20
2.5847530725
 11
5.0880108527
 21
2.5847530725
  0
LINE
  5
3F6
100
AcDbEntity
  8
SST_PHO
100
AcDbLine
 62
7
  6
CONTINUOUS
 10
5.6630108527
 20
2.5847530725
 11
5.7380108527
 21
2.5847530725
  0
LINE
  5
3F7
100
AcDbEntity
  8
SST_PHO
100
AcDbLine
 62
7
  6
CONTINUOUS
 10
5.9880108527
 20
2.5847530725
 11
6.0630108527
 21
2.5847530725
  0
LINE
  5
3F8
100
AcDbEntity
  8
SST_PHO
100
AcDbLine
 62
7
  6
CONTINUOUS
 10
5.3230108527
 20
2.6297530725
 11
5.3130108527
 21
2.6297530725
  0
LINE
  5
3F9
100
AcDbEntity
  8
SST_PHO
100
AcDbLine
 62
7
  6
CONTINUOUS
 10
5.9880108527
 20
2.6347530725
 11
5.7380108527
 21
2.6347530725
  0
LINE
  5
3FA
100
AcDbEntity
  8
SST_PHO
100
AcDbLine
 62
7
  6
CONTINUOUS
 10
3.5830108527
 20
2.6347530725
 11
3.5130108527
 21
2.6347530725
  0
LINE
  5
3FB
100
AcDbEntity
  8
SST_PHO
100
AcDbLine
 62
7
  6
CONTINUOUS
 10
2.9830108527
 20
2.6347530725
 11
2.9130108527
 21
2.6347530725
  0
LINE
  5
3FC
100
AcDbEntity
  8
SST_PHO
100
AcDbLine
 62
7
  6
CONTINUOUS
 10
2.3630108527
 20
2.6347530725
 11
2.7630108527
 21
2.6347530725
  0
LINE
  5
3FD
100
AcDbEntity
  8
SST_PHO
100
AcDbLine
 62
7
  6
CONTINUOUS
 10
3.2430108527
 20
2.6347530725
 11
3.3130108527
 21
2.6347530725
  0
LINE
  5
3FE
100
AcDbEntity
  8
SST_PHO
100
AcDbLine
 62
7
  6
CONTINUOUS
 10
3.8430108527
 20
2.6347530725
 11
3.9130108527
 21
2.6347530725
  0
LINE
  5
3FF
100
AcDbEntity
  8
SST_PHO
100
AcDbLine
 62
7
  6
CONTINUOUS
 10
5.0880108527
 20
2.6347530725
 11
5.3880108527
 21
2.6347530725
  0
LINE
  5
400
100
AcDbEntity
  8
SST_PHO
100
AcDbLine
 62
7
  6
CONTINUOUS
 10
2.6150108527
 20
2.6427530725
 11
2.5870108527
 21
2.6427530725
  0
LINE
  5
401
100
AcDbEntity
  8
SST_PHO
100
AcDbLine
 62
7
  6
CONTINUOUS
 10
2.4100108527
 20
2.6427530725
 11
2.3920108527
 21
2.6427530725
  0
LINE
  5
402
100
AcDbEntity
  8
SST_PHO
100
AcDbLine
 62
7
  6
CONTINUOUS
 10
2.6430108527
 20
2.6427530725
 11
2.6810108527
 21
2.6427530725
  0
LINE
  5
403
100
AcDbEntity
  8
SST_PHO
100
AcDbLine
 62
7
  6
CONTINUOUS
 10
5.3880108527
 20
2.6597530725
 11
5.0880108527
 21
2.6597530725
  0
LINE
  5
404
100
AcDbEntity
  8
SST_PHO
100
AcDbLine
 62
7
  6
CONTINUOUS
 10
5.3130108527
 20
2.6647530725
 11
5.3230108527
 21
2.6647530725
  0
LINE
  5
405
100
AcDbEntity
  8
SST_PHO
100
AcDbLine
 62
7
  6
CONTINUOUS
 10
2.7090108527
 20
2.6747530725
 11
2.6990108527
 21
2.6747530725
  0
LINE
  5
406
100
AcDbEntity
  8
SST_PHO
100
AcDbLine
 62
7
  6
CONTINUOUS
 10
2.6150108527
 20
2.6747530725
 11
2.5870108527
 21
2.6747530725
  0
LINE
  5
407
100
AcDbEntity
  8
SST_PHO
100
AcDbLine
 62
7
  6
CONTINUOUS
 10
2.4660108527
 20
2.6747530725
 11
2.4380108527
 21
2.6747530725
  0
LINE
  5
408
100
AcDbEntity
  8
SST_PHO
100
AcDbLine
 62
7
  6
CONTINUOUS
 10
2.4010108527
 20
2.6747530725
 11
2.4200108527
 21
2.6747530725
  0
LINE
  5
409
100
AcDbEntity
  8
SST_PHO
100
AcDbLine
 62
7
  6
CONTINUOUS
 10
2.9880108527
 20
2.6847530725
 11
3.2380108527
 21
2.6847530725
  0
LINE
  5
40A
100
AcDbEntity
  8
SST_PHO
100
AcDbLine
 62
7
  6
CONTINUOUS
 10
3.5880108527
 20
2.6847530725
 11
3.8380108527
 21
2.6847530725
  0
LINE
  5
40B
100
AcDbEntity
  8
SST_PHO
100
AcDbLine
 62
7
  6
CONTINUOUS
 10
5.6630108527
 20
2.6847530725
 11
5.7380108527
 21
2.6847530725
  0
LINE
  5
40C
100
AcDbEntity
  8
SST_PHO
100
AcDbLine
 62
7
  6
CONTINUOUS
 10
5.9880108527
 20
2.6847530725
 11
6.0630108527
 21
2.6847530725
  0
LINE
  5
40D
100
AcDbEntity
  8
SST_PHO
100
AcDbLine
 62
7
  6
CONTINUOUS
 10
2.3920108527
 20
2.7067530725
 11
2.4100108527
 21
2.7067530725
  0
LINE
  5
40E
100
AcDbEntity
  8
SST_PHO
100
AcDbLine
 62
7
  6
CONTINUOUS
 10
2.4380108527
 20
2.7067530725
 11
2.4660108527
 21
2.7067530725
  0
LINE
  5
40F
100
AcDbEntity
  8
SST_PHO
100
AcDbLine
 62
7
  6
CONTINUOUS
 10
2.5870108527
 20
2.7067530725
 11
2.6150108527
 21
2.7067530725
  0
LINE
  5
410
100
AcDbEntity
  8
SST_PHO
100
AcDbLine
 62
7
  6
CONTINUOUS
 10
5.4380108527
 20
2.7097530725
 11
5.3880108527
 21
2.7097530725
  0
LINE
  5
411
100
AcDbEntity
  8
SST_PHO
100
AcDbLine
 62
7
  6
CONTINUOUS
 10
5.0380108527
 20
2.7097530725
 11
5.0880108527
 21
2.7097530725
  0
LINE
  5
412
100
AcDbEntity
  8
SST_PHO
100
AcDbLine
 62
7
  6
CONTINUOUS
 10
5.9880108527
 20
2.7347530725
 11
5.7380108527
 21
2.7347530725
  0
LINE
  5
413
100
AcDbEntity
  8
SST_PHO
100
AcDbLine
 62
7
  6
CONTINUOUS
 10
2.9130108527
 20
2.7347530725
 11
2.9880108527
 21
2.7347530725
  0
LINE
  5
414
100
AcDbEntity
  8
SST_PHO
100
AcDbLine
 62
7
  6
CONTINUOUS
 10
3.2380108527
 20
2.7347530725
 11
3.3130108527
 21
2.7347530725
  0
LINE
  5
415
100
AcDbEntity
  8
SST_PHO
100
AcDbLine
 62
7
  6
CONTINUOUS
 10
3.5130108527
 20
2.7347530725
 11
3.5880108527
 21
2.7347530725
  0
LINE
  5
416
100
AcDbEntity
  8
SST_PHO
100
AcDbLine
 62
7
  6
CONTINUOUS
 10
3.8380108527
 20
2.7347530725
 11
3.9130108527
 21
2.7347530725
  0
LINE
  5
417
100
AcDbEntity
  8
SST_PHO
100
AcDbLine
 62
7
  6
CONTINUOUS
 10
5.3230108527
 20
2.7547530725
 11
5.3130108527
 21
2.7547530725
  0
LINE
  5
418
100
AcDbEntity
  8
SST_PHO
100
AcDbLine
 62
7
  6
CONTINUOUS
 10
2.7630108527
 20
2.7597530725
 11
2.3630108527
 21
2.7597530725
  0
LINE
  5
419
100
AcDbEntity
  8
SST_PHO
100
AcDbLine
 62
7
  6
CONTINUOUS
 10
5.0880108527
 20
2.7597530725
 11
5.3880108527
 21
2.7597530725
  0
LINE
  5
41A
100
AcDbEntity
  8
SST_PHO
100
AcDbLine
 62
7
  6
CONTINUOUS
 10
2.5350108527
 20
3.0647530725
 11
2.4970108527
 21
3.0697530725
  0
LINE
  5
41B
100
AcDbEntity
  8
SST_PHO
100
AcDbLine
 62
7
  6
CONTINUOUS
 10
6.4640108527
 20
2.2557530725
 11
6.5130108527
 21
2.2437530725
  0
LINE
  5
41C
100
AcDbEntity
  8
SST_PHO
100
AcDbLine
 62
7
  6
CONTINUOUS
 10
5.7670108527
 20
2.3367530725
 11
5.7730108527
 21
2.3347530725
  0
LINE
  5
41D
100
AcDbEntity
  8
SST_PHO
100
AcDbLine
 62
7
  6
CONTINUOUS
 10
5.9680108527
 20
2.4277530725
 11
5.9470108527
 21
2.4347530725
  0
LINE
  5
41E
100
AcDbEntity
  8
SST_PHO
100
AcDbLine
 62
7
  6
CONTINUOUS
 10
6.5130108527
 20
2.2437530725
 11
6.5610108527
 21
2.2247530725
  0
LINE
  5
41F
100
AcDbEntity
  8
SST_PHO
100
AcDbLine
 62
7
  6
CONTINUOUS
 10
5.4280108527
 20
2.2717530725
 11
5.4090108527
 21
2.2827530725
  0
LINE
  5
420
100
AcDbEntity
  8
SST_PHO
100
AcDbLine
 62
7
  6
CONTINUOUS
 10
5.7480108527
 20
2.3477530725
 11
5.7670108527
 21
2.3367530725
  0
LINE
  5
421
100
AcDbEntity
  8
SST_PHO
100
AcDbLine
 62
7
  6
CONTINUOUS
 10
6.2650108527
 20
1.6447530725
 11
6.2220108527
 21
1.6717530725
  0
LINE
  5
422
100
AcDbEntity
  8
SST_PHO
100
AcDbLine
 62
7
  6
CONTINUOUS
 10
5.6810108527
 20
2.1507530725
 11
5.7030108527
 21
2.1347530725
  0
LINE
  5
423
100
AcDbEntity
  8
SST_PHO
100
AcDbLine
 62
7
  6
CONTINUOUS
 10
6.2220108527
 20
1.6717530725
 11
6.1830108527
 21
1.7047530725
  0
LINE
  5
424
100
AcDbEntity
  8
SST_PHO
100
AcDbLine
 62
7
  6
CONTINUOUS
 10
5.1920108527
 20
2.2057530725
 11
5.2080108527
 21
2.1917530725
  0
LINE
  5
425
100
AcDbEntity
  8
SST_PHO
100
AcDbLine
 62
7
  6
CONTINUOUS
 10
5.2630108527
 20
2.1347530725
 11
5.3130108527
 21
2.0847530725
  0
LINE
  5
426
100
AcDbEntity
  8
SST_PHO
100
AcDbLine
 62
7
  6
CONTINUOUS
 10
3.1730108527
 20
4.5087530725
 11
3.1500108527
 21
4.5367530725
  0
LINE
  5
427
100
AcDbEntity
  8
SST_PHO
100
AcDbLine
 62
7
  6
CONTINUOUS
 10
4.1230108527
 20
1.6947530725
 11
4.1230108527
 21
1.9747530725
  0
LINE
  5
428
100
AcDbEntity
  8
SST_PHO
100
AcDbLine
 62
7
  6
CONTINUOUS
 10
4.1630108527
 20
3.4097530725
 11
4.1630108527
 21
4.0597530725
  0
LINE
  5
429
100
AcDbEntity
  8
SST_PHO
100
AcDbLine
 62
7
  6
CONTINUOUS
 10
3.5676108527
 20
1.6689530725
 11
3.5690108527
 21
1.6752530725
  0
LINE
  5
42A
100
AcDbEntity
  8
SST_PHO
100
AcDbLine
 62
7
  6
CONTINUOUS
 10
3.3968108527
 20
1.6731530725
 11
3.3982108527
 21
1.6787530725
  0
LINE
  5
42B
100
AcDbEntity
  8
SST_PHO
100
AcDbLine
 62
7
  6
CONTINUOUS
 10
3.4577108527
 20
1.6556530725
 11
3.4563108527
 21
1.6500530725
  0
LINE
  5
42C
100
AcDbEntity
  8
SST_PHO
100
AcDbLine
 62
7
  6
CONTINUOUS
 10
3.4623309315
 20
1.65509323
 11
3.4606510102
 21
1.6483731512
  0
LINE
  5
42D
100
AcDbEntity
  8
SST_PHO
100
AcDbLine
 62
7
  6
CONTINUOUS
 10
3.4652427425
 20
1.6532172457
 11
3.463394711
 21
1.6458251197
  0
LINE
  5
42E
100
AcDbEntity
  8
SST_PHO
100
AcDbLine
 62
7
  6
CONTINUOUS
 10
3.4871108527
 20
1.6899530725
 11
3.4857108527
 21
1.6843530725
  0
LINE
  5
42F
100
AcDbEntity
  8
SST_PHO
100
AcDbLine
 62
7
  6
CONTINUOUS
 10
3.4703108527
 20
1.6535530725
 11
3.4682108527
 21
1.6458530725
  0
LINE
  5
430
100
AcDbEntity
  8
SST_PHO
100
AcDbLine
 62
7
  6
CONTINUOUS
 10
3.8380108527
 20
2.6107530725
 11
3.8440108527
 21
2.6317530725
  0
LINE
  5
431
100
AcDbEntity
  8
SST_PHO
100
AcDbLine
 62
7
  6
CONTINUOUS
 10
2.9950108527
 20
2.6667530725
 11
2.9850108527
 21
2.6477530725
  0
LINE
  5
432
100
AcDbEntity
  8
SST_PHO
100
AcDbLine
 62
7
  6
CONTINUOUS
 10
2.6240108527
 20
2.5437530725
 11
2.6380108527
 21
2.5607530725
  0
LINE
  5
433
100
AcDbEntity
  8
SST_PHO
100
AcDbLine
 62
7
  6
CONTINUOUS
 10
2.3820108527
 20
2.6957530725
 11
2.3920108527
 21
2.7067530725
  0
LINE
  5
434
100
AcDbEntity
  8
SST_PHO
100
AcDbLine
 62
7
  6
CONTINUOUS
 10
2.4200108527
 20
2.6537530725
 11
2.4100108527
 21
2.6427530725
  0
LINE
  5
435
100
AcDbEntity
  8
SST_PHO
100
AcDbLine
 62
7
  6
CONTINUOUS
 10
2.4760108527
 20
2.6857530725
 11
2.4660108527
 21
2.6747530725
  0
LINE
  5
436
100
AcDbEntity
  8
SST_PHO
100
AcDbLine
 62
7
  6
CONTINUOUS
 10
3.7830108527
 20
4.5417530725
 11
3.7580108527
 21
4.5157530725
  0
LINE
  5
437
100
AcDbEntity
  8
SST_PHO
100
AcDbLine
 62
7
  6
CONTINUOUS
 10
2.6700108527
 20
3.1277530725
 11
2.6430108527
 21
3.1007530725
  0
LINE
  5
438
100
AcDbEntity
  8
SST_PHO
100
AcDbLine
 62
7
  6
CONTINUOUS
 10
2.4100108527
 20
3.3467530725
 11
2.4380108527
 21
3.3727530725
  0
LINE
  5
439
100
AcDbEntity
  8
SST_PHO
100
AcDbLine
 62
7
  6
CONTINUOUS
 10
3.8140108527
 20
4.5607530725
 11
3.7830108527
 21
4.5417530725
  0
LINE
  5
43A
100
AcDbEntity
  8
SST_PHO
100
AcDbLine
 62
7
  6
CONTINUOUS
 10
6.1330108527
 20
2.9847530725
 11
6.1120108527
 21
2.9797530725
  0
LINE
  5
43B
100
AcDbEntity
  8
SST_PHO
100
AcDbLine
 62
7
  6
CONTINUOUS
 10
6.2930108527
 20
3.2847530725
 11
6.3140108527
 21
3.2897530725
  0
LINE
  5
43C
100
AcDbEntity
  8
SST_PHO
100
AcDbLine
 62
7
  6
CONTINUOUS
 10
2.3630108527
 20
2.7747530725
 11
2.7630108527
 21
2.7747530725
  0
LINE
  5
43D
100
AcDbEntity
  8
SST_PHO
100
AcDbLine
 62
7
  6
CONTINUOUS
 10
6.5130108527
 20
2.7847530725
 11
6.3130108527
 21
2.7847530725
  0
LINE
  5
43E
100
AcDbEntity
  8
SST_PHO
100
AcDbLine
 62
7
  6
CONTINUOUS
 10
5.7330108527
 20
2.7847530725
 11
5.6630108527
 21
2.7847530725
  0
LINE
  5
43F
100
AcDbEntity
  8
SST_PHO
100
AcDbLine
 62
7
  6
CONTINUOUS
 10
5.3880108527
 20
2.7847530725
 11
5.0880108527
 21
2.7847530725
  0
LINE
  5
440
100
AcDbEntity
  8
SST_PHO
100
AcDbLine
 62
7
  6
CONTINUOUS
 10
3.8380108527
 20
2.7847530725
 11
3.5880108527
 21
2.7847530725
  0
LINE
  5
441
100
AcDbEntity
  8
SST_PHO
100
AcDbLine
 62
7
  6
CONTINUOUS
 10
3.2380108527
 20
2.7847530725
 11
2.9880108527
 21
2.7847530725
  0
LINE
  5
442
100
AcDbEntity
  8
SST_PHO
100
AcDbLine
 62
7
  6
CONTINUOUS
 10
5.9930108527
 20
2.7847530725
 11
6.0630108527
 21
2.7847530725
  0
LINE
  5
443
100
AcDbEntity
  8
SST_PHO
100
AcDbLine
 62
7
  6
CONTINUOUS
 10
5.3130108527
 20
2.7897530725
 11
5.3230108527
 21
2.7897530725
  0
LINE
  5
444
100
AcDbEntity
  8
SST_PHO
100
AcDbLine
 62
7
  6
CONTINUOUS
 10
2.3630108527
 20
2.8097530725
 11
2.7630108527
 21
2.8097530725
  0
LINE
  5
445
100
AcDbEntity
  8
SST_PHO
100
AcDbLine
 62
7
  6
CONTINUOUS
 10
5.9530108527
 20
2.8347530725
 11
5.7730108527
 21
2.8347530725
  0
LINE
  5
446
100
AcDbEntity
  8
SST_PHO
100
AcDbLine
 62
7
  6
CONTINUOUS
 10
5.4380108527
 20
2.8347530725
 11
5.3880108527
 21
2.8347530725
  0
LINE
  5
447
100
AcDbEntity
  8
SST_PHO
100
AcDbLine
 62
7
  6
CONTINUOUS
 10
2.3380108527
 20
2.8347530725
 11
2.2380108527
 21
2.8347530725
  0
LINE
  5
448
100
AcDbEntity
  8
SST_PHO
100
AcDbLine
 62
7
  6
CONTINUOUS
 10
1.8630108527
 20
2.8347530725
 11
1.8130108527
 21
2.8347530725
  0
LINE
  5
449
100
AcDbEntity
  8
SST_PHO
100
AcDbLine
 62
7
  6
CONTINUOUS
 10
2.9130108527
 20
2.8347530725
 11
2.9880108527
 21
2.8347530725
  0
LINE
  5
44A
100
AcDbEntity
  8
SST_PHO
100
AcDbLine
 62
7
  6
CONTINUOUS
 10
3.2380108527
 20
2.8347530725
 11
3.3130108527
 21
2.8347530725
  0
LINE
  5
44B
100
AcDbEntity
  8
SST_PHO
100
AcDbLine
 62
7
  6
CONTINUOUS
 10
3.5130108527
 20
2.8347530725
 11
3.5880108527
 21
2.8347530725
  0
LINE
  5
44C
100
AcDbEntity
  8
SST_PHO
100
AcDbLine
 62
7
  6
CONTINUOUS
 10
3.8380108527
 20
2.8347530725
 11
3.9130108527
 21
2.8347530725
  0
LINE
  5
44D
100
AcDbEntity
  8
SST_PHO
100
AcDbLine
 62
7
  6
CONTINUOUS
 10
5.0380108527
 20
2.8347530725
 11
5.0880108527
 21
2.8347530725
  0
LINE
  5
44E
100
AcDbEntity
  8
SST_PHO
100
AcDbLine
 62
7
  6
CONTINUOUS
 10
5.3230108527
 20
2.8797530725
 11
5.3130108527
 21
2.8797530725
  0
LINE
  5
44F
100
AcDbEntity
  8
SST_PHO
100
AcDbLine
 62
7
  6
CONTINUOUS
 10
3.8380108527
 20
2.8847530725
 11
3.5880108527
 21
2.8847530725
  0
LINE
  5
450
100
AcDbEntity
  8
SST_PHO
100
AcDbLine
 62
7
  6
CONTINUOUS
 10
3.2380108527
 20
2.8847530725
 11
2.9880108527
 21
2.8847530725
  0
LINE
  5
451
100
AcDbEntity
  8
SST_PHO
100
AcDbLine
 62
7
  6
CONTINUOUS
 10
5.0880108527
 20
2.8847530725
 11
5.3880108527
 21
2.8847530725
  0
LINE
  5
452
100
AcDbEntity
  8
SST_PHO
100
AcDbLine
 62
7
  6
CONTINUOUS
 10
6.1230108527
 20
2.8847530725
 11
6.3030108527
 21
2.8847530725
  0
LINE
  5
453
100
AcDbEntity
  8
SST_PHO
100
AcDbLine
 62
7
  6
CONTINUOUS
 10
2.2430108527
 20
2.8997530725
 11
2.3330108527
 21
2.8997530725
  0
LINE
  5
454
100
AcDbEntity
  8
SST_PHO
100
AcDbLine
 62
7
  6
CONTINUOUS
 10
2.3330108527
 20
2.9097530725
 11
2.2430108527
 21
2.9097530725
  0
LINE
  5
455
100
AcDbEntity
  8
SST_PHO
100
AcDbLine
 62
7
  6
CONTINUOUS
 10
6.0830108527
 20
2.9347530725
 11
6.0130108527
 21
2.9347530725
  0
LINE
  5
456
100
AcDbEntity
  8
SST_PHO
100
AcDbLine
 62
7
  6
CONTINUOUS
 10
4.9130108527
 20
2.9347530725
 11
4.5130108527
 21
2.9347530725
  0
LINE
  5
457
100
AcDbEntity
  8
SST_PHO
100
AcDbLine
 62
7
  6
CONTINUOUS
 10
4.4130108527
 20
2.9347530725
 11
4.0130108527
 21
2.9347530725
  0
LINE
  5
458
100
AcDbEntity
  8
SST_PHO
100
AcDbLine
 62
7
  6
CONTINUOUS
 10
6.3430108527
 20
2.9347530725
 11
6.4130108527
 21
2.9347530725
  0
LINE
  5
459
100
AcDbEntity
  8
SST_PHO
100
AcDbLine
 62
7
  6
CONTINUOUS
 10
6.5130108527
 20
2.9597530725
 11
6.6130108527
 21
2.9597530725
  0
LINE
  5
45A
100
AcDbEntity
  8
SST_PHO
100
AcDbLine
 62
7
  6
CONTINUOUS
 10
4.9880108527
 20
2.9647530725
 11
4.4880108527
 21
2.9647530725
  0
LINE
  5
45B
100
AcDbEntity
  8
SST_PHO
100
AcDbLine
 62
7
  6
CONTINUOUS
 10
4.0130108527
 20
2.9647530725
 11
3.5130108527
 21
2.9647530725
  0
LINE
  5
45C
100
AcDbEntity
  8
SST_PHO
100
AcDbLine
 62
7
  6
CONTINUOUS
 10
1.8130108527
 20
2.9847530725
 11
1.8630108527
 21
2.9847530725
  0
LINE
  5
45D
100
AcDbEntity
  8
SST_PHO
100
AcDbLine
 62
7
  6
CONTINUOUS
 10
6.0880108527
 20
2.9847530725
 11
6.3380108527
 21
2.9847530725
  0
LINE
  5
45E
100
AcDbEntity
  8
SST_PHO
100
AcDbLine
 62
7
  6
CONTINUOUS
 10
2.3630108527
 20
3.0097530725
 11
2.7630108527
 21
3.0097530725
  0
LINE
  5
45F
100
AcDbEntity
  8
SST_PHO
100
AcDbLine
 62
7
  6
CONTINUOUS
 10
5.7880108527
 20
3.0097530725
 11
5.8880108527
 21
3.0097530725
  0
LINE
  5
460
100
AcDbEntity
  8
SST_PHO
100
AcDbLine
 62
7
  6
CONTINUOUS
 10
6.0130108527
 20
3.0347530725
 11
6.0880108527
 21
3.0347530725
  0
LINE
  5
461
100
AcDbEntity
  8
SST_PHO
100
AcDbLine
 62
7
  6
CONTINUOUS
 10
6.3380108527
 20
3.0347530725
 11
6.4130108527
 21
3.0347530725
  0
LINE
  5
462
100
AcDbEntity
  8
SST_PHO
100
AcDbLine
 62
7
  6
CONTINUOUS
 10
5.6530108527
 20
3.0447530725
 11
5.3730108527
 21
3.0447530725
  0
LINE
  5
463
100
AcDbEntity
  8
SST_PHO
100
AcDbLine
 62
7
  6
CONTINUOUS
 10
3.1530108527
 20
3.0447530725
 11
2.8730108527
 21
3.0447530725
  0
LINE
  5
464
100
AcDbEntity
  8
SST_PHO
100
AcDbLine
 62
7
  6
CONTINUOUS
 10
2.3630108527
 20
3.0597530725
 11
2.7630108527
 21
3.0597530725
  0
LINE
  5
465
100
AcDbEntity
  8
SST_PHO
100
AcDbLine
 62
7
  6
CONTINUOUS
 10
6.3380108527
 20
3.0847530725
 11
6.0880108527
 21
3.0847530725
  0
LINE
  5
466
100
AcDbEntity
  8
SST_PHO
100
AcDbLine
 62
7
  6
CONTINUOUS
 10
4.4380108527
 20
3.1347530725
 11
4.3880108527
 21
3.1347530725
  0
LINE
  5
467
100
AcDbEntity
  8
SST_PHO
100
AcDbLine
 62
7
  6
CONTINUOUS
 10
3.4630108527
 20
3.1347530725
 11
3.4130108527
 21
3.1347530725
  0
LINE
  5
468
100
AcDbEntity
  8
SST_PHO
100
AcDbLine
 62
7
  6
CONTINUOUS
 10
2.2380108527
 20
3.1347530725
 11
2.3380108527
 21
3.1347530725
  0
LINE
  5
469
100
AcDbEntity
  8
SST_PHO
100
AcDbLine
 62
7
  6
CONTINUOUS
 10
4.0630108527
 20
3.1347530725
 11
4.1130108527
 21
3.1347530725
  0
LINE
  5
46A
100
AcDbEntity
  8
SST_PHO
100
AcDbLine
 62
7
  6
CONTINUOUS
 10
5.0380108527
 20
3.1347530725
 11
5.0880108527
 21
3.1347530725
  0
LINE
  5
46B
100
AcDbEntity
  8
SST_PHO
100
AcDbLine
 62
7
  6
CONTINUOUS
 10
6.0130108527
 20
3.1347530725
 11
6.0880108527
 21
3.1347530725
  0
LINE
  5
46C
100
AcDbEntity
  8
SST_PHO
100
AcDbLine
 62
7
  6
CONTINUOUS
 10
6.3380108527
 20
3.1347530725
 11
6.4130108527
 21
3.1347530725
  0
LINE
  5
46D
100
AcDbEntity
  8
SST_PHO
100
AcDbLine
 62
7
  6
CONTINUOUS
 10
2.5470108527
 20
3.4047530725
 11
2.5850108527
 21
3.3977530725
  0
LINE
  5
46E
100
AcDbEntity
  8
SST_PHO
100
AcDbLine
 62
7
  6
CONTINUOUS
 10
5.7670108527
 20
2.7367530725
 11
5.7730108527
 21
2.7347530725
  0
LINE
  5
46F
100
AcDbEntity
  8
SST_PHO
100
AcDbLine
 62
7
  6
CONTINUOUS
 10
5.9680108527
 20
2.8277530725
 11
5.9470108527
 21
2.8347530725
  0
LINE
  5
470
100
AcDbEntity
  8
SST_PHO
100
AcDbLine
 62
7
  6
CONTINUOUS
 10
5.7480108527
 20
2.7477530725
 11
5.7670108527
 21
2.7367530725
  0
LINE
  5
471
100
AcDbEntity
  8
SST_PHO
100
AcDbLine
 62
7
  6
CONTINUOUS
 10
6.5610108527
 20
2.2247530725
 11
6.6040108527
 21
2.1977530725
  0
LINE
  5
472
100
AcDbEntity
  8
SST_PHO
100
AcDbLine
 62
7
  6
CONTINUOUS
 10
5.8150108527
 20
2.2887530725
 11
5.7930108527
 21
2.3047530725
  0
LINE
  5
473
100
AcDbEntity
  8
SST_PHO
100
AcDbLine
 62
7
  6
CONTINUOUS
 10
6.1830108527
 20
1.7047530725
 11
6.1500108527
 21
1.7437530725
  0
LINE
  5
474
100
AcDbEntity
  8
SST_PHO
100
AcDbLine
 62
7
  6
CONTINUOUS
 10
5.6630108527
 20
2.1747530725
 11
5.6810108527
 21
2.1507530725
  0
LINE
  5
475
100
AcDbEntity
  8
SST_PHO
100
AcDbLine
 62
7
  6
CONTINUOUS
 10
5.4400108527
 20
2.2537530725
 11
5.4280108527
 21
2.2717530725
  0
LINE
  5
476
100
AcDbEntity
  8
SST_PHO
100
AcDbLine
 62
7
  6
CONTINUOUS
 10
3.9880108527
 20
4.4757530725
 11
3.9730108527
 21
4.5087530725
  0
LINE
  5
477
100
AcDbEntity
  8
SST_PHO
100
AcDbLine
 62
7
  6
CONTINUOUS
 10
4.9420108527
 20
1.7937530725
 11
4.9340108527
 21
1.8137530725
  0
LINE
  5
478
100
AcDbEntity
  8
SST_PHO
100
AcDbLine
 62
7
  6
CONTINUOUS
 10
4.6820108527
 20
1.7877530725
 11
4.6860108527
 21
1.7657530725
  0
LINE
  5
479
100
AcDbEntity
  8
SST_PHO
100
AcDbLine
 62
7
  6
CONTINUOUS
 10
3.9930108527
 20
4.4397530725
 11
3.9880108527
 21
4.4757530725
  0
LINE
  5
47A
100
AcDbEntity
  8
SST_PHO
100
AcDbLine
 62
7
  6
CONTINUOUS
 10
4.4030108527
 20
1.9747530725
 11
4.4030108527
 21
1.6947530725
  0
LINE
  5
47B
100
AcDbEntity
  8
SST_PHO
100
AcDbLine
 62
7
  6
CONTINUOUS
 10
4.4130108527
 20
4.0597530725
 11
4.4130108527
 21
3.4097530725
  0
LINE
  5
47C
100
AcDbEntity
  8
SST_PHO
100
AcDbLine
 62
7
  6
CONTINUOUS
 10
4.4130108527
 20
2.1347530725
 11
4.4130108527
 21
2.9347530725
  0
LINE
  5
47D
100
AcDbEntity
  8
SST_PHO
100
AcDbLine
 62
7
  6
CONTINUOUS
 10
4.4880108527
 20
2.9647530725
 11
4.4880108527
 21
3.0847530725
  0
LINE
  5
47E
100
AcDbEntity
  8
SST_PHO
100
AcDbLine
 62
7
  6
CONTINUOUS
 10
4.4880108527
 20
3.1847530725
 11
4.4880108527
 21
3.3047530725
  0
LINE
  5
47F
100
AcDbEntity
  8
SST_PHO
100
AcDbLine
 62
7
  6
CONTINUOUS
 10
4.5130108527
 20
2.9347530725
 11
4.5130108527
 21
2.1347530725
  0
LINE
  5
480
100
AcDbEntity
  8
SST_PHO
100
AcDbLine
 62
7
  6
CONTINUOUS
 10
4.5230108527
 20
4.4097530725
 11
4.5230108527
 21
4.0697530725
  0
LINE
  5
481
100
AcDbEntity
  8
SST_PHO
100
AcDbLine
 62
7
  6
CONTINUOUS
 10
4.5240108527
 20
4.0707530725
 11
4.5240108527
 21
4.0717530725
  0
LINE
  5
482
100
AcDbEntity
  8
SST_PHO
100
AcDbLine
 62
7
  6
CONTINUOUS
 10
4.5240108527
 20
4.4067530725
 11
4.5240108527
 21
4.4087530725
  0
LINE
  5
483
100
AcDbEntity
  8
SST_PHO
100
AcDbLine
 62
7
  6
CONTINUOUS
 10
4.5250108527
 20
4.0717530725
 11
4.5250108527
 21
4.0797530725
  0
LINE
  5
484
100
AcDbEntity
  8
SST_PHO
100
AcDbLine
 62
7
  6
CONTINUOUS
 10
4.5250108527
 20
4.3997530725
 11
4.5250108527
 21
4.4067530725
  0
LINE
  5
485
100
AcDbEntity
  8
SST_PHO
100
AcDbLine
 62
7
  6
CONTINUOUS
 10
4.5330108527
 20
4.4487530725
 11
4.5330108527
 21
4.4097530725
  0
LINE
  5
486
100
AcDbEntity
  8
SST_PHO
100
AcDbLine
 62
7
  6
CONTINUOUS
 10
4.5330108527
 20
4.3997530725
 11
4.5330108527
 21
4.0797530725
  0
LINE
  5
487
100
AcDbEntity
  8
SST_PHO
100
AcDbLine
 62
7
  6
CONTINUOUS
 10
4.5400108527
 20
4.4067530725
 11
4.5400108527
 21
4.3997530725
  0
LINE
  5
488
100
AcDbEntity
  8
SST_PHO
100
AcDbLine
 62
7
  6
CONTINUOUS
 10
4.5400108527
 20
4.0797530725
 11
4.5400108527
 21
4.0717530725
  0
LINE
  5
489
100
AcDbEntity
  8
SST_PHO
100
AcDbLine
 62
7
  6
CONTINUOUS
 10
4.5420108527
 20
4.4087530725
 11
4.5420108527
 21
4.4067530725
  0
LINE
  5
48A
100
AcDbEntity
  8
SST_PHO
100
AcDbLine
 62
7
  6
CONTINUOUS
 10
4.5420108527
 20
4.0717530725
 11
4.5420108527
 21
4.0707530725
  0
LINE
  5
48B
100
AcDbEntity
  8
SST_PHO
100
AcDbLine
 62
7
  6
CONTINUOUS
 10
4.5430108527
 20
4.4097530725
 11
4.5430108527
 21
4.0697530725
  0
LINE
  5
48C
100
AcDbEntity
  8
SST_PHO
100
AcDbLine
 62
7
  6
CONTINUOUS
 10
4.6630108527
 20
4.0597530725
 11
4.6630108527
 21
3.4097530725
  0
LINE
  5
48D
100
AcDbEntity
  8
SST_PHO
100
AcDbLine
 62
7
  6
CONTINUOUS
 10
4.6880108527
 20
2.1347530725
 11
4.6880108527
 21
1.9347530725
  0
LINE
  5
48E
100
AcDbEntity
  8
SST_PHO
100
AcDbLine
 62
7
  6
CONTINUOUS
 10
4.7130108527
 20
1.8347530725
 11
4.7130108527
 21
1.9347530725
  0
LINE
  5
48F
100
AcDbEntity
  8
SST_PHO
100
AcDbLine
 62
7
  6
CONTINUOUS
 10
4.7180108527
 20
3.3047530725
 11
4.7180108527
 21
3.1847530725
  0
LINE
  5
490
100
AcDbEntity
  8
SST_PHO
100
AcDbLine
 62
7
  6
CONTINUOUS
 10
4.7180108527
 20
3.0847530725
 11
4.7180108527
 21
2.9647530725
  0
LINE
  5
491
100
AcDbEntity
  8
SST_PHO
100
AcDbLine
 62
7
  6
CONTINUOUS
 10
4.7580108527
 20
3.3047530725
 11
4.7580108527
 21
3.1847530725
  0
LINE
  5
492
100
AcDbEntity
  8
SST_PHO
100
AcDbLine
 62
7
  6
CONTINUOUS
 10
4.7580108527
 20
3.0847530725
 11
4.7580108527
 21
2.9647530725
  0
LINE
  5
493
100
AcDbEntity
  8
SST_PHO
100
AcDbLine
 62
7
  6
CONTINUOUS
 10
4.5410108527
 20
4.4837530725
 11
4.5330108527
 21
4.4487530725
  0
LINE
  5
494
100
AcDbEntity
  8
SST_PHO
100
AcDbLine
 62
7
  6
CONTINUOUS
 10
3.3982108527
 20
1.6787530725
 11
3.4003108527
 21
1.6843530725
  0
LINE
  5
495
100
AcDbEntity
  8
SST_PHO
100
AcDbLine
 62
7
  6
CONTINUOUS
 10
3.5690108527
 20
1.6752530725
 11
3.5711108527
 21
1.6808530725
  0
LINE
  5
496
100
AcDbEntity
  8
SST_PHO
100
AcDbLine
 62
7
  6
CONTINUOUS
 10
3.3818462858
 20
1.674528663
 11
3.3805234512
 21
1.6718826
  0
LINE
  5
497
100
AcDbEntity
  8
SST_PHO
100
AcDbLine
 62
7
  6
CONTINUOUS
 10
3.382040774
 20
1.64004323
 11
3.3807809315
 21
1.6375231512
  0
LINE
  5
498
100
AcDbEntity
  8
SST_PHO
100
AcDbLine
 62
7
  6
CONTINUOUS
 10
3.3795206953
 20
1.674062915
 11
3.3782608527
 21
1.67154323
  0
LINE
  5
499
100
AcDbEntity
  8
SST_PHO
100
AcDbLine
 62
7
  6
CONTINUOUS
 10
3.3844923488
 20
1.6388074032
 11
3.3831695142
 21
1.6361617339
  0
LINE
  5
49A
100
AcDbEntity
  8
SST_PHO
100
AcDbLine
 62
7
  6
CONTINUOUS
 10
3.5950108527
 20
2.6667530725
 11
3.5850108527
 21
2.6477530725
  0
LINE
  5
49B
100
AcDbEntity
  8
SST_PHO
100
AcDbLine
 62
7
  6
CONTINUOUS
 10
4.5580108527
 20
4.5157530725
 11
4.5410108527
 21
4.4837530725
  0
LINE
  5
49C
100
AcDbEntity
  8
SST_PHO
100
AcDbLine
 62
7
  6
CONTINUOUS
 10
2.6240108527
 20
2.4437530725
 11
2.6380108527
 21
2.4607530725
  0
LINE
  5
49D
100
AcDbEntity
  8
SST_PHO
100
AcDbLine
 62
7
  6
CONTINUOUS
 10
2.7370108527
 20
2.7067530725
 11
2.7090108527
 21
2.6747530725
  0
LINE
  5
49E
100
AcDbEntity
  8
SST_PHO
100
AcDbLine
 62
7
  6
CONTINUOUS
 10
2.6250108527
 20
2.6857530725
 11
2.6150108527
 21
2.6747530725
  0
LINE
  5
49F
100
AcDbEntity
  8
SST_PHO
100
AcDbLine
 62
7
  6
CONTINUOUS
 10
2.6250108527
 20
2.6537530725
 11
2.6150108527
 21
2.6427530725
  0
LINE
  5
4A0
100
AcDbEntity
  8
SST_PHO
100
AcDbLine
 62
7
  6
CONTINUOUS
 10
4.5830108527
 20
4.5417530725
 11
4.5580108527
 21
4.5157530725
  0
LINE
  5
4A1
100
AcDbEntity
  8
SST_PHO
100
AcDbLine
 62
7
  6
CONTINUOUS
 10
4.6140108527
 20
4.5607530725
 11
4.5830108527
 21
4.5417530725
  0
LINE
  5
4A2
100
AcDbEntity
  8
SST_PHO
100
AcDbLine
 62
7
  6
CONTINUOUS
 10
3.6330108527
 20
2.6847530725
 11
3.6120108527
 21
2.6797530725
  0
LINE
  5
4A3
100
AcDbEntity
  8
SST_PHO
100
AcDbLine
 62
7
  6
CONTINUOUS
 10
2.4330108527
 20
2.5347530725
 11
2.4120108527
 21
2.5297530725
  0
LINE
  5
4A4
100
AcDbEntity
  8
SST_PHO
100
AcDbLine
 62
7
  6
CONTINUOUS
 10
3.0330108527
 20
2.6847530725
 11
3.0120108527
 21
2.6797530725
  0
LINE
  5
4A5
100
AcDbEntity
  8
SST_PHO
100
AcDbLine
 62
7
  6
CONTINUOUS
 10
2.4330108527
 20
2.6347530725
 11
2.4120108527
 21
2.6297530725
  0
LINE
  5
4A6
100
AcDbEntity
  8
SST_PHO
100
AcDbLine
 62
7
  6
CONTINUOUS
 10
5.7830108527
 20
3.5347530725
 11
5.7620108527
 21
3.5297530725
  0
LINE
  5
4A7
100
AcDbEntity
  8
SST_PHO
100
AcDbLine
 62
7
  6
CONTINUOUS
 10
2.5730108527
 20
3.0687530725
 11
2.5350108527
 21
3.0647530725
  0
LINE
  5
4A8
100
AcDbEntity
  8
SST_PHO
100
AcDbLine
 62
7
  6
CONTINUOUS
 10
6.3380108527
 20
3.1847530725
 11
6.0880108527
 21
3.1847530725
  0
LINE
  5
4A9
100
AcDbEntity
  8
SST_PHO
100
AcDbLine
 62
7
  6
CONTINUOUS
 10
6.6130108527
 20
3.2097530725
 11
6.5130108527
 21
3.2097530725
  0
LINE
  5
4AA
100
AcDbEntity
  8
SST_PHO
100
AcDbLine
 62
7
  6
CONTINUOUS
 10
6.0130108527
 20
3.2347530725
 11
6.0880108527
 21
3.2347530725
  0
LINE
  5
4AB
100
AcDbEntity
  8
SST_PHO
100
AcDbLine
 62
7
  6
CONTINUOUS
 10
6.3380108527
 20
3.2347530725
 11
6.4130108527
 21
3.2347530725
  0
LINE
  5
4AC
100
AcDbEntity
  8
SST_PHO
100
AcDbLine
 62
7
  6
CONTINUOUS
 10
5.8880108527
 20
3.2597530725
 11
5.7880108527
 21
3.2597530725
  0
LINE
  5
4AD
100
AcDbEntity
  8
SST_PHO
100
AcDbLine
 62
7
  6
CONTINUOUS
 10
6.3380108527
 20
3.2847530725
 11
6.0880108527
 21
3.2847530725
  0
LINE
  5
4AE
100
AcDbEntity
  8
SST_PHO
100
AcDbLine
 62
7
  6
CONTINUOUS
 10
3.5130108527
 20
3.3047530725
 11
4.0130108527
 21
3.3047530725
  0
LINE
  5
4AF
100
AcDbEntity
  8
SST_PHO
100
AcDbLine
 62
7
  6
CONTINUOUS
 10
4.4880108527
 20
3.3047530725
 11
4.9880108527
 21
3.3047530725
  0
LINE
  5
4B0
100
AcDbEntity
  8
SST_PHO
100
AcDbLine
 62
7
  6
CONTINUOUS
 10
5.3730108527
 20
3.3247530725
 11
5.6530108527
 21
3.3247530725
  0
LINE
  5
4B1
100
AcDbEntity
  8
SST_PHO
100
AcDbLine
 62
7
  6
CONTINUOUS
 10
6.0830108527
 20
3.3347530725
 11
6.0130108527
 21
3.3347530725
  0
LINE
  5
4B2
100
AcDbEntity
  8
SST_PHO
100
AcDbLine
 62
7
  6
CONTINUOUS
 10
2.8730108527
 20
3.3347530725
 11
3.1530108527
 21
3.3347530725
  0
LINE
  5
4B3
100
AcDbEntity
  8
SST_PHO
100
AcDbLine
 62
7
  6
CONTINUOUS
 10
6.3430108527
 20
3.3347530725
 11
6.4130108527
 21
3.3347530725
  0
LINE
  5
4B4
100
AcDbEntity
  8
SST_PHO
100
AcDbLine
 62
7
  6
CONTINUOUS
 10
1.8630108527
 20
3.3597530725
 11
2.1630108527
 21
3.3597530725
  0
LINE
  5
4B5
100
AcDbEntity
  8
SST_PHO
100
AcDbLine
 62
7
  6
CONTINUOUS
 10
6.3030108527
 20
3.3847530725
 11
6.1230108527
 21
3.3847530725
  0
LINE
  5
4B6
100
AcDbEntity
  8
SST_PHO
100
AcDbLine
 62
7
  6
CONTINUOUS
 10
2.3480108527
 20
3.3847530725
 11
2.4080108527
 21
3.3847530725
  0
LINE
  5
4B7
100
AcDbEntity
  8
SST_PHO
100
AcDbLine
 62
7
  6
CONTINUOUS
 10
2.2630108527
 20
3.4097530725
 11
5.3630108527
 21
3.4097530725
  0
LINE
  5
4B8
100
AcDbEntity
  8
SST_PHO
100
AcDbLine
 62
7
  6
CONTINUOUS
 10
5.7730108527
 20
3.4347530725
 11
5.9530108527
 21
3.4347530725
  0
LINE
  5
4B9
100
AcDbEntity
  8
SST_PHO
100
AcDbLine
 62
7
  6
CONTINUOUS
 10
6.3130108527
 20
3.4347530725
 11
6.5130108527
 21
3.4347530725
  0
LINE
  5
4BA
100
AcDbEntity
  8
SST_PHO
100
AcDbLine
 62
7
  6
CONTINUOUS
 10
5.7330108527
 20
3.4847530725
 11
5.6630108527
 21
3.4847530725
  0
LINE
  5
4BB
100
AcDbEntity
  8
SST_PHO
100
AcDbLine
 62
7
  6
CONTINUOUS
 10
5.9930108527
 20
3.4847530725
 11
6.0630108527
 21
3.4847530725
  0
LINE
  5
4BC
100
AcDbEntity
  8
SST_PHO
100
AcDbLine
 62
7
  6
CONTINUOUS
 10
1.9630108527
 20
3.5097530725
 11
2.0630108527
 21
3.5097530725
  0
LINE
  5
4BD
100
AcDbEntity
  8
SST_PHO
100
AcDbLine
 62
7
  6
CONTINUOUS
 10
6.1080108527
 20
2.8917530725
 11
6.1290108527
 21
2.8847530725
  0
LINE
  5
4BE
100
AcDbEntity
  8
SST_PHO
100
AcDbLine
 62
7
  6
CONTINUOUS
 10
6.3090108527
 20
2.9827530725
 11
6.3030108527
 21
2.9847530725
  0
LINE
  5
4BF
100
AcDbEntity
  8
SST_PHO
100
AcDbLine
 62
7
  6
CONTINUOUS
 10
6.1170108527
 20
3.2867530725
 11
6.1230108527
 21
3.2847530725
  0
LINE
  5
4C0
100
AcDbEntity
  8
SST_PHO
100
AcDbLine
 62
7
  6
CONTINUOUS
 10
3.1500108527
 20
4.5367530725
 11
3.1200108527
 21
4.5567530725
  0
LINE
  5
4C1
100
AcDbEntity
  8
SST_PHO
100
AcDbLine
 62
7
  6
CONTINUOUS
 10
6.6040108527
 20
2.1977530725
 11
6.6430108527
 21
2.1647530725
  0
LINE
  5
4C2
100
AcDbEntity
  8
SST_PHO
100
AcDbLine
 62
7
  6
CONTINUOUS
 10
5.9840108527
 20
2.4137530725
 11
5.9680108527
 21
2.4277530725
  0
LINE
  5
4C3
100
AcDbEntity
  8
SST_PHO
100
AcDbLine
 62
7
  6
CONTINUOUS
 10
5.9840108527
 20
2.8137530725
 11
5.9680108527
 21
2.8277530725
  0
LINE
  5
4C4
100
AcDbEntity
  8
SST_PHO
100
AcDbLine
 62
7
  6
CONTINUOUS
 10
3.9730108527
 20
4.5087530725
 11
3.9500108527
 21
4.5367530725
  0
LINE
  5
4C5
100
AcDbEntity
  8
SST_PHO
100
AcDbLine
 62
7
  6
CONTINUOUS
 10
5.8330108527
 20
2.2647530725
 11
5.8150108527
 21
2.2887530725
  0
LINE
  5
4C6
100
AcDbEntity
  8
SST_PHO
100
AcDbLine
 62
7
  6
CONTINUOUS
 10
5.7360108527
 20
2.3657530725
 11
5.7480108527
 21
2.3477530725
  0
LINE
  5
4C7
100
AcDbEntity
  8
SST_PHO
100
AcDbLine
 62
7
  6
CONTINUOUS
 10
6.1500108527
 20
1.7437530725
 11
6.1230108527
 21
1.7867530725
  0
LINE
  5
4C8
100
AcDbEntity
  8
SST_PHO
100
AcDbLine
 62
7
  6
CONTINUOUS
 10
5.1840108527
 20
2.2257530725
 11
5.1920108527
 21
2.2057530725
  0
LINE
  5
4C9
100
AcDbEntity
  8
SST_PHO
100
AcDbLine
 62
7
  6
CONTINUOUS
 10
4.7930108527
 20
4.4497530725
 11
4.7930108527
 21
4.4097530725
  0
LINE
  5
4CA
100
AcDbEntity
  8
SST_PHO
100
AcDbLine
 62
7
  6
CONTINUOUS
 10
4.8030108527
 20
4.0697530725
 11
4.8030108527
 21
4.4097530725
  0
LINE
  5
4CB
100
AcDbEntity
  8
SST_PHO
100
AcDbLine
 62
7
  6
CONTINUOUS
 10
4.8880108527
 20
1.9297530725
 11
4.8880108527
 21
1.8397530725
  0
LINE
  5
4CC
100
AcDbEntity
  8
SST_PHO
100
AcDbLine
 62
7
  6
CONTINUOUS
 10
4.8980108527
 20
1.8397530725
 11
4.8980108527
 21
1.9297530725
  0
LINE
  5
4CD
100
AcDbEntity
  8
SST_PHO
100
AcDbLine
 62
7
  6
CONTINUOUS
 10
4.9130108527
 20
1.9347530725
 11
4.9130108527
 21
1.8347530725
  0
LINE
  5
4CE
100
AcDbEntity
  8
SST_PHO
100
AcDbLine
 62
7
  6
CONTINUOUS
 10
4.9130108527
 20
2.1347530725
 11
4.9130108527
 21
2.9347530725
  0
LINE
  5
4CF
100
AcDbEntity
  8
SST_PHO
100
AcDbLine
 62
7
  6
CONTINUOUS
 10
4.9380108527
 20
1.9347530725
 11
4.9380108527
 21
2.1347530725
  0
LINE
  5
4D0
100
AcDbEntity
  8
SST_PHO
100
AcDbLine
 62
7
  6
CONTINUOUS
 10
4.9880108527
 20
3.3047530725
 11
4.9880108527
 21
3.1847530725
  0
LINE
  5
4D1
100
AcDbEntity
  8
SST_PHO
100
AcDbLine
 62
7
  6
CONTINUOUS
 10
4.9880108527
 20
3.0847530725
 11
4.9880108527
 21
2.9647530725
  0
LINE
  5
4D2
100
AcDbEntity
  8
SST_PHO
100
AcDbLine
 62
7
  6
CONTINUOUS
 10
5.0880108527
 20
2.4097530725
 11
5.0880108527
 21
2.5097530725
  0
LINE
  5
4D3
100
AcDbEntity
  8
SST_PHO
100
AcDbLine
 62
7
  6
CONTINUOUS
 10
5.0880108527
 20
2.5347530725
 11
5.0880108527
 21
2.6347530725
  0
LINE
  5
4D4
100
AcDbEntity
  8
SST_PHO
100
AcDbLine
 62
7
  6
CONTINUOUS
 10
5.0880108527
 20
2.6597530725
 11
5.0880108527
 21
2.7597530725
  0
LINE
  5
4D5
100
AcDbEntity
  8
SST_PHO
100
AcDbLine
 62
7
  6
CONTINUOUS
 10
5.0880108527
 20
2.7847530725
 11
5.0880108527
 21
2.8847530725
  0
LINE
  5
4D6
100
AcDbEntity
  8
SST_PHO
100
AcDbLine
 62
7
  6
CONTINUOUS
 10
4.9410108527
 20
1.7717530725
 11
4.9420108527
 21
1.7937530725
  0
LINE
  5
4D7
100
AcDbEntity
  8
SST_PHO
100
AcDbLine
 62
7
  6
CONTINUOUS
 10
3.463394711
 20
1.6458251197
 11
3.4596990417
 21
1.6384329937
  0
LINE
  5
4D8
100
AcDbEntity
  8
SST_PHO
100
AcDbLine
 62
7
  6
CONTINUOUS
 10
3.4563108527
 20
1.6500530725
 11
3.4535108527
 21
1.6444530725
  0
LINE
  5
4D9
100
AcDbEntity
  8
SST_PHO
100
AcDbLine
 62
7
  6
CONTINUOUS
 10
3.4606510102
 20
1.6483731512
 11
3.457290774
 21
1.6416530725
  0
LINE
  5
4DA
100
AcDbEntity
  8
SST_PHO
100
AcDbLine
 62
7
  6
CONTINUOUS
 10
3.5403108527
 20
1.6325530725
 11
3.5438108527
 21
1.6395530725
  0
LINE
  5
4DB
100
AcDbEntity
  8
SST_PHO
100
AcDbLine
 62
7
  6
CONTINUOUS
 10
3.5683108527
 20
1.6878530725
 11
3.5641108527
 21
1.6794530725
  0
LINE
  5
4DC
100
AcDbEntity
  8
SST_PHO
100
AcDbLine
 62
7
  6
CONTINUOUS
 10
3.5711108527
 20
1.6808530725
 11
3.5732108527
 21
1.6850530725
  0
LINE
  5
4DD
100
AcDbEntity
  8
SST_PHO
100
AcDbLine
 62
7
  6
CONTINUOUS
 10
3.6180108527
 20
1.6381530725
 11
3.6208108527
 21
1.6437530725
  0
LINE
  5
4DE
100
AcDbEntity
  8
SST_PHO
100
AcDbLine
 62
7
  6
CONTINUOUS
 10
3.6145108527
 20
1.6465530725
 11
3.6089108527
 21
1.6360530725
  0
LINE
  5
4DF
100
AcDbEntity
  8
SST_PHO
100
AcDbLine
 62
7
  6
CONTINUOUS
 10
3.4682108527
 20
1.6458530725
 11
3.4633108527
 21
1.6367530725
  0
LINE
  5
4E0
100
AcDbEntity
  8
SST_PHO
100
AcDbLine
 62
7
  6
CONTINUOUS
 10
3.4899108527
 20
1.6948530725
 11
3.4871108527
 21
1.6899530725
  0
LINE
  5
4E1
100
AcDbEntity
  8
SST_PHO
100
AcDbLine
 62
7
  6
CONTINUOUS
 10
3.4948108527
 20
1.6906530725
 11
3.4920108527
 21
1.6857530725
  0
LINE
  5
4E2
100
AcDbEntity
  8
SST_PHO
100
AcDbLine
 62
7
  6
CONTINUOUS
 10
3.4042588842
 20
1.6827849623
 11
3.408878963
 21
1.6901770882
  0
LINE
  5
4E3
100
AcDbEntity
  8
SST_PHO
100
AcDbLine
 62
7
  6
CONTINUOUS
 10
3.406890774
 20
1.6819731512
 11
3.411090774
 21
1.68869323
  0
LINE
  5
4E4
100
AcDbEntity
  8
SST_PHO
100
AcDbLine
 62
7
  6
CONTINUOUS
 10
3.4115108527
 20
1.6780530725
 11
3.4150108527
 21
1.6836530725
  0
LINE
  5
4E5
100
AcDbEntity
  8
SST_PHO
100
AcDbLine
 62
7
  6
CONTINUOUS
 10
3.2240108527
 20
2.5937530725
 11
3.2380108527
 21
2.6107530725
  0
LINE
  5
4E6
100
AcDbEntity
  8
SST_PHO
100
AcDbLine
 62
7
  6
CONTINUOUS
 10
3.1130108527
 20
2.4847530725
 11
3.1630108527
 21
2.5347530725
  0
LINE
  5
4E7
100
AcDbEntity
  8
SST_PHO
100
AcDbLine
 62
7
  6
CONTINUOUS
 10
2.4120108527
 20
2.6297530725
 11
2.3950108527
 21
2.6167530725
  0
LINE
  5
4E8
100
AcDbEntity
  8
SST_PHO
100
AcDbLine
 62
7
  6
CONTINUOUS
 10
2.4120108527
 20
2.5297530725
 11
2.3950108527
 21
2.5167530725
  0
LINE
  5
4E9
100
AcDbEntity
  8
SST_PHO
100
AcDbLine
 62
7
  6
CONTINUOUS
 10
2.6430108527
 20
3.1007530725
 11
2.6100108527
 21
3.0807530725
  0
LINE
  5
4EA
100
AcDbEntity
  8
SST_PHO
100
AcDbLine
 62
7
  6
CONTINUOUS
 10
2.4380108527
 20
3.3727530725
 11
2.4720108527
 21
3.3907530725
  0
LINE
  5
4EB
100
AcDbEntity
  8
SST_PHO
100
AcDbLine
 62
7
  6
CONTINUOUS
 10
5.4420108527
 20
3.8907530725
 11
5.4200108527
 21
3.8877530725
  0
LINE
  5
4EC
100
AcDbEntity
  8
SST_PHO
100
AcDbLine
 62
7
  6
CONTINUOUS
 10
2.5080108527
 20
3.4017530725
 11
2.5470108527
 21
3.4047530725
  0
LINE
  5
4ED
100
AcDbEntity
  8
SST_PHO
100
AcDbLine
 62
7
  6
CONTINUOUS
 10
5.7380108527
 20
3.5347530725
 11
5.9880108527
 21
3.5347530725
  0
LINE
  5
4EE
100
AcDbEntity
  8
SST_PHO
100
AcDbLine
 62
7
  6
CONTINUOUS
 10
5.6630108527
 20
3.5847530725
 11
5.7380108527
 21
3.5847530725
  0
LINE
  5
4EF
100
AcDbEntity
  8
SST_PHO
100
AcDbLine
 62
7
  6
CONTINUOUS
 10
5.9880108527
 20
3.5847530725
 11
6.0630108527
 21
3.5847530725
  0
LINE
  5
4F0
100
AcDbEntity
  8
SST_PHO
100
AcDbLine
 62
7
  6
CONTINUOUS
 10
5.9880108527
 20
3.6347530725
 11
5.7380108527
 21
3.6347530725
  0
LINE
  5
4F1
100
AcDbEntity
  8
SST_PHO
100
AcDbLine
 62
7
  6
CONTINUOUS
 10
6.0630108527
 20
3.6847530725
 11
5.9880108527
 21
3.6847530725
  0
LINE
  5
4F2
100
AcDbEntity
  8
SST_PHO
100
AcDbLine
 62
7
  6
CONTINUOUS
 10
5.7380108527
 20
3.6847530725
 11
5.6630108527
 21
3.6847530725
  0
LINE
  5
4F3
100
AcDbEntity
  8
SST_PHO
100
AcDbLine
 62
7
  6
CONTINUOUS
 10
2.2130108527
 20
3.7097530725
 11
1.8130108527
 21
3.7097530725
  0
LINE
  5
4F4
100
AcDbEntity
  8
SST_PHO
100
AcDbLine
 62
7
  6
CONTINUOUS
 10
6.5130108527
 20
3.7347530725
 11
6.3130108527
 21
3.7347530725
  0
LINE
  5
4F5
100
AcDbEntity
  8
SST_PHO
100
AcDbLine
 62
7
  6
CONTINUOUS
 10
5.9880108527
 20
3.7347530725
 11
5.7380108527
 21
3.7347530725
  0
LINE
  5
4F6
100
AcDbEntity
  8
SST_PHO
100
AcDbLine
 62
7
  6
CONTINUOUS
 10
5.9380108527
 20
3.7397530725
 11
5.9480108527
 21
3.7397530725
  0
LINE
  5
4F7
100
AcDbEntity
  8
SST_PHO
100
AcDbLine
 62
7
  6
CONTINUOUS
 10
6.0630108527
 20
3.7847530725
 11
5.9630108527
 21
3.7847530725
  0
LINE
  5
4F8
100
AcDbEntity
  8
SST_PHO
100
AcDbLine
 62
7
  6
CONTINUOUS
 10
5.6630108527
 20
3.7847530725
 11
5.7630108527
 21
3.7847530725
  0
LINE
  5
4F9
100
AcDbEntity
  8
SST_PHO
100
AcDbLine
 62
7
  6
CONTINUOUS
 10
5.9480108527
 20
3.8297530725
 11
5.9380108527
 21
3.8297530725
  0
LINE
  5
4FA
100
AcDbEntity
  8
SST_PHO
100
AcDbLine
 62
7
  6
CONTINUOUS
 10
5.9630108527
 20
3.8347530725
 11
5.7630108527
 21
3.8347530725
  0
LINE
  5
4FB
100
AcDbEntity
  8
SST_PHO
100
AcDbLine
 62
7
  6
CONTINUOUS
 10
5.9380108527
 20
3.8397530725
 11
5.9480108527
 21
3.8397530725
  0
LINE
  5
4FC
100
AcDbEntity
  8
SST_PHO
100
AcDbLine
 62
7
  6
CONTINUOUS
 10
6.0630108527
 20
3.8847530725
 11
5.9630108527
 21
3.8847530725
  0
LINE
  5
4FD
100
AcDbEntity
  8
SST_PHO
100
AcDbLine
 62
7
  6
CONTINUOUS
 10
5.6630108527
 20
3.8847530725
 11
5.7630108527
 21
3.8847530725
  0
LINE
  5
4FE
100
AcDbEntity
  8
SST_PHO
100
AcDbLine
 62
7
  6
CONTINUOUS
 10
5.4250108527
 20
3.6317530725
 11
5.4470108527
 21
3.6307530725
  0
LINE
  5
4FF
100
AcDbEntity
  8
SST_PHO
100
AcDbLine
 62
7
  6
CONTINUOUS
 10
5.4630108527
 20
3.8847530725
 11
5.4420108527
 21
3.8907530725
  0
LINE
  5
500
100
AcDbEntity
  8
SST_PHO
100
AcDbLine
 62
7
  6
CONTINUOUS
 10
3.1200108527
 20
4.5567530725
 11
3.0860108527
 21
4.5677530725
  0
LINE
  5
501
100
AcDbEntity
  8
SST_PHO
100
AcDbLine
 62
7
  6
CONTINUOUS
 10
5.7580108527
 20
3.4417530725
 11
5.7790108527
 21
3.4347530725
  0
LINE
  5
502
100
AcDbEntity
  8
SST_PHO
100
AcDbLine
 62
7
  6
CONTINUOUS
 10
6.3180108527
 20
3.3777530725
 11
6.2970108527
 21
3.3847530725
  0
LINE
  5
503
100
AcDbEntity
  8
SST_PHO
100
AcDbLine
 62
7
  6
CONTINUOUS
 10
5.9590108527
 20
3.5327530725
 11
5.9530108527
 21
3.5347530725
  0
LINE
  5
504
100
AcDbEntity
  8
SST_PHO
100
AcDbLine
 62
7
  6
CONTINUOUS
 10
5.4060108527
 20
3.6417530725
 11
5.4250108527
 21
3.6317530725
  0
LINE
  5
505
100
AcDbEntity
  8
SST_PHO
100
AcDbLine
 62
7
  6
CONTINUOUS
 10
6.3280108527
 20
2.9717530725
 11
6.3090108527
 21
2.9827530725
  0
LINE
  5
506
100
AcDbEntity
  8
SST_PHO
100
AcDbLine
 62
7
  6
CONTINUOUS
 10
6.0980108527
 20
3.2977530725
 11
6.1170108527
 21
3.2867530725
  0
LINE
  5
507
100
AcDbEntity
  8
SST_PHO
100
AcDbLine
 62
7
  6
CONTINUOUS
 10
5.9780108527
 20
3.5217530725
 11
5.9590108527
 21
3.5327530725
  0
LINE
  5
508
100
AcDbEntity
  8
SST_PHO
100
AcDbLine
 62
7
  6
CONTINUOUS
 10
3.9500108527
 20
4.5367530725
 11
3.9200108527
 21
4.5567530725
  0
LINE
  5
509
100
AcDbEntity
  8
SST_PHO
100
AcDbLine
 62
7
  6
CONTINUOUS
 10
6.0920108527
 20
2.9057530725
 11
6.1080108527
 21
2.8917530725
  0
LINE
  5
50A
100
AcDbEntity
  8
SST_PHO
100
AcDbLine
 62
7
  6
CONTINUOUS
 10
5.7420108527
 20
3.4557530725
 11
5.7580108527
 21
3.4417530725
  0
LINE
  5
50B
100
AcDbEntity
  8
SST_PHO
100
AcDbLine
 62
7
  6
CONTINUOUS
 10
6.3630108527
 20
2.7847530725
 11
6.4130108527
 21
2.7347530725
  0
LINE
  5
50C
100
AcDbEntity
  8
SST_PHO
100
AcDbLine
 62
7
  6
CONTINUOUS
 10
6.6430108527
 20
2.1647530725
 11
6.6760108527
 21
2.1257530725
  0
LINE
  5
50D
100
AcDbEntity
  8
SST_PHO
100
AcDbLine
 62
7
  6
CONTINUOUS
 10
4.7730108527
 20
4.5087530725
 11
4.7500108527
 21
4.5367530725
  0
LINE
  5
50E
100
AcDbEntity
  8
SST_PHO
100
AcDbLine
 62
7
  6
CONTINUOUS
 10
5.3930108527
 20
3.6587530725
 11
5.4060108527
 21
3.6417530725
  0
LINE
  5
50F
100
AcDbEntity
  8
SST_PHO
100
AcDbLine
 62
7
  6
CONTINUOUS
 10
5.7360108527
 20
2.7657530725
 11
5.7480108527
 21
2.7477530725
  0
LINE
  5
510
100
AcDbEntity
  8
SST_PHO
100
AcDbLine
 62
7
  6
CONTINUOUS
 10
4.7880108527
 20
4.4757530725
 11
4.7730108527
 21
4.5087530725
  0
LINE
  5
511
100
AcDbEntity
  8
SST_PHO
100
AcDbLine
 62
7
  6
CONTINUOUS
 10
5.4440108527
 20
2.2317530725
 11
5.4400108527
 21
2.2537530725
  0
LINE
  5
512
100
AcDbEntity
  8
SST_PHO
100
AcDbLine
 62
7
  6
CONTINUOUS
 10
4.7930108527
 20
4.4397530725
 11
4.7880108527
 21
4.4757530725
  0
LINE
  5
513
100
AcDbEntity
  8
SST_PHO
100
AcDbLine
 62
7
  6
CONTINUOUS
 10
5.2130108527
 20
2.1347530725
 11
5.2130108527
 21
1.7347530725
  0
LINE
  5
514
100
AcDbEntity
  8
SST_PHO
100
AcDbLine
 62
7
  6
CONTINUOUS
 10
5.3130108527
 20
2.8797530725
 11
5.3130108527
 21
2.7897530725
  0
LINE
  5
515
100
AcDbEntity
  8
SST_PHO
100
AcDbLine
 62
7
  6
CONTINUOUS
 10
5.3130108527
 20
2.7547530725
 11
5.3130108527
 21
2.6647530725
  0
LINE
  5
516
100
AcDbEntity
  8
SST_PHO
100
AcDbLine
 62
7
  6
CONTINUOUS
 10
5.3130108527
 20
2.6297530725
 11
5.3130108527
 21
2.5397530725
  0
LINE
  5
517
100
AcDbEntity
  8
SST_PHO
100
AcDbLine
 62
7
  6
CONTINUOUS
 10
5.3130108527
 20
2.5047530725
 11
5.3130108527
 21
2.4147530725
  0
LINE
  5
518
100
AcDbEntity
  8
SST_PHO
100
AcDbLine
 62
7
  6
CONTINUOUS
 10
5.3230108527
 20
4.4097530725
 11
5.3230108527
 21
4.0697530725
  0
LINE
  5
519
100
AcDbEntity
  8
SST_PHO
100
AcDbLine
 62
7
  6
CONTINUOUS
 10
5.3230108527
 20
2.4147530725
 11
5.3230108527
 21
2.5047530725
  0
LINE
  5
51A
100
AcDbEntity
  8
SST_PHO
100
AcDbLine
 62
7
  6
CONTINUOUS
 10
5.3230108527
 20
2.5397530725
 11
5.3230108527
 21
2.6297530725
  0
LINE
  5
51B
100
AcDbEntity
  8
SST_PHO
100
AcDbLine
 62
7
  6
CONTINUOUS
 10
5.3230108527
 20
2.6647530725
 11
5.3230108527
 21
2.7547530725
  0
LINE
  5
51C
100
AcDbEntity
  8
SST_PHO
100
AcDbLine
 62
7
  6
CONTINUOUS
 10
5.3230108527
 20
2.7897530725
 11
5.3230108527
 21
2.8797530725
  0
LINE
  5
51D
100
AcDbEntity
  8
SST_PHO
100
AcDbLine
 62
7
  6
CONTINUOUS
 10
5.3240108527
 20
4.0707530725
 11
5.3240108527
 21
4.0717530725
  0
LINE
  5
51E
100
AcDbEntity
  8
SST_PHO
100
AcDbLine
 62
7
  6
CONTINUOUS
 10
5.3240108527
 20
4.4067530725
 11
5.3240108527
 21
4.4087530725
  0
LINE
  5
51F
100
AcDbEntity
  8
SST_PHO
100
AcDbLine
 62
7
  6
CONTINUOUS
 10
5.3250108527
 20
4.0717530725
 11
5.3250108527
 21
4.0797530725
  0
LINE
  5
520
100
AcDbEntity
  8
SST_PHO
100
AcDbLine
 62
7
  6
CONTINUOUS
 10
5.3250108527
 20
4.3997530725
 11
5.3250108527
 21
4.4067530725
  0
LINE
  5
521
100
AcDbEntity
  8
SST_PHO
100
AcDbLine
 62
7
  6
CONTINUOUS
 10
5.3330108527
 20
4.4487530725
 11
5.3330108527
 21
4.4097530725
  0
LINE
  5
522
100
AcDbEntity
  8
SST_PHO
100
AcDbLine
 62
7
  6
CONTINUOUS
 10
5.3330108527
 20
4.3997530725
 11
5.3330108527
 21
4.0797530725
  0
LINE
  5
523
100
AcDbEntity
  8
SST_PHO
100
AcDbLine
 62
7
  6
CONTINUOUS
 10
5.3400108527
 20
4.4067530725
 11
5.3400108527
 21
4.3997530725
  0
LINE
  5
524
100
AcDbEntity
  8
SST_PHO
100
AcDbLine
 62
7
  6
CONTINUOUS
 10
5.3400108527
 20
4.0797530725
 11
5.3400108527
 21
4.0717530725
  0
LINE
  5
525
100
AcDbEntity
  8
SST_PHO
100
AcDbLine
 62
7
  6
CONTINUOUS
 10
5.3420108527
 20
4.4087530725
 11
5.3420108527
 21
4.4067530725
  0
LINE
  5
526
100
AcDbEntity
  8
SST_PHO
100
AcDbLine
 62
7
  6
CONTINUOUS
 10
5.3420108527
 20
4.0717530725
 11
5.3420108527
 21
4.0707530725
  0
LINE
  5
527
100
AcDbEntity
  8
SST_PHO
100
AcDbLine
 62
7
  6
CONTINUOUS
 10
5.3430108527
 20
4.4097530725
 11
5.3430108527
 21
4.0697530725
  0
LINE
  5
528
100
AcDbEntity
  8
SST_PHO
100
AcDbLine
 62
7
  6
CONTINUOUS
 10
5.3630108527
 20
3.4097530725
 11
5.3630108527
 21
4.0597530725
  0
LINE
  5
529
100
AcDbEntity
  8
SST_PHO
100
AcDbLine
 62
7
  6
CONTINUOUS
 10
5.3730108527
 20
3.0447530725
 11
5.3730108527
 21
3.3247530725
  0
LINE
  5
52A
100
AcDbEntity
  8
SST_PHO
100
AcDbLine
 62
7
  6
CONTINUOUS
 10
5.3880108527
 20
3.8497530725
 11
5.3880108527
 21
3.6697530725
  0
LINE
  5
52B
100
AcDbEntity
  8
SST_PHO
100
AcDbLine
 62
7
  6
CONTINUOUS
 10
5.3880108527
 20
2.8847530725
 11
5.3880108527
 21
2.7847530725
  0
LINE
  5
52C
100
AcDbEntity
  8
SST_PHO
100
AcDbLine
 62
7
  6
CONTINUOUS
 10
5.3880108527
 20
2.7597530725
 11
5.3880108527
 21
2.6597530725
  0
LINE
  5
52D
100
AcDbEntity
  8
SST_PHO
100
AcDbLine
 62
7
  6
CONTINUOUS
 10
5.3880108527
 20
2.6347530725
 11
5.3880108527
 21
2.5347530725
  0
LINE
  5
52E
100
AcDbEntity
  8
SST_PHO
100
AcDbLine
 62
7
  6
CONTINUOUS
 10
5.3880108527
 20
2.5097530725
 11
5.3880108527
 21
2.4097530725
  0
LINE
  5
52F
100
AcDbEntity
  8
SST_PHO
100
AcDbLine
 62
7
  6
CONTINUOUS
 10
5.4130108527
 20
1.7347530725
 11
5.4130108527
 21
2.1347530725
  0
LINE
  5
530
100
AcDbEntity
  8
SST_PHO
100
AcDbLine
 62
7
  6
CONTINUOUS
 10
5.4380108527
 20
3.6297530725
 11
5.4380108527
 21
3.5597530725
  0
LINE
  5
531
100
AcDbEntity
  8
SST_PHO
100
AcDbLine
 62
7
  6
CONTINUOUS
 10
5.4380108527
 20
3.8897530725
 11
5.4380108527
 21
3.9597530725
  0
LINE
  5
532
100
AcDbEntity
  8
SST_PHO
100
AcDbLine
 62
7
  6
CONTINUOUS
 10
5.4880108527
 20
3.6697530725
 11
5.4880108527
 21
3.8497530725
  0
LINE
  5
533
100
AcDbEntity
  8
SST_PHO
100
AcDbLine
 62
7
  6
CONTINUOUS
 10
5.1850108527
 20
2.2477530725
 11
5.1840108527
 21
2.2257530725
  0
LINE
  5
534
100
AcDbEntity
  8
SST_PHO
100
AcDbLine
 62
7
  6
CONTINUOUS
 10
5.3410108527
 20
4.4837530725
 11
5.3330108527
 21
4.4487530725
  0
LINE
  5
535
100
AcDbEntity
  8
SST_PHO
100
AcDbLine
 62
7
  6
CONTINUOUS
 10
4.6880108527
 20
1.8087530725
 11
4.6820108527
 21
1.7877530725
  0
LINE
  5
536
100
AcDbEntity
  8
SST_PHO
100
AcDbLine
 62
7
  6
CONTINUOUS
 10
5.3900108527
 20
3.8567530725
 11
5.3880108527
 21
3.8497530725
  0
LINE
  5
537
100
AcDbEntity
  8
SST_PHO
100
AcDbLine
 62
7
  6
CONTINUOUS
 10
5.3580108527
 20
4.5157530725
 11
5.3410108527
 21
4.4837530725
  0
LINE
  5
538
100
AcDbEntity
  8
SST_PHO
100
AcDbLine
 62
7
  6
CONTINUOUS
 10
3.3807809315
 20
1.6375231512
 11
3.3782608527
 21
1.63374323
  0
LINE
  5
539
100
AcDbEntity
  8
SST_PHO
100
AcDbLine
 62
7
  6
CONTINUOUS
 10
3.3831695142
 20
1.6361617339
 11
3.3805234512
 21
1.6321924426
  0
LINE
  5
53A
100
AcDbEntity
  8
SST_PHO
100
AcDbLine
 62
7
  6
CONTINUOUS
 10
3.4983108527
 20
1.6843530725
 11
3.5018108527
 21
1.6892530725
  0
LINE
  5
53B
100
AcDbEntity
  8
SST_PHO
100
AcDbLine
 62
7
  6
CONTINUOUS
 10
3.4003108527
 20
1.6843530725
 11
3.4045108527
 21
1.6899530725
  0
LINE
  5
53C
100
AcDbEntity
  8
SST_PHO
100
AcDbLine
 62
7
  6
CONTINUOUS
 10
3.3782608527
 20
1.67154323
 11
3.375740774
 21
1.66839323
  0
LINE
  5
53D
100
AcDbEntity
  8
SST_PHO
100
AcDbLine
 62
7
  6
CONTINUOUS
 10
3.3805234512
 20
1.6718826
 11
3.3778773882
 21
1.6685751197
  0
LINE
  5
53E
100
AcDbEntity
  8
SST_PHO
100
AcDbLine
 62
7
  6
CONTINUOUS
 10
3.8240108527
 20
2.5937530725
 11
3.8380108527
 21
2.6107530725
  0
LINE
  5
53F
100
AcDbEntity
  8
SST_PHO
100
AcDbLine
 62
7
  6
CONTINUOUS
 10
5.3830108527
 20
4.5417530725
 11
5.3580108527
 21
4.5157530725
  0
LINE
  5
540
100
AcDbEntity
  8
SST_PHO
100
AcDbLine
 62
7
  6
CONTINUOUS
 10
4.0130108527
 20
2.9097530725
 11
4.0380108527
 21
2.9347530725
  0
LINE
  5
541
100
AcDbEntity
  8
SST_PHO
100
AcDbLine
 62
7
  6
CONTINUOUS
 10
3.7130108527
 20
2.4847530725
 11
3.7630108527
 21
2.5347530725
  0
LINE
  5
542
100
AcDbEntity
  8
SST_PHO
100
AcDbLine
 62
7
  6
CONTINUOUS
 10
3.0120108527
 20
2.6797530725
 11
2.9950108527
 21
2.6667530725
  0
LINE
  5
543
100
AcDbEntity
  8
SST_PHO
100
AcDbLine
 62
7
  6
CONTINUOUS
 10
5.4140108527
 20
4.5607530725
 11
5.3830108527
 21
4.5417530725
  0
LINE
  5
544
100
AcDbEntity
  8
SST_PHO
100
AcDbLine
 62
7
  6
CONTINUOUS
 10
2.4720108527
 20
3.3907530725
 11
2.5080108527
 21
3.4017530725
  0
LINE
  5
545
100
AcDbEntity
  8
SST_PHO
100
AcDbLine
 62
7
  6
CONTINUOUS
 10
5.9480108527
 20
3.9297530725
 11
5.9380108527
 21
3.9297530725
  0
LINE
  5
546
100
AcDbEntity
  8
SST_PHO
100
AcDbLine
 62
7
  6
CONTINUOUS
 10
5.9630108527
 20
3.9347530725
 11
5.7630108527
 21
3.9347530725
  0
LINE
  5
547
100
AcDbEntity
  8
SST_PHO
100
AcDbLine
 62
7
  6
CONTINUOUS
 10
5.9380108527
 20
3.9397530725
 11
5.9480108527
 21
3.9397530725
  0
LINE
  5
548
100
AcDbEntity
  8
SST_PHO
100
AcDbLine
 62
7
  6
CONTINUOUS
 10
6.0630108527
 20
3.9847530725
 11
5.9630108527
 21
3.9847530725
  0
LINE
  5
549
100
AcDbEntity
  8
SST_PHO
100
AcDbLine
 62
7
  6
CONTINUOUS
 10
5.6630108527
 20
3.9847530725
 11
5.7630108527
 21
3.9847530725
  0
LINE
  5
54A
100
AcDbEntity
  8
SST_PHO
100
AcDbLine
 62
7
  6
CONTINUOUS
 10
5.9480108527
 20
4.0297530725
 11
5.9380108527
 21
4.0297530725
  0
LINE
  5
54B
100
AcDbEntity
  8
SST_PHO
100
AcDbLine
 62
7
  6
CONTINUOUS
 10
5.7630108527
 20
4.0347530725
 11
6.0380108527
 21
4.0347530725
  0
LINE
  5
54C
100
AcDbEntity
  8
SST_PHO
100
AcDbLine
 62
7
  6
CONTINUOUS
 10
6.0130108527
 20
4.0397530725
 11
6.0230108527
 21
4.0397530725
  0
LINE
  5
54D
100
AcDbEntity
  8
SST_PHO
100
AcDbLine
 62
7
  6
CONTINUOUS
 10
2.2630108527
 20
4.0597530725
 11
5.3630108527
 21
4.0597530725
  0
LINE
  5
54E
100
AcDbEntity
  8
SST_PHO
100
AcDbLine
 62
7
  6
CONTINUOUS
 10
2.9230108527
 20
4.0697530725
 11
3.2030108527
 21
4.0697530725
  0
LINE
  5
54F
100
AcDbEntity
  8
SST_PHO
100
AcDbLine
 62
7
  6
CONTINUOUS
 10
3.7230108527
 20
4.0697530725
 11
4.0030108527
 21
4.0697530725
  0
LINE
  5
550
100
AcDbEntity
  8
SST_PHO
100
AcDbLine
 62
7
  6
CONTINUOUS
 10
4.5230108527
 20
4.0697530725
 11
4.8030108527
 21
4.0697530725
  0
LINE
  5
551
100
AcDbEntity
  8
SST_PHO
100
AcDbLine
 62
7
  6
CONTINUOUS
 10
5.3230108527
 20
4.0697530725
 11
5.6030108527
 21
4.0697530725
  0
LINE
  5
552
100
AcDbEntity
  8
SST_PHO
100
AcDbLine
 62
7
  6
CONTINUOUS
 10
5.3420108527
 20
4.0707530725
 11
5.3400108527
 21
4.0707530725
  0
LINE
  5
553
100
AcDbEntity
  8
SST_PHO
100
AcDbLine
 62
7
  6
CONTINUOUS
 10
5.3250108527
 20
4.0707530725
 11
5.3240108527
 21
4.0707530725
  0
LINE
  5
554
100
AcDbEntity
  8
SST_PHO
100
AcDbLine
 62
7
  6
CONTINUOUS
 10
4.5420108527
 20
4.0707530725
 11
4.5400108527
 21
4.0707530725
  0
LINE
  5
555
100
AcDbEntity
  8
SST_PHO
100
AcDbLine
 62
7
  6
CONTINUOUS
 10
4.5250108527
 20
4.0707530725
 11
4.5240108527
 21
4.0707530725
  0
LINE
  5
556
100
AcDbEntity
  8
SST_PHO
100
AcDbLine
 62
7
  6
CONTINUOUS
 10
3.7420108527
 20
4.0707530725
 11
3.7400108527
 21
4.0707530725
  0
LINE
  5
557
100
AcDbEntity
  8
SST_PHO
100
AcDbLine
 62
7
  6
CONTINUOUS
 10
3.7250108527
 20
4.0707530725
 11
3.7240108527
 21
4.0707530725
  0
LINE
  5
558
100
AcDbEntity
  8
SST_PHO
100
AcDbLine
 62
7
  6
CONTINUOUS
 10
2.9420108527
 20
4.0707530725
 11
2.9400108527
 21
4.0707530725
  0
LINE
  5
559
100
AcDbEntity
  8
SST_PHO
100
AcDbLine
 62
7
  6
CONTINUOUS
 10
2.9250108527
 20
4.0707530725
 11
2.9240108527
 21
4.0707530725
  0
LINE
  5
55A
100
AcDbEntity
  8
SST_PHO
100
AcDbLine
 62
7
  6
CONTINUOUS
 10
5.3400108527
 20
4.0717530725
 11
5.3250108527
 21
4.0717530725
  0
LINE
  5
55B
100
AcDbEntity
  8
SST_PHO
100
AcDbLine
 62
7
  6
CONTINUOUS
 10
4.5400108527
 20
4.0717530725
 11
4.5250108527
 21
4.0717530725
  0
LINE
  5
55C
100
AcDbEntity
  8
SST_PHO
100
AcDbLine
 62
7
  6
CONTINUOUS
 10
3.7400108527
 20
4.0717530725
 11
3.7250108527
 21
4.0717530725
  0
LINE
  5
55D
100
AcDbEntity
  8
SST_PHO
100
AcDbLine
 62
7
  6
CONTINUOUS
 10
2.9400108527
 20
4.0717530725
 11
2.9250108527
 21
4.0717530725
  0
LINE
  5
55E
100
AcDbEntity
  8
SST_PHO
100
AcDbLine
 62
7
  6
CONTINUOUS
 10
6.1380108527
 20
4.0847530725
 11
6.0380108527
 21
4.0847530725
  0
LINE
  5
55F
100
AcDbEntity
  8
SST_PHO
100
AcDbLine
 62
7
  6
CONTINUOUS
 10
2.4630108527
 20
4.0847530725
 11
2.7130108527
 21
4.0847530725
  0
LINE
  5
560
100
AcDbEntity
  8
SST_PHO
100
AcDbLine
 62
7
  6
CONTINUOUS
 10
5.7380108527
 20
4.0847530725
 11
5.8380108527
 21
4.0847530725
  0
LINE
  5
561
100
AcDbEntity
  8
SST_PHO
100
AcDbLine
 62
7
  6
CONTINUOUS
 10
6.0230108527
 20
4.1297530725
 11
6.0130108527
 21
4.1297530725
  0
LINE
  5
562
100
AcDbEntity
  8
SST_PHO
100
AcDbLine
 62
7
  6
CONTINUOUS
 10
6.0380108527
 20
4.1347530725
 11
5.8380108527
 21
4.1347530725
  0
LINE
  5
563
100
AcDbEntity
  8
SST_PHO
100
AcDbLine
 62
7
  6
CONTINUOUS
 10
2.3880108527
 20
4.1347530725
 11
2.4630108527
 21
4.1347530725
  0
LINE
  5
564
100
AcDbEntity
  8
SST_PHO
100
AcDbLine
 62
7
  6
CONTINUOUS
 10
2.7130108527
 20
4.1347530725
 11
2.7880108527
 21
4.1347530725
  0
LINE
  5
565
100
AcDbEntity
  8
SST_PHO
100
AcDbLine
 62
7
  6
CONTINUOUS
 10
6.0130108527
 20
4.1397530725
 11
6.0230108527
 21
4.1397530725
  0
LINE
  5
566
100
AcDbEntity
  8
SST_PHO
100
AcDbLine
 62
7
  6
CONTINUOUS
 10
6.1380108527
 20
4.1847530725
 11
6.0380108527
 21
4.1847530725
  0
LINE
  5
567
100
AcDbEntity
  8
SST_PHO
100
AcDbLine
 62
7
  6
CONTINUOUS
 10
2.7130108527
 20
4.1847530725
 11
2.4630108527
 21
4.1847530725
  0
LINE
  5
568
100
AcDbEntity
  8
SST_PHO
100
AcDbLine
 62
7
  6
CONTINUOUS
 10
5.7380108527
 20
4.1847530725
 11
5.8380108527
 21
4.1847530725
  0
LINE
  5
569
100
AcDbEntity
  8
SST_PHO
100
AcDbLine
 62
7
  6
CONTINUOUS
 10
2.6880108527
 20
4.2097530725
 11
2.4880108527
 21
4.2097530725
  0
LINE
  5
56A
100
AcDbEntity
  8
SST_PHO
100
AcDbLine
 62
7
  6
CONTINUOUS
 10
2.6630108527
 20
4.2147530725
 11
2.6730108527
 21
4.2147530725
  0
LINE
  5
56B
100
AcDbEntity
  8
SST_PHO
100
AcDbLine
 62
7
  6
CONTINUOUS
 10
6.0230108527
 20
4.2297530725
 11
6.0130108527
 21
4.2297530725
  0
LINE
  5
56C
100
AcDbEntity
  8
SST_PHO
100
AcDbLine
 62
7
  6
CONTINUOUS
 10
6.0380108527
 20
4.2347530725
 11
5.8380108527
 21
4.2347530725
  0
LINE
  5
56D
100
AcDbEntity
  8
SST_PHO
100
AcDbLine
 62
7
  6
CONTINUOUS
 10
6.0130108527
 20
4.2397530725
 11
6.0230108527
 21
4.2397530725
  0
LINE
  5
56E
100
AcDbEntity
  8
SST_PHO
100
AcDbLine
 62
7
  6
CONTINUOUS
 10
2.7880108527
 20
4.2597530725
 11
2.6880108527
 21
4.2597530725
  0
LINE
  5
56F
100
AcDbEntity
  8
SST_PHO
100
AcDbLine
 62
7
  6
CONTINUOUS
 10
2.3880108527
 20
4.2597530725
 11
2.4880108527
 21
4.2597530725
  0
LINE
  5
570
100
AcDbEntity
  8
SST_PHO
100
AcDbLine
 62
7
  6
CONTINUOUS
 10
6.1380108527
 20
4.2847530725
 11
6.0380108527
 21
4.2847530725
  0
LINE
  5
571
100
AcDbEntity
  8
SST_PHO
100
AcDbLine
 62
7
  6
CONTINUOUS
 10
5.7380108527
 20
4.2847530725
 11
5.8380108527
 21
4.2847530725
  0
LINE
  5
572
100
AcDbEntity
  8
SST_PHO
100
AcDbLine
 62
7
  6
CONTINUOUS
 10
3.9200108527
 20
4.5567530725
 11
3.8860108527
 21
4.5677530725
  0
LINE
  5
573
100
AcDbEntity
  8
SST_PHO
100
AcDbLine
 62
7
  6
CONTINUOUS
 10
4.7500108527
 20
4.5367530725
 11
4.7200108527
 21
4.5567530725
  0
LINE
  5
574
100
AcDbEntity
  8
SST_PHO
100
AcDbLine
 62
7
  6
CONTINUOUS
 10
6.3340108527
 20
3.3637530725
 11
6.3180108527
 21
3.3777530725
  0
LINE
  5
575
100
AcDbEntity
  8
SST_PHO
100
AcDbLine
 62
7
  6
CONTINUOUS
 10
5.4790108527
 20
3.8697530725
 11
5.4630108527
 21
3.8847530725
  0
LINE
  5
576
100
AcDbEntity
  8
SST_PHO
100
AcDbLine
 62
7
  6
CONTINUOUS
 10
6.0860108527
 20
3.3157530725
 11
6.0980108527
 21
3.2977530725
  0
LINE
  5
577
100
AcDbEntity
  8
SST_PHO
100
AcDbLine
 62
7
  6
CONTINUOUS
 10
6.3400108527
 20
2.9537530725
 11
6.3280108527
 21
2.9717530725
  0
LINE
  5
578
100
AcDbEntity
  8
SST_PHO
100
AcDbLine
 62
7
  6
CONTINUOUS
 10
5.9900108527
 20
3.5037530725
 11
5.9780108527
 21
3.5217530725
  0
LINE
  5
579
100
AcDbEntity
  8
SST_PHO
100
AcDbLine
 62
7
  6
CONTINUOUS
 10
6.6760108527
 20
2.1257530725
 11
6.7030108527
 21
2.0827530725
  0
LINE
  5
57A
100
AcDbEntity
  8
SST_PHO
100
AcDbLine
 62
7
  6
CONTINUOUS
 10
5.4880108527
 20
3.8497530725
 11
5.4790108527
 21
3.8697530725
  0
LINE
  5
57B
100
AcDbEntity
  8
SST_PHO
100
AcDbLine
 62
7
  6
CONTINUOUS
 10
5.9920108527
 20
2.3937530725
 11
5.9840108527
 21
2.4137530725
  0
LINE
  5
57C
100
AcDbEntity
  8
SST_PHO
100
AcDbLine
 62
7
  6
CONTINUOUS
 10
5.9920108527
 20
2.7937530725
 11
5.9840108527
 21
2.8137530725
  0
LINE
  5
57D
100
AcDbEntity
  8
SST_PHO
100
AcDbLine
 62
7
  6
CONTINUOUS
 10
5.7340108527
 20
3.4757530725
 11
5.7420108527
 21
3.4557530725
  0
LINE
  5
57E
100
AcDbEntity
  8
SST_PHO
100
AcDbLine
 62
7
  6
CONTINUOUS
 10
6.0840108527
 20
2.9257530725
 11
6.0920108527
 21
2.9057530725
  0
LINE
  5
57F
100
AcDbEntity
  8
SST_PHO
100
AcDbLine
 62
7
  6
CONTINUOUS
 10
6.1230108527
 20
1.7867530725
 11
6.1040108527
 21
1.8347530725
  0
LINE
  5
580
100
AcDbEntity
  8
SST_PHO
100
AcDbLine
 62
7
  6
CONTINUOUS
 10
6.1040108527
 20
1.8347530725
 11
6.0920108527
 21
1.8837530725
  0
LINE
  5
581
100
AcDbEntity
  8
SST_PHO
100
AcDbLine
 62
7
  6
CONTINUOUS
 10
5.3880108527
 20
3.6797530725
 11
5.3930108527
 21
3.6587530725
  0
LINE
  5
582
100
AcDbEntity
  8
SST_PHO
100
AcDbLine
 62
7
  6
CONTINUOUS
 10
5.7320108527
 20
2.3877530725
 11
5.7360108527
 21
2.3657530725
  0
LINE
  5
583
100
AcDbEntity
  8
SST_PHO
100
AcDbLine
 62
7
  6
CONTINUOUS
 10
5.7320108527
 20
2.7877530725
 11
5.7360108527
 21
2.7657530725
  0
LINE
  5
584
100
AcDbEntity
  8
SST_PHO
100
AcDbLine
 62
7
  6
CONTINUOUS
 10
6.0920108527
 20
1.8837530725
 11
6.0880108527
 21
1.9347530725
  0
LINE
  5
585
100
AcDbEntity
  8
SST_PHO
100
AcDbLine
 62
7
  6
CONTINUOUS
 10
5.5930108527
 20
4.4497530725
 11
5.5930108527
 21
4.4097530725
  0
LINE
  5
586
100
AcDbEntity
  8
SST_PHO
100
AcDbLine
 62
7
  6
CONTINUOUS
 10
5.6030108527
 20
4.0697530725
 11
5.6030108527
 21
4.4097530725
  0
LINE
  5
587
100
AcDbEntity
  8
SST_PHO
100
AcDbLine
 62
7
  6
CONTINUOUS
 10
5.6480108527
 20
2.2697530725
 11
5.6480108527
 21
2.3497530725
  0
LINE
  5
588
100
AcDbEntity
  8
SST_PHO
100
AcDbLine
 62
7
  6
CONTINUOUS
 10
5.6530108527
 20
3.3247530725
 11
5.6530108527
 21
3.0447530725
  0
LINE
  5
589
100
AcDbEntity
  8
SST_PHO
100
AcDbLine
 62
7
  6
CONTINUOUS
 10
5.6880108527
 20
2.0347530725
 11
5.6880108527
 21
1.7347530725
  0
LINE
  5
58A
100
AcDbEntity
  8
SST_PHO
100
AcDbLine
 62
7
  6
CONTINUOUS
 10
5.7380108527
 20
3.7347530725
 11
5.7380108527
 21
3.5347530725
  0
LINE
  5
58B
100
AcDbEntity
  8
SST_PHO
100
AcDbLine
 62
7
  6
CONTINUOUS
 10
5.7380108527
 20
2.7347530725
 11
5.7380108527
 21
2.4347530725
  0
LINE
  5
58C
100
AcDbEntity
  8
SST_PHO
100
AcDbLine
 62
7
  6
CONTINUOUS
 10
5.7630108527
 20
3.7347530725
 11
5.7630108527
 21
4.0347530725
  0
LINE
  5
58D
100
AcDbEntity
  8
SST_PHO
100
AcDbLine
 62
7
  6
CONTINUOUS
 10
5.7880108527
 20
3.2597530725
 11
5.7880108527
 21
3.0097530725
  0
LINE
  5
58E
100
AcDbEntity
  8
SST_PHO
100
AcDbLine
 62
7
  6
CONTINUOUS
 10
5.8380108527
 20
3.3347530725
 11
5.8380108527
 21
3.2597530725
  0
LINE
  5
58F
100
AcDbEntity
  8
SST_PHO
100
AcDbLine
 62
7
  6
CONTINUOUS
 10
5.8380108527
 20
3.0097530725
 11
5.8380108527
 21
2.9347530725
  0
LINE
  5
590
100
AcDbEntity
  8
SST_PHO
100
AcDbLine
 62
7
  6
CONTINUOUS
 10
5.8380108527
 20
4.0347530725
 11
5.8380108527
 21
4.3347530725
  0
LINE
  5
591
100
AcDbEntity
  8
SST_PHO
100
AcDbLine
 62
7
  6
CONTINUOUS
 10
5.8880108527
 20
3.0097530725
 11
5.8880108527
 21
3.2597530725
  0
LINE
  5
592
100
AcDbEntity
  8
SST_PHO
100
AcDbLine
 62
7
  6
CONTINUOUS
 10
5.7350108527
 20
3.4977530725
 11
5.7340108527
 21
3.4757530725
  0
LINE
  5
593
100
AcDbEntity
  8
SST_PHO
100
AcDbLine
 62
7
  6
CONTINUOUS
 10
5.4810108527
 20
3.6547530725
 11
5.4880108527
 21
3.6757530725
  0
LINE
  5
594
100
AcDbEntity
  8
SST_PHO
100
AcDbLine
 62
7
  6
CONTINUOUS
 10
5.4010108527
 20
3.8747530725
 11
5.3900108527
 21
3.8567530725
  0
LINE
  5
595
100
AcDbEntity
  8
SST_PHO
100
AcDbLine
 62
7
  6
CONTINUOUS
 10
3.5375108527
 20
1.6402530725
 11
3.5319108527
 21
1.6332530725
  0
LINE
  5
596
100
AcDbEntity
  8
SST_PHO
100
AcDbLine
 62
7
  6
CONTINUOUS
 10
3.5312108527
 20
1.6423530725
 11
3.5270108527
 21
1.6374530725
  0
LINE
  5
597
100
AcDbEntity
  8
SST_PHO
100
AcDbLine
 62
7
  6
CONTINUOUS
 10
5.4670108527
 20
3.6387530725
 11
5.4810108527
 21
3.6547530725
  0
LINE
  5
598
100
AcDbEntity
  8
SST_PHO
100
AcDbLine
 62
7
  6
CONTINUOUS
 10
3.5732108527
 20
1.6850530725
 11
3.5788108527
 21
1.6913530725
  0
LINE
  5
599
100
AcDbEntity
  8
SST_PHO
100
AcDbLine
 62
7
  6
CONTINUOUS
 10
3.6124108527
 20
1.6318530725
 11
3.6180108527
 21
1.6381530725
  0
LINE
  5
59A
100
AcDbEntity
  8
SST_PHO
100
AcDbLine
 62
7
  6
CONTINUOUS
 10
4.5130108527
 20
2.9097530725
 11
4.5380108527
 21
2.9347530725
  0
LINE
  5
59B
100
AcDbEntity
  8
SST_PHO
100
AcDbLine
 62
7
  6
CONTINUOUS
 10
3.4045108527
 20
1.6899530725
 11
3.4094108527
 21
1.6948530725
  0
LINE
  5
59C
100
AcDbEntity
  8
SST_PHO
100
AcDbLine
 62
7
  6
CONTINUOUS
 10
3.3782608527
 20
1.63374323
 11
3.3744809315
 21
1.629962915
  0
LINE
  5
59D
100
AcDbEntity
  8
SST_PHO
100
AcDbLine
 62
7
  6
CONTINUOUS
 10
3.4535108527
 20
1.6444530725
 11
3.4493108527
 21
1.6402530725
  0
LINE
  5
59E
100
AcDbEntity
  8
SST_PHO
100
AcDbLine
 62
7
  6
CONTINUOUS
 10
3.457290774
 20
1.6416530725
 11
3.4522510102
 21
1.636612915
  0
LINE
  5
59F
100
AcDbEntity
  8
SST_PHO
100
AcDbLine
 62
7
  6
CONTINUOUS
 10
3.4596990417
 20
1.6384329937
 11
3.4541549472
 21
1.6328888993
  0
LINE
  5
5A0
100
AcDbEntity
  8
SST_PHO
100
AcDbLine
 62
7
  6
CONTINUOUS
 10
3.4633108527
 20
1.6367530725
 11
3.4570108527
 21
1.6304530725
  0
LINE
  5
5A1
100
AcDbEntity
  8
SST_PHO
100
AcDbLine
 62
7
  6
CONTINUOUS
 10
3.3805234512
 20
1.6321924426
 11
3.3765541598
 21
1.6282235449
  0
LINE
  5
5A2
100
AcDbEntity
  8
SST_PHO
100
AcDbLine
 62
7
  6
CONTINUOUS
 10
3.6120108527
 20
2.6797530725
 11
3.5950108527
 21
2.6667530725
  0
LINE
  5
5A3
100
AcDbEntity
  8
SST_PHO
100
AcDbLine
 62
7
  6
CONTINUOUS
 10
5.4200108527
 20
3.8877530725
 11
5.4010108527
 21
3.8747530725
  0
LINE
  5
5A4
100
AcDbEntity
  8
SST_PHO
100
AcDbLine
 62
7
  6
CONTINUOUS
 10
2.6100108527
 20
3.0807530725
 11
2.5730108527
 21
3.0687530725
  0
LINE
  5
5A5
100
AcDbEntity
  8
SST_PHO
100
AcDbLine
 62
7
  6
CONTINUOUS
 10
5.4490108527
 20
4.5687530725
 11
5.4140108527
 21
4.5607530725
  0
LINE
  5
5A6
100
AcDbEntity
  8
SST_PHO
100
AcDbLine
 62
7
  6
CONTINUOUS
 10
2.6730108527
 20
4.3047530725
 11
2.6630108527
 21
4.3047530725
  0
LINE
  5
5A7
100
AcDbEntity
  8
SST_PHO
100
AcDbLine
 62
7
  6
CONTINUOUS
 10
2.4880108527
 20
4.3097530725
 11
2.6880108527
 21
4.3097530725
  0
LINE
  5
5A8
100
AcDbEntity
  8
SST_PHO
100
AcDbLine
 62
7
  6
CONTINUOUS
 10
6.0230108527
 20
4.3297530725
 11
6.0130108527
 21
4.3297530725
  0
LINE
  5
5A9
100
AcDbEntity
  8
SST_PHO
100
AcDbLine
 62
7
  6
CONTINUOUS
 10
5.8380108527
 20
4.3347530725
 11
6.0380108527
 21
4.3347530725
  0
LINE
  5
5AA
100
AcDbEntity
  8
SST_PHO
100
AcDbLine
 62
7
  6
CONTINUOUS
 10
2.9250108527
 20
4.4067530725
 11
2.9400108527
 21
4.4067530725
  0
LINE
  5
5AB
100
AcDbEntity
  8
SST_PHO
100
AcDbLine
 62
7
  6
CONTINUOUS
 10
3.7250108527
 20
4.4067530725
 11
3.7400108527
 21
4.4067530725
  0
LINE
  5
5AC
100
AcDbEntity
  8
SST_PHO
100
AcDbLine
 62
7
  6
CONTINUOUS
 10
4.5250108527
 20
4.4067530725
 11
4.5400108527
 21
4.4067530725
  0
LINE
  5
5AD
100
AcDbEntity
  8
SST_PHO
100
AcDbLine
 62
7
  6
CONTINUOUS
 10
5.3250108527
 20
4.4067530725
 11
5.3400108527
 21
4.4067530725
  0
LINE
  5
5AE
100
AcDbEntity
  8
SST_PHO
100
AcDbLine
 62
7
  6
CONTINUOUS
 10
2.9240108527
 20
4.4087530725
 11
2.9250108527
 21
4.4087530725
  0
LINE
  5
5AF
100
AcDbEntity
  8
SST_PHO
100
AcDbLine
 62
7
  6
CONTINUOUS
 10
2.9400108527
 20
4.4087530725
 11
2.9420108527
 21
4.4087530725
  0
LINE
  5
5B0
100
AcDbEntity
  8
SST_PHO
100
AcDbLine
 62
7
  6
CONTINUOUS
 10
3.7240108527
 20
4.4087530725
 11
3.7250108527
 21
4.4087530725
  0
LINE
  5
5B1
100
AcDbEntity
  8
SST_PHO
100
AcDbLine
 62
7
  6
CONTINUOUS
 10
3.7400108527
 20
4.4087530725
 11
3.7420108527
 21
4.4087530725
  0
LINE
  5
5B2
100
AcDbEntity
  8
SST_PHO
100
AcDbLine
 62
7
  6
CONTINUOUS
 10
4.5240108527
 20
4.4087530725
 11
4.5250108527
 21
4.4087530725
  0
LINE
  5
5B3
100
AcDbEntity
  8
SST_PHO
100
AcDbLine
 62
7
  6
CONTINUOUS
 10
4.5400108527
 20
4.4087530725
 11
4.5420108527
 21
4.4087530725
  0
LINE
  5
5B4
100
AcDbEntity
  8
SST_PHO
100
AcDbLine
 62
7
  6
CONTINUOUS
 10
5.3240108527
 20
4.4087530725
 11
5.3250108527
 21
4.4087530725
  0
LINE
  5
5B5
100
AcDbEntity
  8
SST_PHO
100
AcDbLine
 62
7
  6
CONTINUOUS
 10
5.3400108527
 20
4.4087530725
 11
5.3420108527
 21
4.4087530725
  0
LINE
  5
5B6
100
AcDbEntity
  8
SST_PHO
100
AcDbLine
 62
7
  6
CONTINUOUS
 10
5.6030108527
 20
4.4097530725
 11
5.3230108527
 21
4.4097530725
  0
LINE
  5
5B7
100
AcDbEntity
  8
SST_PHO
100
AcDbLine
 62
7
  6
CONTINUOUS
 10
4.8030108527
 20
4.4097530725
 11
4.5230108527
 21
4.4097530725
  0
LINE
  5
5B8
100
AcDbEntity
  8
SST_PHO
100
AcDbLine
 62
7
  6
CONTINUOUS
 10
4.0030108527
 20
4.4097530725
 11
3.7230108527
 21
4.4097530725
  0
LINE
  5
5B9
100
AcDbEntity
  8
SST_PHO
100
AcDbLine
 62
7
  6
CONTINUOUS
 10
3.2030108527
 20
4.4097530725
 11
2.9230108527
 21
4.4097530725
  0
LINE
  5
5BA
100
AcDbEntity
  8
SST_PHO
100
AcDbLine
 62
7
  6
CONTINUOUS
 10
1.7630108527
 20
4.4847530725
 11
6.7630108527
 21
4.4847530725
  0
LINE
  5
5BB
100
AcDbEntity
  8
SST_PHO
100
AcDbLine
 62
7
  6
CONTINUOUS
 10
3.0860108527
 20
4.5677530725
 11
3.0490108527
 21
4.5687530725
  0
LINE
  5
5BC
100
AcDbEntity
  8
SST_PHO
100
AcDbLine
 62
7
  6
CONTINUOUS
 10
3.8860108527
 20
4.5677530725
 11
3.8490108527
 21
4.5687530725
  0
LINE
  5
5BD
100
AcDbEntity
  8
SST_PHO
100
AcDbLine
 62
7
  6
CONTINUOUS
 10
4.6860108527
 20
4.5677530725
 11
4.6490108527
 21
4.5687530725
  0
LINE
  5
5BE
100
AcDbEntity
  8
SST_PHO
100
AcDbLine
 62
7
  6
CONTINUOUS
 10
5.4860108527
 20
4.5677530725
 11
5.4490108527
 21
4.5687530725
  0
LINE
  5
5BF
100
AcDbEntity
  8
SST_PHO
100
AcDbLine
 62
7
  6
CONTINUOUS
 10
4.7200108527
 20
4.5567530725
 11
4.6860108527
 21
4.5677530725
  0
LINE
  5
5C0
100
AcDbEntity
  8
SST_PHO
100
AcDbLine
 62
7
  6
CONTINUOUS
 10
5.5200108527
 20
4.5567530725
 11
5.4860108527
 21
4.5677530725
  0
LINE
  5
5C1
100
AcDbEntity
  8
SST_PHO
100
AcDbLine
 62
7
  6
CONTINUOUS
 10
5.5500108527
 20
4.5367530725
 11
5.5200108527
 21
4.5567530725
  0
LINE
  5
5C2
100
AcDbEntity
  8
SST_PHO
100
AcDbLine
 62
7
  6
CONTINUOUS
 10
6.3630108527
 20
3.7347530725
 11
6.4130108527
 21
3.6847530725
  0
LINE
  5
5C3
100
AcDbEntity
  8
SST_PHO
100
AcDbLine
 62
7
  6
CONTINUOUS
 10
5.5730108527
 20
4.5087530725
 11
5.5500108527
 21
4.5367530725
  0
LINE
  5
5C4
100
AcDbEntity
  8
SST_PHO
100
AcDbLine
 62
7
  6
CONTINUOUS
 10
5.5880108527
 20
4.4757530725
 11
5.5730108527
 21
4.5087530725
  0
LINE
  5
5C5
100
AcDbEntity
  8
SST_PHO
100
AcDbLine
 62
7
  6
CONTINUOUS
 10
6.7030108527
 20
2.0827530725
 11
6.7220108527
 21
2.0347530725
  0
LINE
  5
5C6
100
AcDbEntity
  8
SST_PHO
100
AcDbLine
 62
7
  6
CONTINUOUS
 10
5.9940108527
 20
3.4817530725
 11
5.9900108527
 21
3.5037530725
  0
LINE
  5
5C7
100
AcDbEntity
  8
SST_PHO
100
AcDbLine
 62
7
  6
CONTINUOUS
 10
6.0820108527
 20
3.3377530725
 11
6.0860108527
 21
3.3157530725
  0
LINE
  5
5C8
100
AcDbEntity
  8
SST_PHO
100
AcDbLine
 62
7
  6
CONTINUOUS
 10
5.5930108527
 20
4.4397530725
 11
5.5880108527
 21
4.4757530725
  0
LINE
  5
5C9
100
AcDbEntity
  8
SST_PHO
100
AcDbLine
 62
7
  6
CONTINUOUS
 10
5.9380108527
 20
4.0297530725
 11
5.9380108527
 21
3.9397530725
  0
LINE
  5
5CA
100
AcDbEntity
  8
SST_PHO
100
AcDbLine
 62
7
  6
CONTINUOUS
 10
5.9380108527
 20
3.9297530725
 11
5.9380108527
 21
3.8397530725
  0
LINE
  5
5CB
100
AcDbEntity
  8
SST_PHO
100
AcDbLine
 62
7
  6
CONTINUOUS
 10
5.9380108527
 20
3.8297530725
 11
5.9380108527
 21
3.7397530725
  0
LINE
  5
5CC
100
AcDbEntity
  8
SST_PHO
100
AcDbLine
 62
7
  6
CONTINUOUS
 10
5.9380108527
 20
1.7347530725
 11
5.9380108527
 21
2.0347530725
  0
LINE
  5
5CD
100
AcDbEntity
  8
SST_PHO
100
AcDbLine
 62
7
  6
CONTINUOUS
 10
5.9480108527
 20
3.7397530725
 11
5.9480108527
 21
3.8297530725
  0
LINE
  5
5CE
100
AcDbEntity
  8
SST_PHO
100
AcDbLine
 62
7
  6
CONTINUOUS
 10
5.9480108527
 20
3.8397530725
 11
5.9480108527
 21
3.9297530725
  0
LINE
  5
5CF
100
AcDbEntity
  8
SST_PHO
100
AcDbLine
 62
7
  6
CONTINUOUS
 10
5.9480108527
 20
3.9397530725
 11
5.9480108527
 21
4.0297530725
  0
LINE
  5
5D0
100
AcDbEntity
  8
SST_PHO
100
AcDbLine
 62
7
  6
CONTINUOUS
 10
5.9630108527
 20
4.0347530725
 11
5.9630108527
 21
3.7347530725
  0
LINE
  5
5D1
100
AcDbEntity
  8
SST_PHO
100
AcDbLine
 62
7
  6
CONTINUOUS
 10
5.9880108527
 20
2.4347530725
 11
5.9880108527
 21
2.7347530725
  0
LINE
  5
5D2
100
AcDbEntity
  8
SST_PHO
100
AcDbLine
 62
7
  6
CONTINUOUS
 10
5.9880108527
 20
3.5347530725
 11
5.9880108527
 21
3.7347530725
  0
LINE
  5
5D3
100
AcDbEntity
  8
SST_PHO
100
AcDbLine
 62
7
  6
CONTINUOUS
 10
6.0130108527
 20
4.3297530725
 11
6.0130108527
 21
4.2397530725
  0
LINE
  5
5D4
100
AcDbEntity
  8
SST_PHO
100
AcDbLine
 62
7
  6
CONTINUOUS
 10
6.0130108527
 20
4.2297530725
 11
6.0130108527
 21
4.1397530725
  0
LINE
  5
5D5
100
AcDbEntity
  8
SST_PHO
100
AcDbLine
 62
7
  6
CONTINUOUS
 10
6.0130108527
 20
4.1297530725
 11
6.0130108527
 21
4.0397530725
  0
LINE
  5
5D6
100
AcDbEntity
  8
SST_PHO
100
AcDbLine
 62
7
  6
CONTINUOUS
 10
6.0230108527
 20
4.0397530725
 11
6.0230108527
 21
4.1297530725
  0
LINE
  5
5D7
100
AcDbEntity
  8
SST_PHO
100
AcDbLine
 62
7
  6
CONTINUOUS
 10
6.0230108527
 20
4.1397530725
 11
6.0230108527
 21
4.2297530725
  0
LINE
  5
5D8
100
AcDbEntity
  8
SST_PHO
100
AcDbLine
 62
7
  6
CONTINUOUS
 10
6.0230108527
 20
4.2397530725
 11
6.0230108527
 21
4.3297530725
  0
LINE
  5
5D9
100
AcDbEntity
  8
SST_PHO
100
AcDbLine
 62
7
  6
CONTINUOUS
 10
6.0380108527
 20
4.3347530725
 11
6.0380108527
 21
4.0347530725
  0
LINE
  5
5DA
100
AcDbEntity
  8
SST_PHO
100
AcDbLine
 62
7
  6
CONTINUOUS
 10
6.0880108527
 20
3.2847530725
 11
6.0880108527
 21
2.9847530725
  0
LINE
  5
5DB
100
AcDbEntity
  8
SST_PHO
100
AcDbLine
 62
7
  6
CONTINUOUS
 10
6.3130108527
 20
3.7347530725
 11
6.3130108527
 21
3.4347530725
  0
LINE
  5
5DC
100
AcDbEntity
  8
SST_PHO
100
AcDbLine
 62
7
  6
CONTINUOUS
 10
6.3130108527
 20
2.7847530725
 11
6.3130108527
 21
2.3847530725
  0
LINE
  5
5DD
100
AcDbEntity
  8
SST_PHO
100
AcDbLine
 62
7
  6
CONTINUOUS
 10
5.9910108527
 20
2.7717530725
 11
5.9920108527
 21
2.7937530725
  0
LINE
  5
5DE
100
AcDbEntity
  8
SST_PHO
100
AcDbLine
 62
7
  6
CONTINUOUS
 10
5.9910108527
 20
2.3717530725
 11
5.9920108527
 21
2.3937530725
  0
LINE
  5
5DF
100
AcDbEntity
  8
SST_PHO
100
AcDbLine
 62
7
  6
CONTINUOUS
 10
6.0850108527
 20
2.9477530725
 11
6.0840108527
 21
2.9257530725
  0
LINE
  5
5E0
100
AcDbEntity
  8
SST_PHO
100
AcDbLine
 62
7
  6
CONTINUOUS
 10
6.0880108527
 20
1.9347530725
 11
6.0920108527
 21
1.9857530725
  0
LINE
  5
5E1
100
AcDbEntity
  8
SST_PHO
100
AcDbLine
 62
7
  6
CONTINUOUS
 10
5.4380108527
 20
2.2107530725
 11
5.4440108527
 21
2.2317530725
  0
LINE
  5
5E2
100
AcDbEntity
  8
SST_PHO
100
AcDbLine
 62
7
  6
CONTINUOUS
 10
5.7380108527
 20
2.8087530725
 11
5.7320108527
 21
2.7877530725
  0
LINE
  5
5E3
100
AcDbEntity
  8
SST_PHO
100
AcDbLine
 62
7
  6
CONTINUOUS
 10
5.9880108527
 20
3.4607530725
 11
5.9940108527
 21
3.4817530725
  0
LINE
  5
5E4
100
AcDbEntity
  8
SST_PHO
100
AcDbLine
 62
7
  6
CONTINUOUS
 10
5.7380108527
 20
2.4087530725
 11
5.7320108527
 21
2.3877530725
  0
LINE
  5
5E5
100
AcDbEntity
  8
SST_PHO
100
AcDbLine
 62
7
  6
CONTINUOUS
 10
6.0880108527
 20
3.3587530725
 11
6.0820108527
 21
3.3377530725
  0
LINE
  5
5E6
100
AcDbEntity
  8
SST_PHO
100
AcDbLine
 62
7
  6
CONTINUOUS
 10
5.7450108527
 20
3.5167530725
 11
5.7350108527
 21
3.4977530725
  0
LINE
  5
5E7
100
AcDbEntity
  8
SST_PHO
100
AcDbLine
 62
7
  6
CONTINUOUS
 10
5.1950108527
 20
2.2667530725
 11
5.1850108527
 21
2.2477530725
  0
LINE
  5
5E8
100
AcDbEntity
  8
SST_PHO
100
AcDbLine
 62
7
  6
CONTINUOUS
 10
4.9310108527
 20
1.7527530725
 11
4.9410108527
 21
1.7717530725
  0
LINE
  5
5E9
100
AcDbEntity
  8
SST_PHO
100
AcDbLine
 62
7
  6
CONTINUOUS
 10
3.5753108527
 20
1.6948530725
 11
3.5683108527
 21
1.6878530725
  0
LINE
  5
5EA
100
AcDbEntity
  8
SST_PHO
100
AcDbLine
 62
7
  6
CONTINUOUS
 10
3.408878963
 20
1.6901770882
 11
3.4153466795
 21
1.6957211827
  0
LINE
  5
5EB
100
AcDbEntity
  8
SST_PHO
100
AcDbLine
 62
7
  6
CONTINUOUS
 10
3.411090774
 20
1.68869323
 11
3.4169706953
 21
1.6937329937
  0
LINE
  5
5EC
100
AcDbEntity
  8
SST_PHO
100
AcDbLine
 62
7
  6
CONTINUOUS
 10
3.4150108527
 20
1.6836530725
 11
3.4199108527
 21
1.6878530725
  0
LINE
  5
5ED
100
AcDbEntity
  8
SST_PHO
100
AcDbLine
 62
7
  6
CONTINUOUS
 10
3.4997108527
 20
1.6948530725
 11
3.4948108527
 21
1.6906530725
  0
LINE
  5
5EE
100
AcDbEntity
  8
SST_PHO
100
AcDbLine
 62
7
  6
CONTINUOUS
 10
3.4976108527
 20
1.7011530725
 11
3.4899108527
 21
1.6948530725
  0
LINE
  5
5EF
100
AcDbEntity
  8
SST_PHO
100
AcDbLine
 62
7
  6
CONTINUOUS
 10
5.7620108527
 20
3.5297530725
 11
5.7450108527
 21
3.5167530725
  0
LINE
  5
5F0
100
AcDbEntity
  8
SST_PHO
100
AcDbLine
 62
7
  6
CONTINUOUS
 10
2.6030108527
 20
2.5347530725
 11
2.6240108527
 21
2.5437530725
  0
LINE
  5
5F1
100
AcDbEntity
  8
SST_PHO
100
AcDbLine
 62
7
  6
CONTINUOUS
 10
2.6030108527
 20
2.4347530725
 11
2.6240108527
 21
2.4437530725
  0
LINE
  5
5F2
100
AcDbEntity
  8
SST_PHO
100
AcDbLine
 62
7
  6
CONTINUOUS
 10
3.2030108527
 20
2.5847530725
 11
3.2240108527
 21
2.5937530725
  0
LINE
  5
5F3
100
AcDbEntity
  8
SST_PHO
100
AcDbLine
 62
7
  6
CONTINUOUS
 10
5.4470108527
 20
3.6307530725
 11
5.4670108527
 21
3.6387530725
  0
LINE
  5
5F4
100
AcDbEntity
  8
SST_PHO
100
AcDbLine
 62
7
  6
CONTINUOUS
 10
4.6490108527
 20
4.5687530725
 11
4.6140108527
 21
4.5607530725
  0
LINE
  5
5F5
100
AcDbEntity
  8
SST_PHO
100
AcDbLine
 62
7
  6
CONTINUOUS
 10
3.8490108527
 20
4.5687530725
 11
3.8140108527
 21
4.5607530725
  0
LINE
  5
5F6
100
AcDbEntity
  8
SST_PHO
100
AcDbLine
 62
7
  6
CONTINUOUS
 10
6.3420108527
 20
3.3437530725
 11
6.3340108527
 21
3.3637530725
  0
LINE
  5
5F7
100
AcDbEntity
  8
SST_PHO
100
AcDbLine
 62
7
  6
CONTINUOUS
 10
6.7220108527
 20
2.0347530725
 11
6.7340108527
 21
1.9857530725
  0
LINE
  5
5F8
100
AcDbEntity
  8
SST_PHO
100
AcDbLine
 62
7
  6
CONTINUOUS
 10
6.3440108527
 20
2.9317530725
 11
6.3400108527
 21
2.9537530725
  0
LINE
  5
5F9
100
AcDbEntity
  8
SST_PHO
100
AcDbLine
 62
7
  6
CONTINUOUS
 10
6.7340108527
 20
1.9857530725
 11
6.7380108527
 21
1.9347530725
  0
LINE
  5
5FA
100
AcDbEntity
  8
SST_PHO
100
AcDbLine
 62
7
  6
CONTINUOUS
 10
6.3380108527
 20
2.9847530725
 11
6.3380108527
 21
3.2847530725
  0
LINE
  5
5FB
100
AcDbEntity
  8
SST_PHO
100
AcDbLine
 62
7
  6
CONTINUOUS
 10
6.4130108527
 20
2.2347530725
 11
6.4130108527
 21
2.1347530725
  0
LINE
  5
5FC
100
AcDbEntity
  8
SST_PHO
100
AcDbLine
 62
7
  6
CONTINUOUS
 10
6.4130108527
 20
1.7597530725
 11
6.4130108527
 21
1.6597530725
  0
LINE
  5
5FD
100
AcDbEntity
  8
SST_PHO
100
AcDbLine
 62
7
  6
CONTINUOUS
 10
6.5130108527
 20
3.2097530725
 11
6.5130108527
 21
2.9597530725
  0
LINE
  5
5FE
100
AcDbEntity
  8
SST_PHO
100
AcDbLine
 62
7
  6
CONTINUOUS
 10
6.5130108527
 20
2.3847530725
 11
6.5130108527
 21
2.7847530725
  0
LINE
  5
5FF
100
AcDbEntity
  8
SST_PHO
100
AcDbLine
 62
7
  6
CONTINUOUS
 10
6.5130108527
 20
3.4347530725
 11
6.5130108527
 21
3.7347530725
  0
LINE
  5
600
100
AcDbEntity
  8
SST_PHO
100
AcDbLine
 62
7
  6
CONTINUOUS
 10
6.5630108527
 20
2.8847530725
 11
6.5630108527
 21
2.9597530725
  0
LINE
  5
601
100
AcDbEntity
  8
SST_PHO
100
AcDbLine
 62
7
  6
CONTINUOUS
 10
6.5630108527
 20
3.2097530725
 11
6.5630108527
 21
3.2847530725
  0
LINE
  5
602
100
AcDbEntity
  8
SST_PHO
100
AcDbLine
 62
7
  6
CONTINUOUS
 10
6.6130108527
 20
2.9597530725
 11
6.6130108527
 21
3.2097530725
  0
LINE
  5
603
100
AcDbEntity
  8
SST_PHO
100
AcDbLine
 62
7
  6
CONTINUOUS
 10
6.3410108527
 20
3.3217530725
 11
6.3420108527
 21
3.3437530725
  0
LINE
  5
604
100
AcDbEntity
  8
SST_PHO
100
AcDbLine
 62
7
  6
CONTINUOUS
 10
6.0920108527
 20
1.9857530725
 11
6.1040108527
 21
2.0347530725
  0
LINE
  5
605
100
AcDbEntity
  8
SST_PHO
100
AcDbLine
 62
7
  6
CONTINUOUS
 10
6.3380108527
 20
2.9107530725
 11
6.3440108527
 21
2.9317530725
  0
LINE
  5
606
100
AcDbEntity
  8
SST_PHO
100
AcDbLine
 62
7
  6
CONTINUOUS
 10
5.9810108527
 20
2.7527530725
 11
5.9910108527
 21
2.7717530725
  0
LINE
  5
607
100
AcDbEntity
  8
SST_PHO
100
AcDbLine
 62
7
  6
CONTINUOUS
 10
6.0950108527
 20
2.9667530725
 11
6.0850108527
 21
2.9477530725
  0
LINE
  5
608
100
AcDbEntity
  8
SST_PHO
100
AcDbLine
 62
7
  6
CONTINUOUS
 10
6.3310108527
 20
3.3027530725
 11
6.3410108527
 21
3.3217530725
  0
LINE
  5
609
100
AcDbEntity
  8
SST_PHO
100
AcDbLine
 62
7
  6
CONTINUOUS
 10
5.9740108527
 20
3.4437530725
 11
5.9880108527
 21
3.4607530725
  0
LINE
  5
60A
100
AcDbEntity
  8
SST_PHO
100
AcDbLine
 62
7
  6
CONTINUOUS
 10
4.7020108527
 20
1.8257530725
 11
4.6880108527
 21
1.8087530725
  0
LINE
  5
60B
100
AcDbEntity
  8
SST_PHO
100
AcDbLine
 62
7
  6
CONTINUOUS
 10
6.1020108527
 20
3.3757530725
 11
6.0880108527
 21
3.3587530725
  0
LINE
  5
60C
100
AcDbEntity
  8
SST_PHO
100
AcDbLine
 62
7
  6
CONTINUOUS
 10
5.7520108527
 20
2.8257530725
 11
5.7380108527
 21
2.8087530725
  0
LINE
  5
60D
100
AcDbEntity
  8
SST_PHO
100
AcDbLine
 62
7
  6
CONTINUOUS
 10
6.4130108527
 20
3.6847530725
 11
6.4630108527
 21
3.7347530725
  0
LINE
  5
60E
100
AcDbEntity
  8
SST_PHO
100
AcDbLine
 62
7
  6
CONTINUOUS
 10
3.5326108527
 20
1.6269530725
 11
3.5403108527
 21
1.6325530725
  0
LINE
  5
60F
100
AcDbEntity
  8
SST_PHO
100
AcDbLine
 62
7
  6
CONTINUOUS
 10
3.375740774
 20
1.66839323
 11
3.3719608527
 21
1.6658731512
  0
LINE
  5
610
100
AcDbEntity
  8
SST_PHO
100
AcDbLine
 62
7
  6
CONTINUOUS
 10
3.3778773882
 20
1.6685751197
 11
3.3739084905
 21
1.6659290567
  0
LINE
  5
611
100
AcDbEntity
  8
SST_PHO
100
AcDbLine
 62
7
  6
CONTINUOUS
 10
3.3765541598
 20
1.6282235449
 11
3.3725852622
 21
1.6255774819
  0
LINE
  5
612
100
AcDbEntity
  8
SST_PHO
100
AcDbLine
 62
7
  6
CONTINUOUS
 10
3.6089108527
 20
1.6360530725
 11
3.6047108527
 21
1.6332530725
  0
LINE
  5
613
100
AcDbEntity
  8
SST_PHO
100
AcDbLine
 62
7
  6
CONTINUOUS
 10
3.3744809315
 20
1.629962915
 11
3.3707010102
 21
1.62744323
  0
LINE
  5
614
100
AcDbEntity
  8
SST_PHO
100
AcDbLine
 62
7
  6
CONTINUOUS
 10
3.4094108527
 20
1.6948530725
 11
3.4171108527
 21
1.6997530725
  0
LINE
  5
615
100
AcDbEntity
  8
SST_PHO
100
AcDbLine
 62
7
  6
CONTINUOUS
 10
3.4493108527
 20
1.6402530725
 11
3.4437108527
 21
1.6367530725
  0
LINE
  5
616
100
AcDbEntity
  8
SST_PHO
100
AcDbLine
 62
7
  6
CONTINUOUS
 10
3.4522510102
 20
1.636612915
 11
3.4455309315
 21
1.632412915
  0
LINE
  5
617
100
AcDbEntity
  8
SST_PHO
100
AcDbLine
 62
7
  6
CONTINUOUS
 10
3.4541549472
 20
1.6328888993
 11
3.4467628212
 21
1.6282692142
  0
LINE
  5
618
100
AcDbEntity
  8
SST_PHO
100
AcDbLine
 62
7
  6
CONTINUOUS
 10
3.4570108527
 20
1.6304530725
 11
3.4500108527
 21
1.6262530725
  0
LINE
  5
619
100
AcDbEntity
  8
SST_PHO
100
AcDbLine
 62
7
  6
CONTINUOUS
 10
3.8030108527
 20
2.5847530725
 11
3.8240108527
 21
2.5937530725
  0
LINE
  5
61A
100
AcDbEntity
  8
SST_PHO
100
AcDbLine
 62
7
  6
CONTINUOUS
 10
5.9530108527
 20
3.4347530725
 11
5.9740108527
 21
3.4437530725
  0
LINE
  5
61B
100
AcDbEntity
  8
SST_PHO
100
AcDbLine
 62
7
  6
CONTINUOUS
 10
6.1230108527
 20
3.3847530725
 11
6.1020108527
 21
3.3757530725
  0
LINE
  5
61C
100
AcDbEntity
  8
SST_PHO
100
AcDbLine
 62
7
  6
CONTINUOUS
 10
3.0490108527
 20
4.5687530725
 11
3.0140108527
 21
4.5607530725
  0
LINE
  5
61D
100
AcDbEntity
  8
SST_PHO
100
AcDbLine
 62
7
  6
CONTINUOUS
 10
6.7630108527
 20
4.4847530725
 11
6.7630108527
 21
1.5847530725
  0
LINE
  5
61E
100
AcDbEntity
  8
SST_PHO
100
AcDbLine
 62
7
  6
CONTINUOUS
 10
6.7380108527
 20
1.9347530725
 11
6.7340108527
 21
1.8837530725
  0
LINE
  5
61F
100
AcDbEntity
  8
SST_PHO
100
AcDbLine
 62
7
  6
CONTINUOUS
 10
6.1040108527
 20
2.0347530725
 11
6.1230108527
 21
2.0827530725
  0
LINE
  5
620
100
AcDbEntity
  8
SST_PHO
100
AcDbLine
 62
7
  6
CONTINUOUS
 10
5.9810108527
 20
2.3527530725
 11
5.9910108527
 21
2.3717530725
  0
LINE
  5
621
100
AcDbEntity
  8
SST_PHO
100
AcDbLine
 62
7
  6
CONTINUOUS
 10
5.6780108527
 20
2.2857530725
 11
5.6630108527
 21
2.2647530725
  0
LINE
  5
622
100
AcDbEntity
  8
SST_PHO
100
AcDbLine
 62
7
  6
CONTINUOUS
 10
5.8180108527
 20
2.1537530725
 11
5.8330108527
 21
2.1747530725
  0
LINE
  5
623
100
AcDbEntity
  8
SST_PHO
100
AcDbLine
 62
7
  6
CONTINUOUS
 10
5.4240108527
 20
2.1937530725
 11
5.4380108527
 21
2.2107530725
  0
LINE
  5
624
100
AcDbEntity
  8
SST_PHO
100
AcDbLine
 62
7
  6
CONTINUOUS
 10
5.7520108527
 20
2.4257530725
 11
5.7380108527
 21
2.4087530725
  0
LINE
  5
625
100
AcDbEntity
  8
SST_PHO
100
AcDbLine
 62
7
  6
CONTINUOUS
 10
6.3240108527
 20
2.8937530725
 11
6.3380108527
 21
2.9107530725
  0
LINE
  5
626
100
AcDbEntity
  8
SST_PHO
100
AcDbLine
 62
7
  6
CONTINUOUS
 10
5.3130108527
 20
2.0847530725
 11
5.3630108527
 21
2.1347530725
  0
LINE
  5
627
100
AcDbEntity
  8
SST_PHO
100
AcDbLine
 62
7
  6
CONTINUOUS
 10
6.3140108527
 20
3.2897530725
 11
6.3310108527
 21
3.3027530725
  0
LINE
  5
628
100
AcDbEntity
  8
SST_PHO
100
AcDbLine
 62
7
  6
CONTINUOUS
 10
6.1120108527
 20
2.9797530725
 11
6.0950108527
 21
2.9667530725
  0
LINE
  5
629
100
AcDbEntity
  8
SST_PHO
100
AcDbLine
 62
7
  6
CONTINUOUS
 10
5.2120108527
 20
2.2797530725
 11
5.1950108527
 21
2.2667530725
  0
LINE
  5
62A
100
AcDbEntity
  8
SST_PHO
100
AcDbLine
 62
7
  6
CONTINUOUS
 10
5.9640108527
 20
2.7397530725
 11
5.9810108527
 21
2.7527530725
  0
LINE
  5
62B
100
AcDbEntity
  8
SST_PHO
100
AcDbLine
 62
7
  6
CONTINUOUS
 10
3.6075108527
 20
1.6290530725
 11
3.6124108527
 21
1.6318530725
  0
LINE
  5
62C
100
AcDbEntity
  8
SST_PHO
100
AcDbLine
 62
7
  6
CONTINUOUS
 10
3.4153466795
 20
1.6957211827
 11
3.4227388055
 21
1.6994172457
  0
LINE
  5
62D
100
AcDbEntity
  8
SST_PHO
100
AcDbLine
 62
7
  6
CONTINUOUS
 10
3.4169706953
 20
1.6937329937
 11
3.423690774
 21
1.69709323
  0
LINE
  5
62E
100
AcDbEntity
  8
SST_PHO
100
AcDbLine
 62
7
  6
CONTINUOUS
 10
3.4199108527
 20
1.6878530725
 11
3.4255108527
 21
1.6906530725
  0
LINE
  5
62F
100
AcDbEntity
  8
SST_PHO
100
AcDbLine
 62
7
  6
CONTINUOUS
 10
3.5809108527
 20
1.6976530725
 11
3.5753108527
 21
1.6948530725
  0
LINE
  5
630
100
AcDbEntity
  8
SST_PHO
100
AcDbLine
 62
7
  6
CONTINUOUS
 10
3.5074108527
 20
1.6983530725
 11
3.4997108527
 21
1.6948530725
  0
LINE
  5
631
100
AcDbEntity
  8
SST_PHO
100
AcDbLine
 62
7
  6
CONTINUOUS
 10
5.7730108527
 20
2.8347530725
 11
5.7520108527
 21
2.8257530725
  0
LINE
  5
632
100
AcDbEntity
  8
SST_PHO
100
AcDbLine
 62
7
  6
CONTINUOUS
 10
6.3030108527
 20
2.8847530725
 11
6.3240108527
 21
2.8937530725
  0
LINE
  5
633
100
AcDbEntity
  8
SST_PHO
100
AcDbLine
 62
7
  6
CONTINUOUS
 10
6.7340108527
 20
1.8837530725
 11
6.7220108527
 21
1.8347530725
  0
LINE
  5
634
100
AcDbEntity
  8
SST_PHO
100
AcDbLine
 62
7
  6
CONTINUOUS
 10
6.1230108527
 20
2.0827530725
 11
6.1500108527
 21
2.1257530725
  0
LINE
  5
635
100
AcDbEntity
  8
SST_PHO
100
AcDbLine
 62
7
  6
CONTINUOUS
 10
6.1500108527
 20
2.1257530725
 11
6.1830108527
 21
2.1647530725
  0
LINE
  5
636
100
AcDbEntity
  8
SST_PHO
100
AcDbLine
 62
7
  6
CONTINUOUS
 10
6.4130108527
 20
2.7347530725
 11
6.4630108527
 21
2.7847530725
  0
LINE
  5
637
100
AcDbEntity
  8
SST_PHO
100
AcDbLine
 62
7
  6
CONTINUOUS
 10
4.9140108527
 20
1.7397530725
 11
4.9310108527
 21
1.7527530725
  0
LINE
  5
638
100
AcDbEntity
  8
SST_PHO
100
AcDbLine
 62
7
  6
CONTINUOUS
 10
5.9640108527
 20
2.3397530725
 11
5.9810108527
 21
2.3527530725
  0
LINE
  5
639
100
AcDbEntity
  8
SST_PHO
100
AcDbLine
 62
7
  6
CONTINUOUS
 10
5.7030108527
 20
2.3047530725
 11
5.6780108527
 21
2.2857530725
  0
LINE
  5
63A
100
AcDbEntity
  8
SST_PHO
100
AcDbLine
 62
7
  6
CONTINUOUS
 10
5.7930108527
 20
2.1347530725
 11
5.8180108527
 21
2.1537530725
  0
LINE
  5
63B
100
AcDbEntity
  8
SST_PHO
100
AcDbLine
 62
7
  6
CONTINUOUS
 10
5.7730108527
 20
2.4347530725
 11
5.7520108527
 21
2.4257530725
  0
LINE
  5
63C
100
AcDbEntity
  8
SST_PHO
100
AcDbLine
 62
7
  6
CONTINUOUS
 10
5.4030108527
 20
2.1847530725
 11
5.4240108527
 21
2.1937530725
  0
LINE
  5
63D
100
AcDbEntity
  8
SST_PHO
100
AcDbLine
 62
7
  6
CONTINUOUS
 10
4.7230108527
 20
1.8347530725
 11
4.7020108527
 21
1.8257530725
  0
LINE
  5
63E
100
AcDbEntity
  8
SST_PHO
100
AcDbLine
 62
7
  6
CONTINUOUS
 10
3.5018108527
 20
1.6892530725
 11
3.5102108527
 21
1.6927530725
  0
LINE
  5
63F
100
AcDbEntity
  8
SST_PHO
100
AcDbLine
 62
7
  6
CONTINUOUS
 10
3.5270108527
 20
1.6374530725
 11
3.5186108527
 21
1.6339530725
  0
LINE
  5
640
100
AcDbEntity
  8
SST_PHO
100
AcDbLine
 62
7
  6
CONTINUOUS
 10
3.5788108527
 20
1.6913530725
 11
3.5893108527
 21
1.6955530725
  0
LINE
  5
641
100
AcDbEntity
  8
SST_PHO
100
AcDbLine
 62
7
  6
CONTINUOUS
 10
3.6047108527
 20
1.6332530725
 11
3.5991108527
 21
1.6311530725
  0
LINE
  5
642
100
AcDbEntity
  8
SST_PHO
100
AcDbLine
 62
7
  6
CONTINUOUS
 10
3.5319108527
 20
1.6332530725
 11
3.5200108527
 21
1.6290530725
  0
LINE
  5
643
100
AcDbEntity
  8
SST_PHO
100
AcDbLine
 62
7
  6
CONTINUOUS
 10
3.4437108527
 20
1.6367530725
 11
3.4395108527
 21
1.6353530725
  0
LINE
  5
644
100
AcDbEntity
  8
SST_PHO
100
AcDbLine
 62
7
  6
CONTINUOUS
 10
3.4455309315
 20
1.632412915
 11
3.440490774
 21
1.6307329937
  0
LINE
  5
645
100
AcDbEntity
  8
SST_PHO
100
AcDbLine
 62
7
  6
CONTINUOUS
 10
3.4467628212
 20
1.6282692142
 11
3.4412187268
 21
1.6264211827
  0
LINE
  5
646
100
AcDbEntity
  8
SST_PHO
100
AcDbLine
 62
7
  6
CONTINUOUS
 10
3.4171108527
 20
1.6997530725
 11
3.4262108527
 21
1.7025530725
  0
LINE
  5
647
100
AcDbEntity
  8
SST_PHO
100
AcDbLine
 62
7
  6
CONTINUOUS
 10
3.3707010102
 20
1.62744323
 11
3.3644010102
 21
1.6255530725
  0
LINE
  5
648
100
AcDbEntity
  8
SST_PHO
100
AcDbLine
 62
7
  6
CONTINUOUS
 10
3.3725852622
 20
1.6255774819
 11
3.3659703016
 21
1.62359323
  0
LINE
  5
649
100
AcDbEntity
  8
SST_PHO
100
AcDbLine
 62
7
  6
CONTINUOUS
 10
3.4500108527
 20
1.6262530725
 11
3.4430108527
 21
1.6241530725
  0
LINE
  5
64A
100
AcDbEntity
  8
SST_PHO
100
AcDbLine
 62
7
  6
CONTINUOUS
 10
3.5207108527
 20
1.6234530725
 11
3.5326108527
 21
1.6269530725
  0
LINE
  5
64B
100
AcDbEntity
  8
SST_PHO
100
AcDbLine
 62
7
  6
CONTINUOUS
 10
3.6145108527
 20
1.6836530725
 11
3.6194108527
 21
1.6850530725
  0
LINE
  5
64C
100
AcDbEntity
  8
SST_PHO
100
AcDbLine
 62
7
  6
CONTINUOUS
 10
6.7220108527
 20
1.8347530725
 11
6.7030108527
 21
1.7867530725
  0
LINE
  5
64D
100
AcDbEntity
  8
SST_PHO
100
AcDbLine
 62
7
  6
CONTINUOUS
 10
6.7030108527
 20
1.7867530725
 11
6.6760108527
 21
1.7437530725
  0
LINE
  5
64E
100
AcDbEntity
  8
SST_PHO
100
AcDbLine
 62
7
  6
CONTINUOUS
 10
6.1830108527
 20
2.1647530725
 11
6.2220108527
 21
2.1977530725
  0
LINE
  5
64F
100
AcDbEntity
  8
SST_PHO
100
AcDbLine
 62
7
  6
CONTINUOUS
 10
6.2220108527
 20
2.1977530725
 11
6.2650108527
 21
2.2247530725
  0
LINE
  5
650
100
AcDbEntity
  8
SST_PHO
100
AcDbLine
 62
7
  6
CONTINUOUS
 10
6.2650108527
 20
2.2247530725
 11
6.3130108527
 21
2.2437530725
  0
LINE
  5
651
100
AcDbEntity
  8
SST_PHO
100
AcDbLine
 62
7
  6
CONTINUOUS
 10
6.6760108527
 20
1.7437530725
 11
6.6430108527
 21
1.7047530725
  0
LINE
  5
652
100
AcDbEntity
  8
SST_PHO
100
AcDbLine
 62
7
  6
CONTINUOUS
 10
6.6430108527
 20
1.7047530725
 11
6.6040108527
 21
1.6717530725
  0
LINE
  5
653
100
AcDbEntity
  8
SST_PHO
100
AcDbLine
 62
7
  6
CONTINUOUS
 10
6.6040108527
 20
1.6717530725
 11
6.5610108527
 21
1.6447530725
  0
LINE
  5
654
100
AcDbEntity
  8
SST_PHO
100
AcDbLine
 62
7
  6
CONTINUOUS
 10
6.5610108527
 20
1.6447530725
 11
6.5130108527
 21
1.6257530725
  0
CIRCLE
  5
655
100
AcDbEntity
  8
DFP0102_DRL
100
AcDbCircle
 62
7
  6
CONTINUOUS
 10
2.2630108527
 20
1.7847530725
 40
0.019
  0
CIRCLE
  5
656
100
AcDbEntity
  8
DFP0102_DRL
100
AcDbCircle
 62
7
  6
CONTINUOUS
 10
2.2630108527
 20
1.8847530725
 40
0.019
  0
CIRCLE
  5
657
100
AcDbEntity
  8
DFP0102_DRL
100
AcDbCircle
 62
7
  6
CONTINUOUS
 10
2.2630108527
 20
1.9847530725
 40
0.019
  0
CIRCLE
  5
658
100
AcDbEntity
  8
DFP0102_DRL
100
AcDbCircle
 62
7
  6
CONTINUOUS
 10
2.2630108527
 20
2.0847530725
 40
0.019
  0
CIRCLE
  5
659
100
AcDbEntity
  8
DFP0102_DRL
100
AcDbCircle
 62
7
  6
CONTINUOUS
 10
2.2630108527
 20
2.1847530725
 40
0.019
  0
CIRCLE
  5
65A
100
AcDbEntity
  8
DFP0102_DRL
100
AcDbCircle
 62
7
  6
CONTINUOUS
 10
2.2630108527
 20
2.2847530725
 40
0.019
  0
CIRCLE
  5
65B
100
AcDbEntity
  8
DFP0102_DRL
100
AcDbCircle
 62
7
  6
CONTINUOUS
 10
2.7630108527
 20
2.2847530725
 40
0.019
  0
CIRCLE
  5
65C
100
AcDbEntity
  8
DFP0102_DRL
100
AcDbCircle
 62
7
  6
CONTINUOUS
 10
2.7630108527
 20
2.1847530725
 40
0.019
  0
CIRCLE
  5
65D
100
AcDbEntity
  8
DFP0102_DRL
100
AcDbCircle
 62
7
  6
CONTINUOUS
 10
2.7630108527
 20
2.0847530725
 40
0.019
  0
CIRCLE
  5
65E
100
AcDbEntity
  8
DFP0102_DRL
100
AcDbCircle
 62
7
  6
CONTINUOUS
 10
2.7630108527
 20
1.9847530725
 40
0.019
  0
CIRCLE
  5
65F
100
AcDbEntity
  8
DFP0102_DRL
100
AcDbCircle
 62
7
  6
CONTINUOUS
 10
2.7630108527
 20
1.8847530725
 40
0.019
  0
CIRCLE
  5
660
100
AcDbEntity
  8
DFP0102_DRL
100
AcDbCircle
 62
7
  6
CONTINUOUS
 10
2.7630108527
 20
1.7847530725
 40
0.019
  0
CIRCLE
  5
661
100
AcDbEntity
  8
DFP0102_DRL
100
AcDbCircle
 62
7
  6
CONTINUOUS
 10
2.9630108527
 20
2.2847530725
 40
0.0175
  0
CIRCLE
  5
662
100
AcDbEntity
  8
DFP0102_DRL
100
AcDbCircle
 62
7
  6
CONTINUOUS
 10
2.9630108527
 20
2.1847530725
 40
0.0175
  0
CIRCLE
  5
663
100
AcDbEntity
  8
DFP0102_DRL
100
AcDbCircle
 62
7
  6
CONTINUOUS
 10
2.9630108527
 20
2.0847530725
 40
0.0175
  0
CIRCLE
  5
664
100
AcDbEntity
  8
DFP0102_DRL
100
AcDbCircle
 62
7
  6
CONTINUOUS
 10
2.9630108527
 20
1.9847530725
 40
0.0175
  0
CIRCLE
  5
665
100
AcDbEntity
  8
DFP0102_DRL
100
AcDbCircle
 62
7
  6
CONTINUOUS
 10
2.9630108527
 20
1.8847530725
 40
0.0175
  0
CIRCLE
  5
666
100
AcDbEntity
  8
DFP0102_DRL
100
AcDbCircle
 62
7
  6
CONTINUOUS
 10
2.9630108527
 20
1.7847530725
 40
0.0175
  0
CIRCLE
  5
667
100
AcDbEntity
  8
DFP0102_DRL
100
AcDbCircle
 62
7
  6
CONTINUOUS
 10
2.0630108527
 20
1.6597530725
 40
0.014
  0
CIRCLE
  5
668
100
AcDbEntity
  8
DFP0102_DRL
100
AcDbCircle
 62
7
  6
CONTINUOUS
 10
1.9880108527
 20
1.7347530725
 40
0.014
  0
CIRCLE
  5
669
100
AcDbEntity
  8
DFP0102_DRL
100
AcDbCircle
 62
7
  6
CONTINUOUS
 10
2.5380108527
 20
1.7347530725
 40
0.014
  0
CIRCLE
  5
66A
100
AcDbEntity
  8
DFP0102_DRL
100
AcDbCircle
 62
7
  6
CONTINUOUS
 10
2.5380108527
 20
1.9347530725
 40
0.014
  0
CIRCLE
  5
66B
100
AcDbEntity
  8
DFP0102_DRL
100
AcDbCircle
 62
7
  6
CONTINUOUS
 10
2.4630108527
 20
2.9097530725
 40
0.031
  0
CIRCLE
  5
66C
100
AcDbEntity
  8
DFP0102_DRL
100
AcDbCircle
 62
7
  6
CONTINUOUS
 10
2.6630108527
 20
2.9097530725
 40
0.031
  0
CIRCLE
  5
66D
100
AcDbEntity
  8
DFP0102_DRL
100
AcDbCircle
 62
7
  6
CONTINUOUS
 10
2.2880108527
 20
2.7347530725
 40
0.024
  0
CIRCLE
  5
66E
100
AcDbEntity
  8
DFP0102_DRL
100
AcDbCircle
 62
7
  6
CONTINUOUS
 10
1.9630108527
 20
2.5597530725
 40
0.021
  0
CIRCLE
  5
66F
100
AcDbEntity
  8
DFP0102_DRL
100
AcDbCircle
 62
7
  6
CONTINUOUS
 10
2.0630108527
 20
2.5597530725
 40
0.021
  0
CIRCLE
  5
670
100
AcDbEntity
  8
DFP0102_DRL
100
AcDbCircle
 62
7
  6
CONTINUOUS
 10
1.9630108527
 20
2.6597530725
 40
0.021
  0
CIRCLE
  5
671
100
AcDbEntity
  8
DFP0102_DRL
100
AcDbCircle
 62
7
  6
CONTINUOUS
 10
2.0630108527
 20
2.6597530725
 40
0.021
  0
CIRCLE
  5
672
100
AcDbEntity
  8
DFP0102_DRL
100
AcDbCircle
 62
7
  6
CONTINUOUS
 10
1.9630108527
 20
2.7597530725
 40
0.021
  0
CIRCLE
  5
673
100
AcDbEntity
  8
DFP0102_DRL
100
AcDbCircle
 62
7
  6
CONTINUOUS
 10
2.0630108527
 20
2.7597530725
 40
0.021
  0
CIRCLE
  5
674
100
AcDbEntity
  8
DFP0102_DRL
100
AcDbCircle
 62
7
  6
CONTINUOUS
 10
1.9630108527
 20
2.8597530725
 40
0.021
  0
CIRCLE
  5
675
100
AcDbEntity
  8
DFP0102_DRL
100
AcDbCircle
 62
7
  6
CONTINUOUS
 10
2.0630108527
 20
2.8597530725
 40
0.021
  0
CIRCLE
  5
676
100
AcDbEntity
  8
DFP0102_DRL
100
AcDbCircle
 62
7
  6
CONTINUOUS
 10
1.9630108527
 20
2.9597530725
 40
0.021
  0
CIRCLE
  5
677
100
AcDbEntity
  8
DFP0102_DRL
100
AcDbCircle
 62
7
  6
CONTINUOUS
 10
2.0630108527
 20
2.9597530725
 40
0.021
  0
CIRCLE
  5
678
100
AcDbEntity
  8
DFP0102_DRL
100
AcDbCircle
 62
7
  6
CONTINUOUS
 10
2.2630108527
 20
2.3847530725
 40
0.019
  0
CIRCLE
  5
679
100
AcDbEntity
  8
DFP0102_DRL
100
AcDbCircle
 62
7
  6
CONTINUOUS
 10
2.2630108527
 20
2.4847530725
 40
0.019
  0
CIRCLE
  5
67A
100
AcDbEntity
  8
DFP0102_DRL
100
AcDbCircle
 62
7
  6
CONTINUOUS
 10
2.2630108527
 20
2.5847530725
 40
0.019
  0
CIRCLE
  5
67B
100
AcDbEntity
  8
DFP0102_DRL
100
AcDbCircle
 62
7
  6
CONTINUOUS
 10
2.8630108527
 20
2.8347530725
 40
0.019
  0
CIRCLE
  5
67C
100
AcDbEntity
  8
DFP0102_DRL
100
AcDbCircle
 62
7
  6
CONTINUOUS
 10
2.8630108527
 20
2.7347530725
 40
0.019
  0
CIRCLE
  5
67D
100
AcDbEntity
  8
DFP0102_DRL
100
AcDbCircle
 62
7
  6
CONTINUOUS
 10
2.8630108527
 20
2.6347530725
 40
0.019
  0
CIRCLE
  5
67E
100
AcDbEntity
  8
DFP0102_DRL
100
AcDbCircle
 62
7
  6
CONTINUOUS
 10
2.7630108527
 20
2.5847530725
 40
0.019
  0
CIRCLE
  5
67F
100
AcDbEntity
  8
DFP0102_DRL
100
AcDbCircle
 62
7
  6
CONTINUOUS
 10
2.7630108527
 20
2.4847530725
 40
0.019
  0
CIRCLE
  5
680
100
AcDbEntity
  8
DFP0102_DRL
100
AcDbCircle
 62
7
  6
CONTINUOUS
 10
2.7630108527
 20
2.3847530725
 40
0.019
  0
CIRCLE
  5
681
100
AcDbEntity
  8
DFP0102_DRL
100
AcDbCircle
 62
7
  6
CONTINUOUS
 10
2.9630108527
 20
2.4847530725
 40
0.0175
  0
CIRCLE
  5
682
100
AcDbEntity
  8
DFP0102_DRL
100
AcDbCircle
 62
7
  6
CONTINUOUS
 10
2.9630108527
 20
2.3847530725
 40
0.0175
  0
CIRCLE
  5
683
100
AcDbEntity
  8
DFP0102_DRL
100
AcDbCircle
 62
7
  6
CONTINUOUS
 10
2.6130108527
 20
2.4347530725
 40
0.014
  0
CIRCLE
  5
684
100
AcDbEntity
  8
DFP0102_DRL
100
AcDbCircle
 62
7
  6
CONTINUOUS
 10
2.5380108527
 20
2.5347530725
 40
0.014
  0
ARC
  5
685
100
AcDbEntity
  8
SST_PHO
100
AcDbCircle
 62
7
  6
CONTINUOUS
 10
3.3562360508
 20
1.6805031379
 40
0.0181773151
100
AcDbArc
 50
299.8994680742
 51
60.0002768691
  0
CIRCLE
  5
686
100
AcDbEntity
  8
DFP0102_DRL
100
AcDbCircle
 62
7
  6
CONTINUOUS
 10
3.2630108527
 20
1.7847530725
 40
0.0175
  0
CIRCLE
  5
687
100
AcDbEntity
  8
DFP0102_DRL
100
AcDbCircle
 62
7
  6
CONTINUOUS
 10
3.5630108527
 20
1.7847530725
 40
0.0175
  0
CIRCLE
  5
688
100
AcDbEntity
  8
DFP0102_DRL
100
AcDbCircle
 62
7
  6
CONTINUOUS
 10
3.5630108527
 20
1.8847530725
 40
0.0175
  0
CIRCLE
  5
689
100
AcDbEntity
  8
DFP0102_DRL
100
AcDbCircle
 62
7
  6
CONTINUOUS
 10
3.2630108527
 20
1.8847530725
 40
0.0175
  0
CIRCLE
  5
68A
100
AcDbEntity
  8
DFP0102_DRL
100
AcDbCircle
 62
7
  6
CONTINUOUS
 10
3.5630108527
 20
1.9847530725
 40
0.0175
  0
CIRCLE
  5
68B
100
AcDbEntity
  8
DFP0102_DRL
100
AcDbCircle
 62
7
  6
CONTINUOUS
 10
3.2630108527
 20
1.9847530725
 40
0.0175
  0
CIRCLE
  5
68C
100
AcDbEntity
  8
DFP0102_DRL
100
AcDbCircle
 62
7
  6
CONTINUOUS
 10
3.5630108527
 20
2.0847530725
 40
0.0175
  0
CIRCLE
  5
68D
100
AcDbEntity
  8
DFP0102_DRL
100
AcDbCircle
 62
7
  6
CONTINUOUS
 10
3.2630108527
 20
2.0847530725
 40
0.0175
  0
CIRCLE
  5
68E
100
AcDbEntity
  8
DFP0102_DRL
100
AcDbCircle
 62
7
  6
CONTINUOUS
 10
3.5630108527
 20
2.1847530725
 40
0.0175
  0
CIRCLE
  5
68F
100
AcDbEntity
  8
DFP0102_DRL
100
AcDbCircle
 62
7
  6
CONTINUOUS
 10
3.2630108527
 20
2.1847530725
 40
0.0175
  0
CIRCLE
  5
690
100
AcDbEntity
  8
DFP0102_DRL
100
AcDbCircle
 62
7
  6
CONTINUOUS
 10
3.5630108527
 20
2.2847530725
 40
0.0175
  0
CIRCLE
  5
691
100
AcDbEntity
  8
DFP0102_DRL
100
AcDbCircle
 62
7
  6
CONTINUOUS
 10
3.2630108527
 20
2.2847530725
 40
0.0175
  0
CIRCLE
  5
692
100
AcDbEntity
  8
DFP0102_DRL
100
AcDbCircle
 62
7
  6
CONTINUOUS
 10
3.8630108527
 20
2.2847530725
 40
0.0175
  0
CIRCLE
  5
693
100
AcDbEntity
  8
DFP0102_DRL
100
AcDbCircle
 62
7
  6
CONTINUOUS
 10
3.8630108527
 20
2.1847530725
 40
0.0175
  0
CIRCLE
  5
694
100
AcDbEntity
  8
DFP0102_DRL
100
AcDbCircle
 62
7
  6
CONTINUOUS
 10
3.8630108527
 20
2.0847530725
 40
0.0175
  0
CIRCLE
  5
695
100
AcDbEntity
  8
DFP0102_DRL
100
AcDbCircle
 62
7
  6
CONTINUOUS
 10
3.8630108527
 20
1.9847530725
 40
0.0175
  0
CIRCLE
  5
696
100
AcDbEntity
  8
DFP0102_DRL
100
AcDbCircle
 62
7
  6
CONTINUOUS
 10
3.8630108527
 20
1.8847530725
 40
0.0175
  0
CIRCLE
  5
697
100
AcDbEntity
  8
DFP0102_DRL
100
AcDbCircle
 62
7
  6
CONTINUOUS
 10
3.8630108527
 20
1.7847530725
 40
0.0175
  0
CIRCLE
  5
698
100
AcDbEntity
  8
DFP0102_DRL
100
AcDbCircle
 62
7
  6
CONTINUOUS
 10
4.0630108527
 20
2.1847530725
 40
0.0175
  0
ARC
  5
699
100
AcDbEntity
  8
SST_PHO
100
AcDbCircle
 62
7
  6
CONTINUOUS
 10
3.3608836868
 20
1.6469030725
 40
0.0163603881
100
AcDbArc
 50
285.7001367414
 51
74.2998632586
  0
CIRCLE
  5
69A
100
AcDbEntity
  8
DFP0102_DRL
100
AcDbCircle
 62
7
  6
CONTINUOUS
 10
3.1880108527
 20
1.8347530725
 40
0.014
  0
ARC
  5
69B
100
AcDbEntity
  8
SST_PHO
100
AcDbCircle
 62
7
  6
CONTINUOUS
 10
3.3584868378
 20
1.6472530725
 40
0.0126012289
100
AcDbArc
 50
269.1997981376
 51
90.8002018624
  0
ARC
  5
69C
100
AcDbEntity
  8
SST_PHO
100
AcDbCircle
 62
7
  6
CONTINUOUS
 10
3.3568065216
 20
1.6808532134
 40
0.0113005801
100
AcDbArc
 50
277.5995634172
 51
82.2997339591
  0
CIRCLE
  5
69D
100
AcDbEntity
  8
DFP0102_DRL
100
AcDbCircle
 62
7
  6
CONTINUOUS
 10
3.3630108527
 20
2.6347530725
 40
0.019
  0
CIRCLE
  5
69E
100
AcDbEntity
  8
DFP0102_DRL
100
AcDbCircle
 62
7
  6
CONTINUOUS
 10
3.4630108527
 20
2.6347530725
 40
0.019
  0
CIRCLE
  5
69F
100
AcDbEntity
  8
DFP0102_DRL
100
AcDbCircle
 62
7
  6
CONTINUOUS
 10
3.3630108527
 20
2.7347530725
 40
0.019
  0
CIRCLE
  5
6A0
100
AcDbEntity
  8
DFP0102_DRL
100
AcDbCircle
 62
7
  6
CONTINUOUS
 10
3.4630108527
 20
2.7347530725
 40
0.019
  0
CIRCLE
  5
6A1
100
AcDbEntity
  8
DFP0102_DRL
100
AcDbCircle
 62
7
  6
CONTINUOUS
 10
3.4630108527
 20
2.8347530725
 40
0.019
  0
CIRCLE
  5
6A2
100
AcDbEntity
  8
DFP0102_DRL
100
AcDbCircle
 62
7
  6
CONTINUOUS
 10
3.3630108527
 20
2.8347530725
 40
0.019
  0
CIRCLE
  5
6A3
100
AcDbEntity
  8
DFP0102_DRL
100
AcDbCircle
 62
7
  6
CONTINUOUS
 10
3.9630108527
 20
2.8347530725
 40
0.019
  0
CIRCLE
  5
6A4
100
AcDbEntity
  8
DFP0102_DRL
100
AcDbCircle
 62
7
  6
CONTINUOUS
 10
3.9630108527
 20
2.7347530725
 40
0.019
  0
CIRCLE
  5
6A5
100
AcDbEntity
  8
DFP0102_DRL
100
AcDbCircle
 62
7
  6
CONTINUOUS
 10
3.9630108527
 20
2.6347530725
 40
0.019
  0
CIRCLE
  5
6A6
100
AcDbEntity
  8
DFP0102_DRL
100
AcDbCircle
 62
7
  6
CONTINUOUS
 10
3.2630108527
 20
2.3847530725
 40
0.0175
  0
CIRCLE
  5
6A7
100
AcDbEntity
  8
DFP0102_DRL
100
AcDbCircle
 62
7
  6
CONTINUOUS
 10
3.5630108527
 20
2.3847530725
 40
0.0175
  0
CIRCLE
  5
6A8
100
AcDbEntity
  8
DFP0102_DRL
100
AcDbCircle
 62
7
  6
CONTINUOUS
 10
3.2630108527
 20
2.4847530725
 40
0.0175
  0
CIRCLE
  5
6A9
100
AcDbEntity
  8
DFP0102_DRL
100
AcDbCircle
 62
7
  6
CONTINUOUS
 10
3.5630108527
 20
2.4847530725
 40
0.0175
  0
CIRCLE
  5
6AA
100
AcDbEntity
  8
DFP0102_DRL
100
AcDbCircle
 62
7
  6
CONTINUOUS
 10
3.8630108527
 20
2.4847530725
 40
0.0175
  0
CIRCLE
  5
6AB
100
AcDbEntity
  8
DFP0102_DRL
100
AcDbCircle
 62
7
  6
CONTINUOUS
 10
3.8630108527
 20
2.3847530725
 40
0.0175
  0
CIRCLE
  5
6AC
100
AcDbEntity
  8
DFP0102_DRL
100
AcDbCircle
 62
7
  6
CONTINUOUS
 10
4.0630108527
 20
2.3847530725
 40
0.0175
  0
CIRCLE
  5
6AD
100
AcDbEntity
  8
DFP0102_DRL
100
AcDbCircle
 62
7
  6
CONTINUOUS
 10
4.0630108527
 20
2.5847530725
 40
0.0175
  0
CIRCLE
  5
6AE
100
AcDbEntity
  8
DFP0102_DRL
100
AcDbCircle
 62
7
  6
CONTINUOUS
 10
4.0630108527
 20
2.8847530725
 40
0.0175
  0
CIRCLE
  5
6AF
100
AcDbEntity
  8
DFP0102_DRL
100
AcDbCircle
 62
7
  6
CONTINUOUS
 10
3.4130108527
 20
2.5347530725
 40
0.014
  0
CIRCLE
  5
6B0
100
AcDbEntity
  8
DFN0102_DRL
100
AcDbCircle
 62
7
  6
CONTINUOUS
 10
3.0130108527
 20
3.1847530725
 40
0.14
  0
CIRCLE
  5
6B1
100
AcDbEntity
  8
DFP0102_DRL
100
AcDbCircle
 62
7
  6
CONTINUOUS
 10
2.2880108527
 20
3.2347530725
 40
0.024
  0
CIRCLE
  5
6B2
100
AcDbEntity
  8
DFP0102_DRL
100
AcDbCircle
 62
7
  6
CONTINUOUS
 10
1.9630108527
 20
3.0597530725
 40
0.021
  0
CIRCLE
  5
6B3
100
AcDbEntity
  8
DFP0102_DRL
100
AcDbCircle
 62
7
  6
CONTINUOUS
 10
2.0630108527
 20
3.0597530725
 40
0.021
  0
CIRCLE
  5
6B4
100
AcDbEntity
  8
DFP0102_DRL
100
AcDbCircle
 62
7
  6
CONTINUOUS
 10
1.9630108527
 20
3.1597530725
 40
0.021
  0
CIRCLE
  5
6B5
100
AcDbEntity
  8
DFP0102_DRL
100
AcDbCircle
 62
7
  6
CONTINUOUS
 10
2.0630108527
 20
3.1597530725
 40
0.021
  0
CIRCLE
  5
6B6
100
AcDbEntity
  8
DFP0102_DRL
100
AcDbCircle
 62
7
  6
CONTINUOUS
 10
1.9630108527
 20
3.2597530725
 40
0.021
  0
CIRCLE
  5
6B7
100
AcDbEntity
  8
DFP0102_DRL
100
AcDbCircle
 62
7
  6
CONTINUOUS
 10
2.0630108527
 20
3.2597530725
 40
0.021
  0
CIRCLE
  5
6B8
100
AcDbEntity
  8
DFP0102_DRL
100
AcDbCircle
 62
7
  6
CONTINUOUS
 10
2.4380108527
 20
3.2347530725
 40
0.0175
  0
CIRCLE
  5
6B9
100
AcDbEntity
  8
DFP0102_DRL
100
AcDbCircle
 62
7
  6
CONTINUOUS
 10
2.6380108527
 20
3.2347530725
 40
0.0175
  0
CIRCLE
  5
6BA
100
AcDbEntity
  8
DFP0102_DRL
100
AcDbCircle
 62
7
  6
CONTINUOUS
 10
2.5380108527
 20
3.4597530725
 40
0.0175
  0
CIRCLE
  5
6BB
100
AcDbEntity
  8
DFP0102_DRL
100
AcDbCircle
 62
7
  6
CONTINUOUS
 10
2.6380108527
 20
3.4597530725
 40
0.0175
  0
CIRCLE
  5
6BC
100
AcDbEntity
  8
DFP0102_DRL
100
AcDbCircle
 62
7
  6
CONTINUOUS
 10
2.4380108527
 20
3.4597530725
 40
0.0175
  0
CIRCLE
  5
6BD
100
AcDbEntity
  8
DFP0102_DRL
100
AcDbCircle
 62
7
  6
CONTINUOUS
 10
2.5880108527
 20
3.5597530725
 40
0.0175
  0
CIRCLE
  5
6BE
100
AcDbEntity
  8
DFP0102_DRL
100
AcDbCircle
 62
7
  6
CONTINUOUS
 10
2.4880108527
 20
3.5597530725
 40
0.0175
  0
CIRCLE
  5
6BF
100
AcDbEntity
  8
DFP0102_DRL
100
AcDbCircle
 62
7
  6
CONTINUOUS
 10
2.6880108527
 20
3.5597530725
 40
0.0175
  0
CIRCLE
  5
6C0
100
AcDbEntity
  8
DFP0102_DRL
100
AcDbCircle
 62
7
  6
CONTINUOUS
 10
2.7880108527
 20
3.5597530725
 40
0.0175
  0
CIRCLE
  5
6C1
100
AcDbEntity
  8
DFP0102_DRL
100
AcDbCircle
 62
7
  6
CONTINUOUS
 10
2.7380108527
 20
3.4597530725
 40
0.0175
  0
CIRCLE
  5
6C2
100
AcDbEntity
  8
DFN0102_DRL
100
AcDbCircle
 62
7
  6
CONTINUOUS
 10
2.3880108527
 20
3.8097530725
 40
0.064
  0
CIRCLE
  5
6C3
100
AcDbEntity
  8
DFN0102_DRL
100
AcDbCircle
 62
7
  6
CONTINUOUS
 10
2.8380108527
 20
3.8097530725
 40
0.064
  0
CIRCLE
  5
6C4
100
AcDbEntity
  8
DFN0102_DRL
100
AcDbCircle
 62
7
  6
CONTINUOUS
 10
2.0130108527
 20
4.2347530725
 40
0.0625
  0
CIRCLE
  5
6C5
100
AcDbEntity
  8
DFP0102_DRL
100
AcDbCircle
 62
7
  6
CONTINUOUS
 10
2.3380108527
 20
4.1347530725
 40
0.019
  0
CIRCLE
  5
6C6
100
AcDbEntity
  8
DFP0102_DRL
100
AcDbCircle
 62
7
  6
CONTINUOUS
 10
2.8380108527
 20
4.1347530725
 40
0.019
  0
CIRCLE
  5
6C7
100
AcDbEntity
  8
DFP0102_DRL
100
AcDbCircle
 62
7
  6
CONTINUOUS
 10
2.3380108527
 20
4.2597530725
 40
0.0175
  0
CIRCLE
  5
6C8
100
AcDbEntity
  8
DFP0102_DRL
100
AcDbCircle
 62
7
  6
CONTINUOUS
 10
2.8380108527
 20
4.2597530725
 40
0.0175
  0
CIRCLE
  5
6C9
100
AcDbEntity
  8
DFP0102_DRL
100
AcDbCircle
 62
7
  6
CONTINUOUS
 10
3.0130108527
 20
4.2097530725
 40
0.0175
  0
CIRCLE
  5
6CA
100
AcDbEntity
  8
DFP0102_DRL
100
AcDbCircle
 62
7
  6
CONTINUOUS
 10
2.7880108527
 20
4.0097530725
 40
0.014
  0
CIRCLE
  5
6CB
100
AcDbEntity
  8
DFP0102_DRL
100
AcDbCircle
 62
7
  6
CONTINUOUS
 10
3.3630108527
 20
3.1347530725
 40
0.031
  0
CIRCLE
  5
6CC
100
AcDbEntity
  8
DFP0102_DRL
100
AcDbCircle
 62
7
  6
CONTINUOUS
 10
3.7630108527
 20
3.1347530725
 40
0.031
  0
CIRCLE
  5
6CD
100
AcDbEntity
  8
DFP0102_DRL
100
AcDbCircle
 62
7
  6
CONTINUOUS
 10
4.1630108527
 20
3.1347530725
 40
0.031
  0
CIRCLE
  5
6CE
100
AcDbEntity
  8
DFP0102_DRL
100
AcDbCircle
 62
7
  6
CONTINUOUS
 10
3.5130108527
 20
3.1347530725
 40
0.026
  0
CIRCLE
  5
6CF
100
AcDbEntity
  8
DFP0102_DRL
100
AcDbCircle
 62
7
  6
CONTINUOUS
 10
4.0130108527
 20
3.1347530725
 40
0.026
  0
CIRCLE
  5
6D0
100
AcDbEntity
  8
DFP0102_DRL
100
AcDbCircle
 62
7
  6
CONTINUOUS
 10
3.6380108527
 20
3.4597530725
 40
0.0175
  0
CIRCLE
  5
6D1
100
AcDbEntity
  8
DFP0102_DRL
100
AcDbCircle
 62
7
  6
CONTINUOUS
 10
3.6880108527
 20
3.5597530725
 40
0.0175
  0
CIRCLE
  5
6D2
100
AcDbEntity
  8
DFP0102_DRL
100
AcDbCircle
 62
7
  6
CONTINUOUS
 10
3.7880108527
 20
3.5597530725
 40
0.0175
  0
CIRCLE
  5
6D3
100
AcDbEntity
  8
DFP0102_DRL
100
AcDbCircle
 62
7
  6
CONTINUOUS
 10
3.8880108527
 20
3.5597530725
 40
0.0175
  0
CIRCLE
  5
6D4
100
AcDbEntity
  8
DFP0102_DRL
100
AcDbCircle
 62
7
  6
CONTINUOUS
 10
3.7380108527
 20
3.4597530725
 40
0.0175
  0
CIRCLE
  5
6D5
100
AcDbEntity
  8
DFP0102_DRL
100
AcDbCircle
 62
7
  6
CONTINUOUS
 10
3.8380108527
 20
3.4597530725
 40
0.0175
  0
CIRCLE
  5
6D6
100
AcDbEntity
  8
DFP0102_DRL
100
AcDbCircle
 62
7
  6
CONTINUOUS
 10
3.9380108527
 20
3.4597530725
 40
0.0175
  0
CIRCLE
  5
6D7
100
AcDbEntity
  8
DFP0102_DRL
100
AcDbCircle
 62
7
  6
CONTINUOUS
 10
3.9880108527
 20
3.5597530725
 40
0.0175
  0
CIRCLE
  5
6D8
100
AcDbEntity
  8
DFP0102_DRL
100
AcDbCircle
 62
7
  6
CONTINUOUS
 10
3.3630108527
 20
3.0097530725
 40
0.014
  0
CIRCLE
  5
6D9
100
AcDbEntity
  8
DFN0102_DRL
100
AcDbCircle
 62
7
  6
CONTINUOUS
 10
3.5880108527
 20
3.8097530725
 40
0.064
  0
CIRCLE
  5
6DA
100
AcDbEntity
  8
DFN0102_DRL
100
AcDbCircle
 62
7
  6
CONTINUOUS
 10
4.0380108527
 20
3.8097530725
 40
0.064
  0
CIRCLE
  5
6DB
100
AcDbEntity
  8
DFP0102_DRL
100
AcDbCircle
 62
7
  6
CONTINUOUS
 10
3.1130108527
 20
4.2097530725
 40
0.0175
  0
CIRCLE
  5
6DC
100
AcDbEntity
  8
DFP0102_DRL
100
AcDbCircle
 62
7
  6
CONTINUOUS
 10
3.0880108527
 20
3.8347530725
 40
0.0175
  0
CIRCLE
  5
6DD
100
AcDbEntity
  8
DFP0102_DRL
100
AcDbCircle
 62
7
  6
CONTINUOUS
 10
3.0880108527
 20
3.6347530725
 40
0.0175
  0
CIRCLE
  5
6DE
100
AcDbEntity
  8
DFP0102_DRL
100
AcDbCircle
 62
7
  6
CONTINUOUS
 10
3.3380108527
 20
3.6347530725
 40
0.0175
  0
CIRCLE
  5
6DF
100
AcDbEntity
  8
DFP0102_DRL
100
AcDbCircle
 62
7
  6
CONTINUOUS
 10
3.3380108527
 20
3.8347530725
 40
0.0175
  0
CIRCLE
  5
6E0
100
AcDbEntity
  8
DFP0102_DRL
100
AcDbCircle
 62
7
  6
CONTINUOUS
 10
3.8130108527
 20
4.2097530725
 40
0.0175
  0
CIRCLE
  5
6E1
100
AcDbEntity
  8
DFP0102_DRL
100
AcDbCircle
 62
7
  6
CONTINUOUS
 10
3.9130108527
 20
4.2097530725
 40
0.0175
  0
CIRCLE
  5
6E2
100
AcDbEntity
  8
DFP0102_DRL
100
AcDbCircle
 62
7
  6
CONTINUOUS
 10
3.1130108527
 20
4.0597530725
 40
0.014
  0
CIRCLE
  5
6E3
100
AcDbEntity
  8
DFP0102_DRL
100
AcDbCircle
 62
7
  6
CONTINUOUS
 10
3.2130108527
 20
4.0097530725
 40
0.014
  0
CIRCLE
  5
6E4
100
AcDbEntity
  8
DFP0102_DRL
100
AcDbCircle
 62
7
  6
CONTINUOUS
 10
3.5630108527
 20
3.6597530725
 40
0.014
  0
CIRCLE
  5
6E5
100
AcDbEntity
  8
DFP0102_DRL
100
AcDbCircle
 62
7
  6
CONTINUOUS
 10
3.6380108527
 20
4.0597530725
 40
0.014
  0
CIRCLE
  5
6E6
100
AcDbEntity
  8
DFP0102_DRL
100
AcDbCircle
 62
7
  6
CONTINUOUS
 10
3.5630108527
 20
4.1097530725
 40
0.014
  0
CIRCLE
  5
6E7
100
AcDbEntity
  8
DFP0102_DRL
100
AcDbCircle
 62
7
  6
CONTINUOUS
 10
3.4880108527
 20
4.1597530725
 40
0.014
  0
CIRCLE
  5
6E8
100
AcDbEntity
  8
DFN0102_DRL
100
AcDbCircle
 62
7
  6
CONTINUOUS
 10
4.2630108527
 20
1.8347530725
 40
0.14
  0
CIRCLE
  5
6E9
100
AcDbEntity
  8
DFP0102_DRL
100
AcDbCircle
 62
7
  6
CONTINUOUS
 10
4.5630108527
 20
2.0847530725
 40
0.019
  0
CIRCLE
  5
6EA
100
AcDbEntity
  8
DFP0102_DRL
100
AcDbCircle
 62
7
  6
CONTINUOUS
 10
4.5630108527
 20
1.9847530725
 40
0.019
  0
CIRCLE
  5
6EB
100
AcDbEntity
  8
DFP0102_DRL
100
AcDbCircle
 62
7
  6
CONTINUOUS
 10
4.5630108527
 20
1.7847530725
 40
0.019
  0
CIRCLE
  5
6EC
100
AcDbEntity
  8
DFP0102_DRL
100
AcDbCircle
 62
7
  6
CONTINUOUS
 10
5.0630108527
 20
1.7847530725
 40
0.019
  0
CIRCLE
  5
6ED
100
AcDbEntity
  8
DFP0102_DRL
100
AcDbCircle
 62
7
  6
CONTINUOUS
 10
5.0630108527
 20
1.9847530725
 40
0.019
  0
CIRCLE
  5
6EE
100
AcDbEntity
  8
DFP0102_DRL
100
AcDbCircle
 62
7
  6
CONTINUOUS
 10
5.0630108527
 20
2.0847530725
 40
0.019
  0
CIRCLE
  5
6EF
100
AcDbEntity
  8
DFP0102_DRL
100
AcDbCircle
 62
7
  6
CONTINUOUS
 10
5.0630108527
 20
2.2347530725
 40
0.019
  0
CIRCLE
  5
6F0
100
AcDbEntity
  8
DFP0102_DRL
100
AcDbCircle
 62
7
  6
CONTINUOUS
 10
4.3630108527
 20
2.1847530725
 40
0.0175
  0
CIRCLE
  5
6F1
100
AcDbEntity
  8
DFP0102_DRL
100
AcDbCircle
 62
7
  6
CONTINUOUS
 10
4.5630108527
 20
2.1847530725
 40
0.0175
  0
CIRCLE
  5
6F2
100
AcDbEntity
  8
DFP0102_DRL
100
AcDbCircle
 62
7
  6
CONTINUOUS
 10
4.8630108527
 20
2.1847530725
 40
0.0175
  0
CIRCLE
  5
6F3
100
AcDbEntity
  8
DFP0102_DRL
100
AcDbCircle
 62
7
  6
CONTINUOUS
 10
4.5630108527
 20
1.8847530725
 40
0.0175
  0
CIRCLE
  5
6F4
100
AcDbEntity
  8
DFP0102_DRL
100
AcDbCircle
 62
7
  6
CONTINUOUS
 10
5.1630108527
 20
1.7847530725
 40
0.0175
  0
CIRCLE
  5
6F5
100
AcDbEntity
  8
DFP0102_DRL
100
AcDbCircle
 62
7
  6
CONTINUOUS
 10
5.0630108527
 20
1.8847530725
 40
0.0175
  0
CIRCLE
  5
6F6
100
AcDbEntity
  8
DFP0102_DRL
100
AcDbCircle
 62
7
  6
CONTINUOUS
 10
5.1630108527
 20
1.8847530725
 40
0.0175
  0
CIRCLE
  5
6F7
100
AcDbEntity
  8
DFP0102_DRL
100
AcDbCircle
 62
7
  6
CONTINUOUS
 10
5.1630108527
 20
1.9847530725
 40
0.0175
  0
CIRCLE
  5
6F8
100
AcDbEntity
  8
DFP0102_DRL
100
AcDbCircle
 62
7
  6
CONTINUOUS
 10
5.1630108527
 20
2.0847530725
 40
0.0175
  0
CIRCLE
  5
6F9
100
AcDbEntity
  8
DFP0102_DRL
100
AcDbCircle
 62
7
  6
CONTINUOUS
 10
4.9880108527
 20
2.8347530725
 40
0.024
  0
CIRCLE
  5
6FA
100
AcDbEntity
  8
DFP0102_DRL
100
AcDbCircle
 62
7
  6
CONTINUOUS
 10
4.9880108527
 20
2.7097530725
 40
0.024
  0
CIRCLE
  5
6FB
100
AcDbEntity
  8
DFP0102_DRL
100
AcDbCircle
 62
7
  6
CONTINUOUS
 10
4.9880108527
 20
2.5847530725
 40
0.024
  0
CIRCLE
  5
6FC
100
AcDbEntity
  8
DFP0102_DRL
100
AcDbCircle
 62
7
  6
CONTINUOUS
 10
4.9880108527
 20
2.4597530725
 40
0.024
  0
CIRCLE
  5
6FD
100
AcDbEntity
  8
DFP0102_DRL
100
AcDbCircle
 62
7
  6
CONTINUOUS
 10
4.3630108527
 20
2.3847530725
 40
0.0175
  0
CIRCLE
  5
6FE
100
AcDbEntity
  8
DFP0102_DRL
100
AcDbCircle
 62
7
  6
CONTINUOUS
 10
4.3630108527
 20
2.5847530725
 40
0.0175
  0
CIRCLE
  5
6FF
100
AcDbEntity
  8
DFP0102_DRL
100
AcDbCircle
 62
7
  6
CONTINUOUS
 10
4.3630108527
 20
2.8847530725
 40
0.0175
  0
CIRCLE
  5
700
100
AcDbEntity
  8
DFP0102_DRL
100
AcDbCircle
 62
7
  6
CONTINUOUS
 10
4.5630108527
 20
2.8847530725
 40
0.0175
  0
CIRCLE
  5
701
100
AcDbEntity
  8
DFP0102_DRL
100
AcDbCircle
 62
7
  6
CONTINUOUS
 10
4.8630108527
 20
2.8847530725
 40
0.0175
  0
CIRCLE
  5
702
100
AcDbEntity
  8
DFP0102_DRL
100
AcDbCircle
 62
7
  6
CONTINUOUS
 10
4.8630108527
 20
2.5847530725
 40
0.0175
  0
CIRCLE
  5
703
100
AcDbEntity
  8
DFP0102_DRL
100
AcDbCircle
 62
7
  6
CONTINUOUS
 10
4.5630108527
 20
2.5847530725
 40
0.0175
  0
CIRCLE
  5
704
100
AcDbEntity
  8
DFP0102_DRL
100
AcDbCircle
 62
7
  6
CONTINUOUS
 10
4.8630108527
 20
2.3847530725
 40
0.0175
  0
CIRCLE
  5
705
100
AcDbEntity
  8
DFP0102_DRL
100
AcDbCircle
 62
7
  6
CONTINUOUS
 10
4.5630108527
 20
2.3847530725
 40
0.0175
  0
CIRCLE
  5
706
100
AcDbEntity
  8
DFP0102_DRL
100
AcDbCircle
 62
7
  6
CONTINUOUS
 10
4.7380108527
 20
2.8847530725
 40
0.014
  0
CIRCLE
  5
707
100
AcDbEntity
  8
DFP0102_DRL
100
AcDbCircle
 62
7
  6
CONTINUOUS
 10
4.2630108527
 20
2.6847530725
 40
0.014
  0
ARC
  5
708
100
AcDbEntity
  8
SST_PHO
100
AcDbCircle
 62
7
  6
CONTINUOUS
 10
5.9748309315
 20
2.1094629186
 40
0.1036085913
100
AcDbArc
 50
330.2999444721
 51
209.7000555279
  0
CIRCLE
  5
709
100
AcDbEntity
  8
DFP0102_DRL
100
AcDbCircle
 62
7
  6
CONTINUOUS
 10
6.4130108527
 20
2.0347530725
 40
0.021
  0
CIRCLE
  5
70A
100
AcDbEntity
  8
DFP0102_DRL
100
AcDbCircle
 62
7
  6
CONTINUOUS
 10
6.4130108527
 20
1.8347530725
 40
0.021
  0
CIRCLE
  5
70B
100
AcDbEntity
  8
DFP0102_DRL
100
AcDbCircle
 62
7
  6
CONTINUOUS
 10
5.5630108527
 20
2.2347530725
 40
0.019
  0
CIRCLE
  5
70C
100
AcDbEntity
  8
DFP0102_DRL
100
AcDbCircle
 62
7
  6
CONTINUOUS
 10
5.5630108527
 20
1.9847530725
 40
0.019
  0
CIRCLE
  5
70D
100
AcDbEntity
  8
DFP0102_DRL
100
AcDbCircle
 62
7
  6
CONTINUOUS
 10
5.5630108527
 20
1.8847530725
 40
0.019
  0
CIRCLE
  5
70E
100
AcDbEntity
  8
DFP0102_DRL
100
AcDbCircle
 62
7
  6
CONTINUOUS
 10
5.5630108527
 20
1.7847530725
 40
0.019
  0
CIRCLE
  5
70F
100
AcDbEntity
  8
DFP0102_DRL
100
AcDbCircle
 62
7
  6
CONTINUOUS
 10
6.0630108527
 20
1.7847530725
 40
0.019
  0
CIRCLE
  5
710
100
AcDbEntity
  8
DFP0102_DRL
100
AcDbCircle
 62
7
  6
CONTINUOUS
 10
6.0630108527
 20
1.8847530725
 40
0.019
  0
CIRCLE
  5
711
100
AcDbEntity
  8
DFP0102_DRL
100
AcDbCircle
 62
7
  6
CONTINUOUS
 10
6.0630108527
 20
1.9847530725
 40
0.019
  0
CIRCLE
  5
712
100
AcDbEntity
  8
DFP0102_DRL
100
AcDbCircle
 62
7
  6
CONTINUOUS
 10
5.8730108527
 20
2.0847530725
 40
0.019
  0
CIRCLE
  5
713
100
AcDbEntity
  8
DFP0102_DRL
100
AcDbCircle
 62
7
  6
CONTINUOUS
 10
5.9730108527
 20
2.0847530725
 40
0.019
  0
CIRCLE
  5
714
100
AcDbEntity
  8
DFP0102_DRL
100
AcDbCircle
 62
7
  6
CONTINUOUS
 10
6.0730108527
 20
2.0847530725
 40
0.019
  0
CIRCLE
  5
715
100
AcDbEntity
  8
DFP0102_DRL
100
AcDbCircle
 62
7
  6
CONTINUOUS
 10
5.6480108527
 20
2.2197530725
 40
0.0175
  0
CIRCLE
  5
716
100
AcDbEntity
  8
DFP0102_DRL
100
AcDbCircle
 62
7
  6
CONTINUOUS
 10
5.4630108527
 20
2.0847530725
 40
0.0175
  0
CIRCLE
  5
717
100
AcDbEntity
  8
DFP0102_DRL
100
AcDbCircle
 62
7
  6
CONTINUOUS
 10
5.4630108527
 20
1.9847530725
 40
0.0175
  0
CIRCLE
  5
718
100
AcDbEntity
  8
DFP0102_DRL
100
AcDbCircle
 62
7
  6
CONTINUOUS
 10
5.4630108527
 20
1.8847530725
 40
0.0175
  0
CIRCLE
  5
719
100
AcDbEntity
  8
DFP0102_DRL
100
AcDbCircle
 62
7
  6
CONTINUOUS
 10
5.4630108527
 20
1.7847530725
 40
0.0175
  0
CIRCLE
  5
71A
100
AcDbEntity
  8
DFP0102_DRL
100
AcDbCircle
 62
7
  6
CONTINUOUS
 10
5.8480108527
 20
2.2197530725
 40
0.0175
  0
CIRCLE
  5
71B
100
AcDbEntity
  8
DFP0102_DRL
100
AcDbCircle
 62
7
  6
CONTINUOUS
 10
6.1130108527
 20
2.1847530725
 40
0.014
  0
CIRCLE
  5
71C
100
AcDbEntity
  8
DFP0102_DRL
100
AcDbCircle
 62
7
  6
CONTINUOUS
 10
5.8130108527
 20
2.3097530725
 40
0.014
  0
CIRCLE
  5
71D
100
AcDbEntity
  8
DFP0102_DRL
100
AcDbCircle
 62
7
  6
CONTINUOUS
 10
5.4880108527
 20
2.4597530725
 40
0.024
  0
CIRCLE
  5
71E
100
AcDbEntity
  8
DFP0102_DRL
100
AcDbCircle
 62
7
  6
CONTINUOUS
 10
5.4880108527
 20
2.5847530725
 40
0.024
  0
CIRCLE
  5
71F
100
AcDbEntity
  8
DFP0102_DRL
100
AcDbCircle
 62
7
  6
CONTINUOUS
 10
5.4880108527
 20
2.7097530725
 40
0.024
  0
CIRCLE
  5
720
100
AcDbEntity
  8
DFP0102_DRL
100
AcDbCircle
 62
7
  6
CONTINUOUS
 10
5.4880108527
 20
2.8347530725
 40
0.024
  0
CIRCLE
  5
721
100
AcDbEntity
  8
DFP0102_DRL
100
AcDbCircle
 62
7
  6
CONTINUOUS
 10
5.6130108527
 20
2.7847530725
 40
0.019
  0
CIRCLE
  5
722
100
AcDbEntity
  8
DFP0102_DRL
100
AcDbCircle
 62
7
  6
CONTINUOUS
 10
5.6130108527
 20
2.6847530725
 40
0.019
  0
CIRCLE
  5
723
100
AcDbEntity
  8
DFP0102_DRL
100
AcDbCircle
 62
7
  6
CONTINUOUS
 10
5.6130108527
 20
2.5847530725
 40
0.019
  0
CIRCLE
  5
724
100
AcDbEntity
  8
DFP0102_DRL
100
AcDbCircle
 62
7
  6
CONTINUOUS
 10
5.6130108527
 20
2.4847530725
 40
0.019
  0
CIRCLE
  5
725
100
AcDbEntity
  8
DFP0102_DRL
100
AcDbCircle
 62
7
  6
CONTINUOUS
 10
5.6130108527
 20
2.3847530725
 40
0.019
  0
CIRCLE
  5
726
100
AcDbEntity
  8
DFP0102_DRL
100
AcDbCircle
 62
7
  6
CONTINUOUS
 10
6.1130108527
 20
2.3847530725
 40
0.019
  0
CIRCLE
  5
727
100
AcDbEntity
  8
DFP0102_DRL
100
AcDbCircle
 62
7
  6
CONTINUOUS
 10
6.1130108527
 20
2.4847530725
 40
0.019
  0
CIRCLE
  5
728
100
AcDbEntity
  8
DFP0102_DRL
100
AcDbCircle
 62
7
  6
CONTINUOUS
 10
6.1130108527
 20
2.5847530725
 40
0.019
  0
CIRCLE
  5
729
100
AcDbEntity
  8
DFP0102_DRL
100
AcDbCircle
 62
7
  6
CONTINUOUS
 10
6.1130108527
 20
2.6847530725
 40
0.019
  0
CIRCLE
  5
72A
100
AcDbEntity
  8
DFP0102_DRL
100
AcDbCircle
 62
7
  6
CONTINUOUS
 10
6.1130108527
 20
2.7847530725
 40
0.019
  0
CIRCLE
  5
72B
100
AcDbEntity
  8
DFP0102_DRL
100
AcDbCircle
 62
7
  6
CONTINUOUS
 10
5.8380108527
 20
2.8847530725
 40
0.019
  0
CIRCLE
  5
72C
100
AcDbEntity
  8
DFP0102_DRL
100
AcDbCircle
 62
7
  6
CONTINUOUS
 10
5.9630108527
 20
2.9347530725
 40
0.019
  0
CIRCLE
  5
72D
100
AcDbEntity
  8
DFP0102_DRL
100
AcDbCircle
 62
7
  6
CONTINUOUS
 10
6.4630108527
 20
2.9347530725
 40
0.019
  0
CIRCLE
  5
72E
100
AcDbEntity
  8
DFP0102_DRL
100
AcDbCircle
 62
7
  6
CONTINUOUS
 10
6.5630108527
 20
2.8347530725
 40
0.019
  0
CIRCLE
  5
72F
100
AcDbEntity
  8
DFP0102_DRL
100
AcDbCircle
 62
7
  6
CONTINUOUS
 10
6.2630108527
 20
2.7347530725
 40
0.0175
  0
CIRCLE
  5
730
100
AcDbEntity
  8
DFP0102_DRL
100
AcDbCircle
 62
7
  6
CONTINUOUS
 10
6.5630108527
 20
2.7347530725
 40
0.0175
  0
CIRCLE
  5
731
100
AcDbEntity
  8
DFP0102_DRL
100
AcDbCircle
 62
7
  6
CONTINUOUS
 10
6.2630108527
 20
2.6347530725
 40
0.0175
  0
CIRCLE
  5
732
100
AcDbEntity
  8
DFP0102_DRL
100
AcDbCircle
 62
7
  6
CONTINUOUS
 10
6.5630108527
 20
2.6347530725
 40
0.0175
  0
CIRCLE
  5
733
100
AcDbEntity
  8
DFP0102_DRL
100
AcDbCircle
 62
7
  6
CONTINUOUS
 10
6.5630108527
 20
2.5347530725
 40
0.0175
  0
CIRCLE
  5
734
100
AcDbEntity
  8
DFP0102_DRL
100
AcDbCircle
 62
7
  6
CONTINUOUS
 10
6.2630108527
 20
2.5347530725
 40
0.0175
  0
CIRCLE
  5
735
100
AcDbEntity
  8
DFP0102_DRL
100
AcDbCircle
 62
7
  6
CONTINUOUS
 10
6.2630108527
 20
2.4347530725
 40
0.0175
  0
CIRCLE
  5
736
100
AcDbEntity
  8
DFP0102_DRL
100
AcDbCircle
 62
7
  6
CONTINUOUS
 10
6.5630108527
 20
2.4347530725
 40
0.0175
  0
CIRCLE
  5
737
100
AcDbEntity
  8
DFP0102_DRL
100
AcDbCircle
 62
7
  6
CONTINUOUS
 10
5.7380108527
 20
2.7347530725
 40
0.014
  0
CIRCLE
  5
738
100
AcDbEntity
  8
DFP0102_DRL
100
AcDbCircle
 62
7
  6
CONTINUOUS
 10
4.3380108527
 20
3.1347530725
 40
0.031
  0
CIRCLE
  5
739
100
AcDbEntity
  8
DFP0102_DRL
100
AcDbCircle
 62
7
  6
CONTINUOUS
 10
4.7380108527
 20
3.1347530725
 40
0.031
  0
CIRCLE
  5
73A
100
AcDbEntity
  8
DFP0102_DRL
100
AcDbCircle
 62
7
  6
CONTINUOUS
 10
5.1380108527
 20
3.1347530725
 40
0.031
  0
CIRCLE
  5
73B
100
AcDbEntity
  8
DFP0102_DRL
100
AcDbCircle
 62
7
  6
CONTINUOUS
 10
4.4880108527
 20
3.1347530725
 40
0.026
  0
CIRCLE
  5
73C
100
AcDbEntity
  8
DFP0102_DRL
100
AcDbCircle
 62
7
  6
CONTINUOUS
 10
4.9880108527
 20
3.1347530725
 40
0.026
  0
CIRCLE
  5
73D
100
AcDbEntity
  8
DFP0102_DRL
100
AcDbCircle
 62
7
  6
CONTINUOUS
 10
4.8880108527
 20
3.5597530725
 40
0.0175
  0
CIRCLE
  5
73E
100
AcDbEntity
  8
DFP0102_DRL
100
AcDbCircle
 62
7
  6
CONTINUOUS
 10
4.8380108527
 20
3.4597530725
 40
0.0175
  0
CIRCLE
  5
73F
100
AcDbEntity
  8
DFP0102_DRL
100
AcDbCircle
 62
7
  6
CONTINUOUS
 10
4.9380108527
 20
3.4597530725
 40
0.0175
  0
CIRCLE
  5
740
100
AcDbEntity
  8
DFP0102_DRL
100
AcDbCircle
 62
7
  6
CONTINUOUS
 10
5.1380108527
 20
3.4597530725
 40
0.0175
  0
CIRCLE
  5
741
100
AcDbEntity
  8
DFP0102_DRL
100
AcDbCircle
 62
7
  6
CONTINUOUS
 10
5.0380108527
 20
3.4597530725
 40
0.0175
  0
CIRCLE
  5
742
100
AcDbEntity
  8
DFP0102_DRL
100
AcDbCircle
 62
7
  6
CONTINUOUS
 10
4.9880108527
 20
3.5597530725
 40
0.0175
  0
CIRCLE
  5
743
100
AcDbEntity
  8
DFP0102_DRL
100
AcDbCircle
 62
7
  6
CONTINUOUS
 10
5.1880108527
 20
3.5597530725
 40
0.0175
  0
CIRCLE
  5
744
100
AcDbEntity
  8
DFP0102_DRL
100
AcDbCircle
 62
7
  6
CONTINUOUS
 10
5.0880108527
 20
3.5597530725
 40
0.0175
  0
CIRCLE
  5
745
100
AcDbEntity
  8
DFN0102_DRL
100
AcDbCircle
 62
7
  6
CONTINUOUS
 10
4.7880108527
 20
3.8097530725
 40
0.064
  0
CIRCLE
  5
746
100
AcDbEntity
  8
DFN0102_DRL
100
AcDbCircle
 62
7
  6
CONTINUOUS
 10
5.2380108527
 20
3.8097530725
 40
0.064
  0
CIRCLE
  5
747
100
AcDbEntity
  8
DFP0102_DRL
100
AcDbCircle
 62
7
  6
CONTINUOUS
 10
4.2880108527
 20
3.6347530725
 40
0.0175
  0
CIRCLE
  5
748
100
AcDbEntity
  8
DFP0102_DRL
100
AcDbCircle
 62
7
  6
CONTINUOUS
 10
4.2880108527
 20
3.8347530725
 40
0.0175
  0
CIRCLE
  5
749
100
AcDbEntity
  8
DFP0102_DRL
100
AcDbCircle
 62
7
  6
CONTINUOUS
 10
4.6130108527
 20
4.2097530725
 40
0.0175
  0
CIRCLE
  5
74A
100
AcDbEntity
  8
DFP0102_DRL
100
AcDbCircle
 62
7
  6
CONTINUOUS
 10
4.7130108527
 20
4.2097530725
 40
0.0175
  0
CIRCLE
  5
74B
100
AcDbEntity
  8
DFP0102_DRL
100
AcDbCircle
 62
7
  6
CONTINUOUS
 10
4.5380108527
 20
3.8347530725
 40
0.0175
  0
CIRCLE
  5
74C
100
AcDbEntity
  8
DFP0102_DRL
100
AcDbCircle
 62
7
  6
CONTINUOUS
 10
4.5380108527
 20
3.6347530725
 40
0.0175
  0
CIRCLE
  5
74D
100
AcDbEntity
  8
DFP0102_DRL
100
AcDbCircle
 62
7
  6
CONTINUOUS
 10
5.4130108527
 20
4.2097530725
 40
0.0175
  0
CIRCLE
  5
74E
100
AcDbEntity
  8
DFP0102_DRL
100
AcDbCircle
 62
7
  6
CONTINUOUS
 10
4.6630108527
 20
4.0347530725
 40
0.014
  0
CIRCLE
  5
74F
100
AcDbEntity
  8
DFN0102_DRL
100
AcDbCircle
 62
7
  6
CONTINUOUS
 10
5.5130108527
 20
3.1847530725
 40
0.14
  0
CIRCLE
  5
750
100
AcDbEntity
  8
DFP0102_DRL
100
AcDbCircle
 62
7
  6
CONTINUOUS
 10
5.4380108527
 20
3.5097530725
 40
0.019
  0
CIRCLE
  5
751
100
AcDbEntity
  8
DFP0102_DRL
100
AcDbCircle
 62
7
  6
CONTINUOUS
 10
5.6130108527
 20
3.5847530725
 40
0.019
  0
CIRCLE
  5
752
100
AcDbEntity
  8
DFP0102_DRL
100
AcDbCircle
 62
7
  6
CONTINUOUS
 10
5.6130108527
 20
3.4847530725
 40
0.019
  0
CIRCLE
  5
753
100
AcDbEntity
  8
DFP0102_DRL
100
AcDbCircle
 62
7
  6
CONTINUOUS
 10
5.9630108527
 20
3.0347530725
 40
0.019
  0
CIRCLE
  5
754
100
AcDbEntity
  8
DFP0102_DRL
100
AcDbCircle
 62
7
  6
CONTINUOUS
 10
5.9630108527
 20
3.1347530725
 40
0.019
  0
CIRCLE
  5
755
100
AcDbEntity
  8
DFP0102_DRL
100
AcDbCircle
 62
7
  6
CONTINUOUS
 10
5.9630108527
 20
3.2347530725
 40
0.019
  0
CIRCLE
  5
756
100
AcDbEntity
  8
DFP0102_DRL
100
AcDbCircle
 62
7
  6
CONTINUOUS
 10
5.9630108527
 20
3.3347530725
 40
0.019
  0
CIRCLE
  5
757
100
AcDbEntity
  8
DFP0102_DRL
100
AcDbCircle
 62
7
  6
CONTINUOUS
 10
5.8380108527
 20
3.3847530725
 40
0.019
  0
CIRCLE
  5
758
100
AcDbEntity
  8
DFP0102_DRL
100
AcDbCircle
 62
7
  6
CONTINUOUS
 10
6.1130108527
 20
3.4847530725
 40
0.019
  0
CIRCLE
  5
759
100
AcDbEntity
  8
DFP0102_DRL
100
AcDbCircle
 62
7
  6
CONTINUOUS
 10
6.1130108527
 20
3.5847530725
 40
0.019
  0
CIRCLE
  5
75A
100
AcDbEntity
  8
DFP0102_DRL
100
AcDbCircle
 62
7
  6
CONTINUOUS
 10
6.5630108527
 20
3.3347530725
 40
0.019
  0
CIRCLE
  5
75B
100
AcDbEntity
  8
DFP0102_DRL
100
AcDbCircle
 62
7
  6
CONTINUOUS
 10
6.4630108527
 20
3.3347530725
 40
0.019
  0
CIRCLE
  5
75C
100
AcDbEntity
  8
DFP0102_DRL
100
AcDbCircle
 62
7
  6
CONTINUOUS
 10
6.4630108527
 20
3.2347530725
 40
0.019
  0
CIRCLE
  5
75D
100
AcDbEntity
  8
DFP0102_DRL
100
AcDbCircle
 62
7
  6
CONTINUOUS
 10
6.4630108527
 20
3.1347530725
 40
0.019
  0
CIRCLE
  5
75E
100
AcDbEntity
  8
DFP0102_DRL
100
AcDbCircle
 62
7
  6
CONTINUOUS
 10
6.4630108527
 20
3.0347530725
 40
0.019
  0
CIRCLE
  5
75F
100
AcDbEntity
  8
DFP0102_DRL
100
AcDbCircle
 62
7
  6
CONTINUOUS
 10
6.2630108527
 20
3.5847530725
 40
0.0175
  0
CIRCLE
  5
760
100
AcDbEntity
  8
DFP0102_DRL
100
AcDbCircle
 62
7
  6
CONTINUOUS
 10
6.5630108527
 20
3.5847530725
 40
0.0175
  0
CIRCLE
  5
761
100
AcDbEntity
  8
DFP0102_DRL
100
AcDbCircle
 62
7
  6
CONTINUOUS
 10
6.2630108527
 20
3.4847530725
 40
0.0175
  0
CIRCLE
  5
762
100
AcDbEntity
  8
DFP0102_DRL
100
AcDbCircle
 62
7
  6
CONTINUOUS
 10
6.5630108527
 20
3.4847530725
 40
0.0175
  0
CIRCLE
  5
763
100
AcDbEntity
  8
DFP0102_DRL
100
AcDbCircle
 62
7
  6
CONTINUOUS
 10
6.2630108527
 20
2.9847530725
 40
0.014
  0
CIRCLE
  5
764
100
AcDbEntity
  8
DFN0102_DRL
100
AcDbCircle
 62
7
  6
CONTINUOUS
 10
6.5130108527
 20
4.2347530725
 40
0.0625
  0
CIRCLE
  5
765
100
AcDbEntity
  8
DFP0102_DRL
100
AcDbCircle
 62
7
  6
CONTINUOUS
 10
5.4380108527
 20
4.0097530725
 40
0.019
  0
CIRCLE
  5
766
100
AcDbEntity
  8
DFP0102_DRL
100
AcDbCircle
 62
7
  6
CONTINUOUS
 10
5.6130108527
 20
3.6847530725
 40
0.019
  0
CIRCLE
  5
767
100
AcDbEntity
  8
DFP0102_DRL
100
AcDbCircle
 62
7
  6
CONTINUOUS
 10
6.1130108527
 20
3.6847530725
 40
0.019
  0
CIRCLE
  5
768
100
AcDbEntity
  8
DFP0102_DRL
100
AcDbCircle
 62
7
  6
CONTINUOUS
 10
5.6880108527
 20
4.2847530725
 40
0.0175
  0
CIRCLE
  5
769
100
AcDbEntity
  8
DFP0102_DRL
100
AcDbCircle
 62
7
  6
CONTINUOUS
 10
5.5130108527
 20
4.2097530725
 40
0.0175
  0
CIRCLE
  5
76A
100
AcDbEntity
  8
DFP0102_DRL
100
AcDbCircle
 62
7
  6
CONTINUOUS
 10
5.6880108527
 20
4.1847530725
 40
0.0175
  0
CIRCLE
  5
76B
100
AcDbEntity
  8
DFP0102_DRL
100
AcDbCircle
 62
7
  6
CONTINUOUS
 10
5.6880108527
 20
4.0847530725
 40
0.0175
  0
CIRCLE
  5
76C
100
AcDbEntity
  8
DFP0102_DRL
100
AcDbCircle
 62
7
  6
CONTINUOUS
 10
5.6130108527
 20
3.9847530725
 40
0.0175
  0
CIRCLE
  5
76D
100
AcDbEntity
  8
DFP0102_DRL
100
AcDbCircle
 62
7
  6
CONTINUOUS
 10
5.6130108527
 20
3.8847530725
 40
0.0175
  0
CIRCLE
  5
76E
100
AcDbEntity
  8
DFP0102_DRL
100
AcDbCircle
 62
7
  6
CONTINUOUS
 10
5.6130108527
 20
3.7847530725
 40
0.0175
  0
CIRCLE
  5
76F
100
AcDbEntity
  8
DFP0102_DRL
100
AcDbCircle
 62
7
  6
CONTINUOUS
 10
6.1130108527
 20
3.7847530725
 40
0.0175
  0
CIRCLE
  5
770
100
AcDbEntity
  8
DFP0102_DRL
100
AcDbCircle
 62
7
  6
CONTINUOUS
 10
6.1130108527
 20
3.8847530725
 40
0.0175
  0
CIRCLE
  5
771
100
AcDbEntity
  8
DFP0102_DRL
100
AcDbCircle
 62
7
  6
CONTINUOUS
 10
6.1130108527
 20
3.9847530725
 40
0.0175
  0
CIRCLE
  5
772
100
AcDbEntity
  8
DFP0102_DRL
100
AcDbCircle
 62
7
  6
CONTINUOUS
 10
6.1880108527
 20
4.0847530725
 40
0.0175
  0
CIRCLE
  5
773
100
AcDbEntity
  8
DFP0102_DRL
100
AcDbCircle
 62
7
  6
CONTINUOUS
 10
6.1880108527
 20
4.1847530725
 40
0.0175
  0
CIRCLE
  5
774
100
AcDbEntity
  8
DFP0102_DRL
100
AcDbCircle
 62
7
  6
CONTINUOUS
 10
6.1880108527
 20
4.2847530725
 40
0.0175
  0
CIRCLE
  5
775
100
AcDbEntity
  8
DFP0102_DRL
100
AcDbCircle
 62
7
  6
CONTINUOUS
 10
6.2630108527
 20
3.6847530725
 40
0.0175
  0
CIRCLE
  5
776
100
AcDbEntity
  8
DFP0102_DRL
100
AcDbCircle
 62
7
  6
CONTINUOUS
 10
6.5630108527
 20
3.6847530725
 40
0.0175
  0
ENDSEC
  0
SECTION
  2
OBJECTS
  0
DICTIONARY
  5
C
100
AcDbDictionary
280
0
281
1
  3
ACAD_GROUP
350
D
  3
ACAD_MLINESTYLE
350
17
  3
ACAD_LAYOUT
350
1A
  3
ACAD_PLOTSETTINGS
350
19
  3
ACAD_PLOTSTYLENAME
350
E
  0
DICTIONARY
  5
D
102
{ACAD_REACTORS
330
C
102
}
100
AcDbDictionary
280
0
281
1
  0
ACDBDICTIONARYWDFLT
  5
E
102
{ACAD_REACTORS
330
C
102
}
100
AcDbDictionary
281
1
  3
Normal
350
F
100
AcDbDictionaryWithDefault
340
F
  0
DICTIONARY
  5
17
102
{ACAD_REACTORS
330
C
102
}
100
AcDbDictionary
280
0
281
1
  3
Standard
350
18
  0
DICTIONARY
  5
19
102
{ACAD_REACTORS
330
C
102
}
100
AcDbDictionary
281
1
  0
DICTIONARY
  5
1A
102
{ACAD_REACTORS
330
C
102
}
100
AcDbDictionary
281
1
  3
Model
350
777
  3
Layout1
350
778
  0
ACDBPLACEHOLDER
  5
F
102
{ACAD_REACTORS
330
E
102
}
  0
MLINESTYLE
  5
18
102
{ACAD_REACTORS
330
17
102
}
100
AcDbMlineStyle
  2
STANDARD
 70
0
  3

 62
256
 51
90.0
 52
90.0
 71
2
 49
0.5
 62
256
  6
BYLAYER
 49
-0.5
 62
256
  6
BYLAYER
  0
LAYOUT
  5
777
102
{ACAD_REACTORS
330
1A
102
}
100
AcDbPlotSettings
  1

  2
none_device
  4
ANSI_A_(11.00_x_8.50_Inches)
  6

 40
0.0
 41
0.0
 42
0.0
 43
0.0
 44
279.4
 45
215.9
 46
0.0
 47
0.0
 48
0.0
 49
0.0
140
0.0
141
0.0
142
1.0
143
1.0
 70
1024
 72
0
 73
0
 74
0
  7

 75
0
147
1.0
148
0.0
149
0.0
100
AcDbLayout
  1
Model
 70
0
 71
0
 10
0.0
 20
0.0
 11
11.0
 21
8.5
 12
0.0
 22
0.0
 32
0.0
 14
0.0
 24
0.0
 34
0.0
 15
0.0
 25
0.0
 35
0.0
146
0.0
 13
0.0
 23
0.0
 33
0.0
 16
1.0
 26
0.0
 36
0.0
 17
0.0
 27
1.0
 37
0.0
 76
0
330
202
345
0
346
0
  0
LAYOUT
  5
778
102
{ACAD_REACTORS
330
1A
102
}
100
AcDbPlotSettings
  1

  2
none_device
  4
ANSI_A_(11.00_x_8.50_Inches)
  6

 40
0.0
 41
0.0
 42
0.0
 43
0.0
 44
279.4
 45
215.9
 46
0.0
 47
0.0
 48
0.0
 49
0.0
140
0.0
141
0.0
142
1.0
143
1.0
 70
0
 72
0
 73
0
 74
0
  7

 75
0
147
1.0
148
0.0
149
0.0
100
AcDbLayout
  1
Layout1
 70
0
 71
1
 10
0.0
 20
0.0
 11
11.0
 21
8.5
 12
0.0
 22
0.0
 32
0.0
 14
0.0
 24
0.0
 34
0.0
 15
0.0
 25
0.0
 35
0.0
146
0.0
 13
0.0
 23
0.0
 33
0.0
 16
1.0
 26
0.0
 36
0.0
 17
0.0
 27
1.0
 37
0.0
 76
0
330
203
345
0
346
0
  0
ENDSEC
  0
EOF
