999
DXF file: d134.dxf
999
Pro/ENGINEER 2009380 by Parametric Technology Corporation
  0
SECTION
  2
HEADER
  9
$ACADVER
  1
AC1015
  9
$DWGCODEPAGE
  3
ANSI_1252
  9
$EXTMAX
 10
11.0
 20
8.5
 30
0.0
  9
$EXTMIN
 10
0.0
 20
0.0
 30
0.0
  9
$LIMMIN
 10
0.0
 20
0.0
  9
$LIMMAX
 10
11.0
 20
8.5
  9
$VIEWCTR
 10
5.5
 20
4.25
  9
$VIEWSIZE
 40
8.5
  9
$CLAYER
  8
0
  9
$LTSCALE
 40
0.605
  9
$CELTYPE
  6
BYLAYER
  9
$DIMSCALE
 40
1.0
  9
$DIMASZ
 40
0.1875
  9
$DIMEXO
 40
0.06875
  9
$DIMDLI
 40
0.418
  9
$DIMEXE
 40
0.198
  9
$DIMCEN
 40
0.099
  9
$DIMLFAC
 40
1.0
  9
$DIMBLK
  1
_CLOSED
  9
$DIMTXT
 40
0.125
  9
$DIMTOL
 70
0
  9
$DIMLIM
 70
0
  9
$DIMTFAC
 40
1.0
  9
$PDMODE
 70
3
  9
$PDSIZE
 40
0.3125
  9
$HANDSEED
  5
33C
  9
$TILEMODE
 70
1
  9
$MEASUREMENT
 70
0
  9
$INSUNITS
 70
1
  0
ENDSEC
  0
SECTION
  2
CLASSES
  0
CLASS
  1
ACDBDICTIONARYWDFLT
  2
AcDbDictionaryWithDefault
  3
AutoCAD 2000
 90
0
280
0
281
0
  0
CLASS
  1
ACDBPLACEHOLDER
  2
AcDbPlaceHolder
  3
AutoCAD 2000
 90
0
280
0
281
0
  0
CLASS
  1
LAYOUT
  2
AcDbLayout
  3
AutoCAD 2000
 90
0
280
0
281
0
  0
ENDSEC
  0
SECTION
  2
TABLES
  0
TABLE
  2
VPORT
  5
8
100
AcDbSymbolTable
 70
2
  0
VPORT
  5
1F4
100
AcDbSymbolTableRecord
100
AcDbViewportTableRecord
  2
*ACTIVE
 70
0
 10
0.0
 20
0.0
 11
1.0
 21
1.0
 12
5.5
 22
4.25
 13
0.0
 23
0.0
 14
1.0
 24
1.0
 15
0.0
 25
0.0
 16
0.0
 26
0.0
 36
1.0
 17
0.0
 27
0.0
 37
0.0
 40
8.5
 41
1.2941176471
 42
50.0
 43
0.0
 44
0.0
 50
0.0
 51
0.0
 71
0
 72
100
 73
1
 74
1
 75
0
 76
0
 77
0
 78
0
  0
ENDTAB
  0
TABLE
  2
LTYPE
  5
5
100
AcDbSymbolTable
 70
6
  0
LTYPE
  5
14
100
AcDbSymbolTableRecord
100
AcDbLinetypeTableRecord
  2
BYBLOCK
 70
0
  3

 72
65
 73
0
 40
0.0
  0
LTYPE
  5
15
100
AcDbSymbolTableRecord
100
AcDbLinetypeTableRecord
  2
BYLAYER
 70
0
  3

 72
65
 73
0
 40
0.0
  0
LTYPE
  5
16
100
AcDbSymbolTableRecord
100
AcDbLinetypeTableRecord
  2
CONTINUOUS
 70
64
  3
Solid line
 72
65
 73
0
 40
0.0
  0
LTYPE
  5
1F5
100
AcDbSymbolTableRecord
100
AcDbLinetypeTableRecord
  2
CENTER
 70
64
  3
____ _ ____ _ ____ _ ____ _ ____ _ ____ _ ____
 72
65
 73
4
 40
0.6
 49
0.375
 74
0
 49
-0.075
 74
0
 49
0.075
 74
0
 49
-0.075
 74
0
  0
LTYPE
  5
1F6
100
AcDbSymbolTableRecord
100
AcDbLinetypeTableRecord
  2
HIDDEN
 70
64
  3
- - - - - - - - - - - - - - - - - - - -
 72
65
 73
2
 40
0.2
 49
0.1
 74
0
 49
-0.1
 74
0
  0
LTYPE
  5
1F7
100
AcDbSymbolTableRecord
100
AcDbLinetypeTableRecord
  2
PHANTOM
 70
64
  3
_____ _ _ _____ _ _ _____ _ _ _____
 72
65
 73
6
 40
0.8
 49
0.45
 74
0
 49
-0.05
 74
0
 49
0.1
 74
0
 49
-0.05
 74
0
 49
0.1
 74
0
 49
-0.05
 74
0
  0
LTYPE
  5
1F8
100
AcDbSymbolTableRecord
100
AcDbLinetypeTableRecord
  2
DOT
 70
64
  3
. . . . . . . . . . . . . . . . . . . .
 72
65
 73
2
 40
0.2
 49
0.1
 74
0
 49
-0.1
 74
0
  0
LTYPE
  5
1F9
100
AcDbSymbolTableRecord
100
AcDbLinetypeTableRecord
  2
DASHED
 70
64
  3
- - - - - - - - - - - - - - - - - - - -
 72
65
 73
2
 40
0.2
 49
0.1
 74
0
 49
-0.1
 74
0
  0
ENDTAB
  0
TABLE
  2
LAYER
  5
2
100
AcDbSymbolTable
 70
36
  0
LAYER
  5
10
100
AcDbSymbolTableRecord
100
AcDbLayerTableRecord
  2
0
 70
0
 62
7
  6
CONTINUOUS
370
-3
390
F
  0
LAYER
  5
1FA
100
AcDbSymbolTableRecord
100
AcDbLayerTableRecord
  2
DEFAULT_1
 70
0
 62
7
  6
CENTER
370
-3
390
F
  0
LAYER
  5
1FB
100
AcDbSymbolTableRecord
100
AcDbLayerTableRecord
  2
DEFAULT_2
 70
0
 62
8
  6
HIDDEN
370
-3
390
F
  0
LAYER
  5
1FC
100
AcDbSymbolTableRecord
100
AcDbLayerTableRecord
  2
DEFAULT_3
 70
0
 62
7
  6
PHANTOM
370
-3
390
F
  0
LAYER
  5
1FD
100
AcDbSymbolTableRecord
100
AcDbLayerTableRecord
  2
ADT_PHO
 70
0
 62
7
  6
CONTINUOUS
370
-3
390
F
  0
LAYER
  5
1FE
100
AcDbSymbolTableRecord
100
AcDbLayerTableRecord
  2
ART02_PHO
 70
0
 62
7
  6
CONTINUOUS
370
-3
390
F
  0
LAYER
  5
1FF
100
AcDbSymbolTableRecord
100
AcDbLayerTableRecord
  2
DFN0102_DRL
 70
0
 62
7
  6
CONTINUOUS
370
-3
390
F
  0
LAYER
  5
200
100
AcDbSymbolTableRecord
100
AcDbLayerTableRecord
  2
DFP0102_DRL
 70
0
 62
7
  6
CONTINUOUS
370
-3
390
F
  0
LAYER
  5
201
100
AcDbSymbolTableRecord
100
AcDbLayerTableRecord
  2
FAB_PHO
 70
0
 62
7
  6
CONTINUOUS
370
-3
390
F
  0
LAYER
  5
202
100
AcDbSymbolTableRecord
100
AcDbLayerTableRecord
  2
SMB_PHO
 70
0
 62
7
  6
CONTINUOUS
370
-3
390
F
  0
LAYER
  5
203
100
AcDbSymbolTableRecord
100
AcDbLayerTableRecord
  2
SST_PHO
 70
0
 62
7
  6
CONTINUOUS
370
-3
390
F
  0
ENDTAB
  0
TABLE
  2
STYLE
  5
3
100
AcDbSymbolTable
 70
1
  0
STYLE
  5
11
100
AcDbSymbolTableRecord
100
AcDbTextStyleTableRecord
  2
STANDARD
 70
0
 40
0.0
 41
0.8
 50
0.0
 71
0
 42
0.2
  3
txt
  4

  0
STYLE
  5
204
100
AcDbSymbolTableRecord
100
AcDbTextStyleTableRecord
  2
TEXTSTYLE_1
 70
0
 40
0.0
 41
0.8
 50
0.0
 71
0
 42
0.2
  3
gdt
  4

  0
ENDTAB
  0
TABLE
  2
VIEW
  5
6
100
AcDbSymbolTable
 70
0
  0
ENDTAB
  0
TABLE
  2
UCS
  5
7
100
AcDbSymbolTable
 70
0
  0
ENDTAB
  0
TABLE
  2
APPID
  5
9
100
AcDbSymbolTable
 70
1
  0
APPID
  5
205
100
AcDbSymbolTableRecord
100
AcDbRegAppTableRecord
  2
ACAD
 70
0
  0
ENDTAB
  0
TABLE
  2
BLOCK_RECORD
  5
1
100
AcDbSymbolTable
 70
0
  0
BLOCK_RECORD
  5
206
100
AcDbSymbolTableRecord
100
AcDbBlockTableRecord
  2
*Model_Space
  0
BLOCK_RECORD
  5
207
100
AcDbSymbolTableRecord
100
AcDbBlockTableRecord
  2
*Paper_Space
  0
BLOCK_RECORD
  5
208
100
AcDbSymbolTableRecord
100
AcDbBlockTableRecord
  2
_CLOSED
  0
BLOCK_RECORD
  5
209
100
AcDbSymbolTableRecord
100
AcDbBlockTableRecord
  2
*D0
  0
BLOCK_RECORD
  5
20A
100
AcDbSymbolTableRecord
100
AcDbBlockTableRecord
  2
*D1
  0
ENDTAB
  0
TABLE
  2
DIMSTYLE
  5
A
100
AcDbSymbolTable
 70
1
100
AcDbDimStyleTable
 71
0
  0
DIMSTYLE
105
20B
100
AcDbSymbolTableRecord
100
AcDbDimStyleTableRecord
  2
STANDARD
 70
0
  3

  4

 40
1.0
 41
0.1875
 42
0.0625
 43
0.38
 44
0.18
 45
0.0
 46
0.0
 47
0.01
 48
0.01
140
0.125
141
0.09
142
0.0
143
25.4
144
1.0
145
0.0
146
1.0
147
0.09
 71
0.0
 72
0.0
 73
1
 74
1
 75
0
 76
0
 77
0
 78
4
170
0
171
2
172
0
173
0
174
0
175
0
176
0
177
0
178
0
270
2
271
2
272
2
273
2
274
2
275
0
280
0
281
0
282
0
283
1
284
4
285
0
286
0
287
3
288
0
340
11
341
208
342
208
343
208
344
208
  0
DIMSTYLE
105
20C
100
AcDbSymbolTableRecord
100
AcDbDimStyleTableRecord
  2
DIMSTYLE_1
 70
0
  3

  4

 40
1.0
 41
0.1875
 42
0.0625
 43
0.38
 44
0.18
 45
0.0
 46
0.0
 47
0.0
 48
0.0
140
0.125
141
0.09
142
0.0
143
25.4
144
1.0
145
0.0
146
1.0
147
0.09
 71
0.0
 72
0.0
 73
1
 74
1
 75
0
 76
0
 77
0
 78
4
170
0
171
2
172
0
173
0
174
0
175
0
176
0
177
0
178
0
270
2
271
2
272
2
273
2
274
2
275
0
280
0
281
0
282
0
283
1
284
4
285
0
286
0
287
3
288
0
340
11
341
208
342
208
343
208
344
208
  0
ENDTAB
  0
ENDSEC
  0
SECTION
  2
BLOCKS
  0
BLOCK
  5
20
100
AcDbEntity
  8
0
100
AcDbBlockBegin
  2
*Model_Space
 70
0
 10
0.0
 20
0.0
 30
0.0
  3
*Model_Space
  1

  0
ENDBLK
  5
21
100
AcDbEntity
  8
0
100
AcDbBlockEnd
  0
BLOCK
  5
1C
100
AcDbEntity
  8
0
100
AcDbBlockBegin
  2
*Paper_Space
 70
0
 10
0.0
 20
0.0
 30
0.0
  3
*Paper_Space
  1

  0
ENDBLK
  5
1D
100
AcDbEntity
  8
0
100
AcDbBlockEnd
  0
BLOCK
  5
20D
100
AcDbEntity
  8
0
100
AcDbBlockBegin
  2
_CLOSED
 70
64
 10
0.0
 20
0.0
  3
_CLOSED
  1

  0
LINE
  5
20E
100
AcDbEntity
  8
0
  6
BYBLOCK
 62
0
100
AcDbLine
 10
0.0
 20
0.0
 11
-1.0
 21
0.1666666667
  0
LINE
  5
20F
100
AcDbEntity
  8
0
  6
BYBLOCK
 62
0
100
AcDbLine
 10
-1.0
 20
0.1666666667
 11
-1.0
 21
-0.1666666667
  0
LINE
  5
210
100
AcDbEntity
  8
0
  6
BYBLOCK
 62
0
100
AcDbLine
 10
-1.0
 20
-0.1666666667
 11
0.0
 21
0.0
  0
LINE
  5
211
100
AcDbEntity
  8
0
  6
BYBLOCK
 62
0
100
AcDbLine
 10
-1.0
 20
0.0
 11
0.0
 21
0.0
  0
ENDBLK
  5
212
100
AcDbEntity
  8
0
  6
BYBLOCK
 62
0
100
AcDbBlockEnd
  0
BLOCK
  5
213
100
AcDbEntity
  8
0
100
AcDbBlockBegin
 62
2
  6
CONTINUOUS
  2
*D0
 70
65
 10
0.0
 20
0.0
  3
*D0
  1

  0
MTEXT
  5
214
100
AcDbEntity
  8
0
100
AcDbMText
 62
2
  6
CONTINUOUS
  7
STANDARD
 71
2
 72
1
 10
2.9036165436
 20
2.4723426769
 30
0.0
 11
1.0
 21
0.0
 31
0.0
 44
0.9
  1
2.74
 40
0.125
 41
0.4
  0
LINE
  5
215
100
AcDbEntity
  8
0
100
AcDbLine
 62
2
  6
CONTINUOUS
 10
2.5503652123
 20
3.7799226769
 11
3.0286165436
 21
3.7799226769
  0
LINE
  5
216
100
AcDbEntity
  8
0
100
AcDbLine
 62
2
  6
CONTINUOUS
 10
2.5503652123
 20
1.0397626769
 11
3.0286165436
 21
1.0397626769
  0
LINE
  5
217
100
AcDbEntity
  8
0
100
AcDbLine
 62
2
  6
CONTINUOUS
 10
2.9036165436
 20
3.7799226769
 11
2.9036165436
 21
2.5348426769
  0
LINE
  5
218
100
AcDbEntity
  8
0
100
AcDbLine
 62
2
  6
CONTINUOUS
 10
2.9036165436
 20
1.0397626769
 11
2.9036165436
 21
2.2848426769
  0
INSERT
  5
219
100
AcDbEntity
  8
0
100
AcDbBlockReference
 62
2
  6
CONTINUOUS
  2
_CLOSED
 10
2.9036165436
 20
3.7799226769
 41
0.1875
 42
0.1875
 43
0.1875
 50
90.0
  0
INSERT
  5
21A
100
AcDbEntity
  8
0
100
AcDbBlockReference
 62
2
  6
CONTINUOUS
  2
_CLOSED
 10
2.9036165436
 20
1.0397626769
 41
0.1875
 42
0.1875
 43
0.1875
 50
270.0
  0
ENDBLK
  5
21B
100
AcDbEntity
  8
0
  6
BYBLOCK
 62
0
100
AcDbBlockEnd
  0
BLOCK
  5
21C
100
AcDbEntity
  8
0
100
AcDbBlockBegin
 62
2
  6
CONTINUOUS
  2
*D1
 70
65
 10
0.0
 20
0.0
  3
*D1
  1

  0
MTEXT
  5
21D
100
AcDbEntity
  8
0
100
AcDbMText
 62
2
  6
CONTINUOUS
  7
STANDARD
 71
2
 72
1
 10
1.8677902123
 20
4.1781304755
 30
0.0
 11
1.0
 21
0.0
 31
0.0
 44
0.9
  1
1.24
 40
0.125
 41
0.4
  0
LINE
  5
21E
100
AcDbEntity
  8
0
100
AcDbLine
 62
2
  6
CONTINUOUS
 10
2.4878652123
 20
3.8424226769
 11
2.4878652123
 21
4.2406304755
  0
LINE
  5
21F
100
AcDbEntity
  8
0
100
AcDbLine
 62
2
  6
CONTINUOUS
 10
1.2477152123
 20
3.8424226769
 11
1.2477152123
 21
4.2406304755
  0
LINE
  5
220
100
AcDbEntity
  8
0
100
AcDbLine
 62
2
  6
CONTINUOUS
 10
2.4878652123
 20
4.1156304755
 11
2.1302902123
 21
4.1156304755
  0
LINE
  5
221
100
AcDbEntity
  8
0
100
AcDbLine
 62
2
  6
CONTINUOUS
 10
1.2477152123
 20
4.1156304755
 11
1.6052902123
 21
4.1156304755
  0
INSERT
  5
222
100
AcDbEntity
  8
0
100
AcDbBlockReference
 62
2
  6
CONTINUOUS
  2
_CLOSED
 10
2.4878652123
 20
4.1156304755
 41
0.1875
 42
0.1875
 43
0.1875
  0
INSERT
  5
223
100
AcDbEntity
  8
0
100
AcDbBlockReference
 62
2
  6
CONTINUOUS
  2
_CLOSED
 10
1.2477152123
 20
4.1156304755
 41
0.1875
 42
0.1875
 43
0.1875
 50
180.0
  0
ENDBLK
  5
224
100
AcDbEntity
  8
0
  6
BYBLOCK
 62
0
100
AcDbBlockEnd
  0
ENDSEC
  0
SECTION
  2
ENTITIES
  0
DIMENSION
  5
225
100
AcDbEntity
  8
0
100
AcDbDimension
 62
2
  6
CONTINUOUS
  2
*D0
 10
2.9036165436
 20
1.0397626769
 11
2.7036165436
 21
2.4098426769
 70
160
 71
2
 42
2.74016
  3
DIMSTYLE_1
100
AcDbAlignedDimension
 13
2.5503652123
 23
3.7799226769
 14
2.5503652123
 24
1.0397626769
 50
270.0
100
AcDbRotatedDimension
  0
DIMENSION
  5
226
100
AcDbEntity
  8
0
100
AcDbDimension
 62
2
  6
CONTINUOUS
  2
*D1
 10
1.2477152123
 20
4.1156304755
 11
1.6677902123
 21
4.1156304755
 70
160
 71
2
 42
1.24015
  3
DIMSTYLE_1
100
AcDbAlignedDimension
 13
2.4878652123
 23
3.8424226769
 14
1.2477152123
 24
3.8424226769
 50
180.0
100
AcDbRotatedDimension
  0
LWPOLYLINE
  5
227
100
AcDbEntity
  8
SST_PHO
100
AcDbPolyline
 62
3
  6
CONTINUOUS
 90
2
 70
0
 43
0.0100000003
 10
1.5055752123
 20
1.2329026769
 10
1.5515752123
 20
1.1789026769
  0
LWPOLYLINE
  5
228
100
AcDbEntity
  8
SST_PHO
100
AcDbPolyline
 62
3
  6
CONTINUOUS
 90
2
 70
0
 43
0.0100000003
 10
1.5055752123
 20
1.4329026769
 10
1.5515752123
 20
1.3789026769
  0
LWPOLYLINE
  5
229
100
AcDbEntity
  8
SST_PHO
100
AcDbPolyline
 62
3
  6
CONTINUOUS
 90
2
 70
0
 43
0.0100000003
 10
1.5055752123
 20
1.6329026769
 10
1.5515752123
 20
1.5789026769
  0
LWPOLYLINE
  5
22A
100
AcDbEntity
  8
SST_PHO
100
AcDbPolyline
 62
3
  6
CONTINUOUS
 90
2
 70
0
 43
0.0100000003
 10
1.6105752123
 20
1.2459026769
 10
1.6215752123
 20
1.2329026769
  0
LWPOLYLINE
  5
22B
100
AcDbEntity
  8
SST_PHO
100
AcDbPolyline
 62
3
  6
CONTINUOUS
 90
2
 70
0
 43
0.0100000003
 10
1.6105752123
 20
1.4459026769
 10
1.6215752123
 20
1.4329026769
  0
LWPOLYLINE
  5
22C
100
AcDbEntity
  8
SST_PHO
100
AcDbPolyline
 62
3
  6
CONTINUOUS
 90
2
 70
0
 43
0.0100000003
 10
1.6565752123
 20
1.5659026769
 10
1.6455752123
 20
1.5789026769
  0
LWPOLYLINE
  5
22D
100
AcDbEntity
  8
SST_PHO
100
AcDbPolyline
 62
3
  6
CONTINUOUS
 90
2
 70
0
 43
0.0100000003
 10
1.5165752123
 20
1.7659026769
 10
1.5055752123
 20
1.7789026769
  0
LWPOLYLINE
  5
22E
100
AcDbEntity
  8
SST_PHO
100
AcDbPolyline
 62
3
  6
CONTINUOUS
 90
2
 70
0
 43
0.0100000003
 10
1.6805752123
 20
1.6459026769
 10
1.6915752123
 20
1.6329026769
  0
LWPOLYLINE
  5
22F
100
AcDbEntity
  8
SST_PHO
100
AcDbPolyline
 62
3
  6
CONTINUOUS
 90
2
 70
0
 43
0.0100000003
 10
1.5865752123
 20
1.7659026769
 10
1.5755752123
 20
1.7789026769
  0
LWPOLYLINE
  5
230
100
AcDbEntity
  8
SST_PHO
100
AcDbPolyline
 62
3
  6
CONTINUOUS
 90
2
 70
0
 43
0.0100000003
 10
1.5405752123
 20
1.8459026769
 10
1.5515752123
 20
1.8329026769
  0
LWPOLYLINE
  5
231
100
AcDbEntity
  8
SST_PHO
100
AcDbPolyline
 62
3
  6
CONTINUOUS
 90
2
 70
0
 43
0.0100000003
 10
1.2477152123
 20
1.0397626769
 10
1.2477152123
 20
3.7799226769
  0
LWPOLYLINE
  5
232
100
AcDbEntity
  8
SST_PHO
100
AcDbPolyline
 62
3
  6
CONTINUOUS
 90
2
 70
0
 43
0.0069999999
 10
1.3185752123
 20
2.6059026769
 10
1.3185752123
 20
2.9059026769
  0
LWPOLYLINE
  5
233
100
AcDbEntity
  8
SST_PHO
100
AcDbPolyline
 62
3
  6
CONTINUOUS
 90
2
 70
0
 43
0.0069999999
 10
1.3185752123
 20
3.2559026769
 10
1.3185752123
 20
3.5559026769
  0
LWPOLYLINE
  5
234
100
AcDbEntity
  8
SST_PHO
100
AcDbPolyline
 62
3
  6
CONTINUOUS
 90
2
 70
0
 43
0.0100000003
 10
1.3235752123
 20
3.3309026769
 10
1.3235752123
 20
3.3209026769
  0
LWPOLYLINE
  5
235
100
AcDbEntity
  8
SST_PHO
100
AcDbPolyline
 62
3
  6
CONTINUOUS
 90
2
 70
0
 43
0.0100000003
 10
1.3235752123
 20
2.8409026769
 10
1.3235752123
 20
2.8309026769
  0
LWPOLYLINE
  5
236
100
AcDbEntity
  8
SST_PHO
100
AcDbPolyline
 62
3
  6
CONTINUOUS
 90
2
 70
0
 43
0.0100000003
 10
1.6455752123
 20
1.8459026769
 10
1.6685752123
 20
1.8189026769
  0
LWPOLYLINE
  5
237
100
AcDbEntity
  8
SST_PHO
100
AcDbPolyline
 62
3
  6
CONTINUOUS
 90
2
 70
0
 43
0.0100000003
 10
1.5055752123
 20
2.0329026769
 10
1.5515752123
 20
1.9789026769
  0
LWPOLYLINE
  5
238
100
AcDbEntity
  8
SST_PHO
100
AcDbPolyline
 62
3
  6
CONTINUOUS
 90
2
 70
0
 43
0.0100000003
 10
1.7155752123
 20
1.8459026769
 10
1.7385752123
 20
1.8189026769
  0
LWPOLYLINE
  5
239
100
AcDbEntity
  8
SST_PHO
100
AcDbPolyline
 62
3
  6
CONTINUOUS
 90
2
 70
0
 43
0.0100000003
 10
1.5055752123
 20
2.2329026769
 10
1.5515752123
 20
2.1789026769
  0
LWPOLYLINE
  5
23A
100
AcDbEntity
  8
SST_PHO
100
AcDbPolyline
 62
3
  6
CONTINUOUS
 90
2
 70
0
 43
0.0100000003
 10
1.5055752123
 20
2.4329026769
 10
1.5515752123
 20
2.3789026769
  0
LWPOLYLINE
  5
23B
100
AcDbEntity
  8
SST_PHO
100
AcDbPolyline
 62
3
  6
CONTINUOUS
 90
2
 70
0
 43
0.0100000003
 10
1.6105752123
 20
1.8459026769
 10
1.6215752123
 20
1.8329026769
  0
LWPOLYLINE
  5
23C
100
AcDbEntity
  8
SST_PHO
100
AcDbPolyline
 62
3
  6
CONTINUOUS
 90
2
 70
0
 43
0.0100000003
 10
1.8205752123
 20
1.6459026769
 10
1.8315752123
 20
1.6329026769
  0
LWPOLYLINE
  5
23D
100
AcDbEntity
  8
SST_PHO
100
AcDbPolyline
 62
3
  6
CONTINUOUS
 90
2
 70
0
 43
0.0100000003
 10
1.6565752123
 20
1.9659026769
 10
1.6455752123
 20
1.9789026769
  0
LWPOLYLINE
  5
23E
100
AcDbEntity
  8
SST_PHO
100
AcDbPolyline
 62
3
  6
CONTINUOUS
 90
2
 70
0
 43
0.0100000003
 10
1.8205752123
 20
1.8459026769
 10
1.8315752123
 20
1.8329026769
  0
LWPOLYLINE
  5
23F
100
AcDbEntity
  8
SST_PHO
100
AcDbPolyline
 62
3
  6
CONTINUOUS
 90
2
 70
0
 43
0.0100000003
 10
1.6805752123
 20
2.0459026769
 10
1.6915752123
 20
2.0329026769
  0
LWPOLYLINE
  5
240
100
AcDbEntity
  8
SST_PHO
100
AcDbPolyline
 62
3
  6
CONTINUOUS
 90
2
 70
0
 43
0.0100000003
 10
1.8205752123
 20
2.0459026769
 10
1.8315752123
 20
2.0329026769
  0
LWPOLYLINE
  5
241
100
AcDbEntity
  8
SST_PHO
100
AcDbPolyline
 62
3
  6
CONTINUOUS
 90
2
 70
0
 43
0.0069999999
 10
1.3685752123
 20
3.6059026769
 10
1.3685752123
 20
3.5559026769
  0
LWPOLYLINE
  5
242
100
AcDbEntity
  8
SST_PHO
100
AcDbPolyline
 62
3
  6
CONTINUOUS
 90
2
 70
0
 43
0.0069999999
 10
1.3685752123
 20
2.9559026769
 10
1.3685752123
 20
2.9059026769
  0
LWPOLYLINE
  5
243
100
AcDbEntity
  8
SST_PHO
100
AcDbPolyline
 62
3
  6
CONTINUOUS
 90
2
 70
0
 43
0.0069999999
 10
1.3685752123
 20
2.5559026769
 10
1.3685752123
 20
2.6059026769
  0
LWPOLYLINE
  5
244
100
AcDbEntity
  8
SST_PHO
100
AcDbPolyline
 62
3
  6
CONTINUOUS
 90
2
 70
0
 43
0.0069999999
 10
1.3685752123
 20
3.2059026769
 10
1.3685752123
 20
3.2559026769
  0
LWPOLYLINE
  5
245
100
AcDbEntity
  8
SST_PHO
100
AcDbPolyline
 62
3
  6
CONTINUOUS
 90
2
 70
0
 43
0.0100000003
 10
1.4135752123
 20
2.8309026769
 10
1.4135752123
 20
2.8409026769
  0
LWPOLYLINE
  5
246
100
AcDbEntity
  8
SST_PHO
100
AcDbPolyline
 62
3
  6
CONTINUOUS
 90
2
 70
0
 43
0.0100000003
 10
1.4135752123
 20
3.3209026769
 10
1.4135752123
 20
3.3309026769
  0
LWPOLYLINE
  5
247
100
AcDbEntity
  8
SST_PHO
100
AcDbPolyline
 62
3
  6
CONTINUOUS
 90
2
 70
0
 43
0.0069999999
 10
1.4185752123
 20
3.7059026769
 10
1.4185752123
 20
3.1059026769
  0
LWPOLYLINE
  5
248
100
AcDbEntity
  8
SST_PHO
100
AcDbPolyline
 62
3
  6
CONTINUOUS
 90
2
 70
0
 43
0.0069999999
 10
1.4185752123
 20
2.9059026769
 10
1.4185752123
 20
2.6059026769
  0
LWPOLYLINE
  5
249
100
AcDbEntity
  8
SST_PHO
100
AcDbPolyline
 62
3
  6
CONTINUOUS
 90
2
 70
0
 43
0.0100000003
 10
1.5055752123
 20
3.0209026769
 10
1.5055752123
 20
2.9409026769
  0
LWPOLYLINE
  5
24A
100
AcDbEntity
  8
SST_PHO
100
AcDbPolyline
 62
3
  6
CONTINUOUS
 90
2
 70
0
 43
0.0100000003
 10
1.5055752123
 20
2.6459026769
 10
1.5055752123
 20
2.5659026769
  0
LWPOLYLINE
  5
24B
100
AcDbEntity
  8
SST_PHO
100
AcDbPolyline
 62
3
  6
CONTINUOUS
 90
2
 70
0
 43
0.0100000003
 10
1.5055752123
 20
2.4459026769
 10
1.5055752123
 20
2.4329026769
  0
LWPOLYLINE
  5
24C
100
AcDbEntity
  8
SST_PHO
100
AcDbPolyline
 62
3
  6
CONTINUOUS
 90
2
 70
0
 43
0.0100000003
 10
1.5055752123
 20
2.2459026769
 10
1.5055752123
 20
2.2329026769
  0
LWPOLYLINE
  5
24D
100
AcDbEntity
  8
SST_PHO
100
AcDbPolyline
 62
3
  6
CONTINUOUS
 90
2
 70
0
 43
0.0100000003
 10
1.5055752123
 20
2.0459026769
 10
1.5055752123
 20
1.9659026769
  0
LWPOLYLINE
  5
24E
100
AcDbEntity
  8
SST_PHO
100
AcDbPolyline
 62
3
  6
CONTINUOUS
 90
2
 70
0
 43
0.0100000003
 10
1.5055752123
 20
1.6459026769
 10
1.5055752123
 20
1.5659026769
  0
LWPOLYLINE
  5
24F
100
AcDbEntity
  8
SST_PHO
100
AcDbPolyline
 62
3
  6
CONTINUOUS
 90
2
 70
0
 43
0.0100000003
 10
1.5055752123
 20
1.4459026769
 10
1.5055752123
 20
1.4329026769
  0
LWPOLYLINE
  5
250
100
AcDbEntity
  8
SST_PHO
100
AcDbPolyline
 62
3
  6
CONTINUOUS
 90
2
 70
0
 43
0.0100000003
 10
1.5055752123
 20
1.2459026769
 10
1.5055752123
 20
1.2329026769
  0
LWPOLYLINE
  5
251
100
AcDbEntity
  8
SST_PHO
100
AcDbPolyline
 62
3
  6
CONTINUOUS
 90
2
 70
0
 43
0.0100000003
 10
1.5055752123
 20
1.1659026769
 10
1.5055752123
 20
1.1789026769
  0
LWPOLYLINE
  5
252
100
AcDbEntity
  8
SST_PHO
100
AcDbPolyline
 62
3
  6
CONTINUOUS
 90
2
 70
0
 43
0.0100000003
 10
1.5055752123
 20
1.3659026769
 10
1.5055752123
 20
1.3789026769
  0
LWPOLYLINE
  5
253
100
AcDbEntity
  8
SST_PHO
100
AcDbPolyline
 62
3
  6
CONTINUOUS
 90
2
 70
0
 43
0.0100000003
 10
1.5055752123
 20
1.7789026769
 10
1.5055752123
 20
1.8329026769
  0
LWPOLYLINE
  5
254
100
AcDbEntity
  8
SST_PHO
100
AcDbPolyline
 62
3
  6
CONTINUOUS
 90
2
 70
0
 43
0.0100000003
 10
1.5055752123
 20
2.1659026769
 10
1.5055752123
 20
2.1789026769
  0
LWPOLYLINE
  5
255
100
AcDbEntity
  8
SST_PHO
100
AcDbPolyline
 62
3
  6
CONTINUOUS
 90
2
 70
0
 43
0.0100000003
 10
1.5055752123
 20
2.3659026769
 10
1.5055752123
 20
2.3789026769
  0
LWPOLYLINE
  5
256
100
AcDbEntity
  8
SST_PHO
100
AcDbPolyline
 62
3
  6
CONTINUOUS
 90
2
 70
0
 43
0.0100000003
 10
1.5055752123
 20
2.7539026769
 10
1.5055752123
 20
2.8079026769
  0
LWPOLYLINE
  5
257
100
AcDbEntity
  8
SST_PHO
100
AcDbPolyline
 62
3
  6
CONTINUOUS
 90
2
 70
0
 43
0.0100000003
 10
1.5515752123
 20
3.0209026769
 10
1.5515752123
 20
2.9409026769
  0
LWPOLYLINE
  5
258
100
AcDbEntity
  8
SST_PHO
100
AcDbPolyline
 62
3
  6
CONTINUOUS
 90
2
 70
0
 43
0.0100000003
 10
1.5515752123
 20
2.6459026769
 10
1.5515752123
 20
2.5659026769
  0
LWPOLYLINE
  5
259
100
AcDbEntity
  8
SST_PHO
100
AcDbPolyline
 62
3
  6
CONTINUOUS
 90
2
 70
0
 43
0.0100000003
 10
1.5515752123
 20
2.3789026769
 10
1.5515752123
 20
2.3659026769
  0
LWPOLYLINE
  5
25A
100
AcDbEntity
  8
SST_PHO
100
AcDbPolyline
 62
3
  6
CONTINUOUS
 90
2
 70
0
 43
0.0100000003
 10
1.5515752123
 20
2.1789026769
 10
1.5515752123
 20
2.1659026769
  0
LWPOLYLINE
  5
25B
100
AcDbEntity
  8
SST_PHO
100
AcDbPolyline
 62
3
  6
CONTINUOUS
 90
2
 70
0
 43
0.0100000003
 10
1.5515752123
 20
2.0459026769
 10
1.5515752123
 20
1.9659026769
  0
LWPOLYLINE
  5
25C
100
AcDbEntity
  8
SST_PHO
100
AcDbPolyline
 62
3
  6
CONTINUOUS
 90
2
 70
0
 43
0.0100000003
 10
1.5515752123
 20
1.6459026769
 10
1.5515752123
 20
1.5659026769
  0
LWPOLYLINE
  5
25D
100
AcDbEntity
  8
SST_PHO
100
AcDbPolyline
 62
3
  6
CONTINUOUS
 90
2
 70
0
 43
0.0100000003
 10
1.5515752123
 20
1.3789026769
 10
1.5515752123
 20
1.3659026769
  0
LWPOLYLINE
  5
25E
100
AcDbEntity
  8
SST_PHO
100
AcDbPolyline
 62
3
  6
CONTINUOUS
 90
2
 70
0
 43
0.0100000003
 10
1.5515752123
 20
1.1789026769
 10
1.5515752123
 20
1.1659026769
  0
LWPOLYLINE
  5
25F
100
AcDbEntity
  8
SST_PHO
100
AcDbPolyline
 62
3
  6
CONTINUOUS
 90
2
 70
0
 43
0.0100000003
 10
1.5515752123
 20
1.2329026769
 10
1.5515752123
 20
1.2459026769
  0
LWPOLYLINE
  5
260
100
AcDbEntity
  8
SST_PHO
100
AcDbPolyline
 62
3
  6
CONTINUOUS
 90
2
 70
0
 43
0.0100000003
 10
1.5515752123
 20
1.4329026769
 10
1.5515752123
 20
1.4459026769
  0
LWPOLYLINE
  5
261
100
AcDbEntity
  8
SST_PHO
100
AcDbPolyline
 62
3
  6
CONTINUOUS
 90
2
 70
0
 43
0.0100000003
 10
1.5515752123
 20
2.2329026769
 10
1.5515752123
 20
2.2459026769
  0
LWPOLYLINE
  5
262
100
AcDbEntity
  8
SST_PHO
100
AcDbPolyline
 62
3
  6
CONTINUOUS
 90
2
 70
0
 43
0.0100000003
 10
1.5515752123
 20
2.4329026769
 10
1.5515752123
 20
2.4459026769
  0
LWPOLYLINE
  5
263
100
AcDbEntity
  8
SST_PHO
100
AcDbPolyline
 62
3
  6
CONTINUOUS
 90
2
 70
0
 43
0.0100000003
 10
1.5755752123
 20
2.9539026769
 10
1.5755752123
 20
2.9409026769
  0
LWPOLYLINE
  5
264
100
AcDbEntity
  8
SST_PHO
100
AcDbPolyline
 62
3
  6
CONTINUOUS
 90
2
 70
0
 43
0.0100000003
 10
1.5755752123
 20
2.5789026769
 10
1.5755752123
 20
2.5659026769
  0
LWPOLYLINE
  5
265
100
AcDbEntity
  8
SST_PHO
100
AcDbPolyline
 62
3
  6
CONTINUOUS
 90
2
 70
0
 43
0.0100000003
 10
1.5755752123
 20
1.9789026769
 10
1.5755752123
 20
1.9659026769
  0
LWPOLYLINE
  5
266
100
AcDbEntity
  8
SST_PHO
100
AcDbPolyline
 62
3
  6
CONTINUOUS
 90
2
 70
0
 43
0.0100000003
 10
1.5755752123
 20
1.5789026769
 10
1.5755752123
 20
1.5659026769
  0
LWPOLYLINE
  5
267
100
AcDbEntity
  8
SST_PHO
100
AcDbPolyline
 62
3
  6
CONTINUOUS
 90
2
 70
0
 43
0.0100000003
 10
1.5755752123
 20
1.7789026769
 10
1.5755752123
 20
1.8329026769
  0
LWPOLYLINE
  5
268
100
AcDbEntity
  8
SST_PHO
100
AcDbPolyline
 62
3
  6
CONTINUOUS
 90
2
 70
0
 43
0.0100000003
 10
1.5755752123
 20
2.7539026769
 10
1.5755752123
 20
2.8079026769
  0
LWPOLYLINE
  5
269
100
AcDbEntity
  8
SST_PHO
100
AcDbPolyline
 62
3
  6
CONTINUOUS
 90
2
 70
0
 43
0.0100000003
 10
1.5985752123
 20
2.4459026769
 10
1.5985752123
 20
2.3659026769
  0
LWPOLYLINE
  5
26A
100
AcDbEntity
  8
SST_PHO
100
AcDbPolyline
 62
3
  6
CONTINUOUS
 90
2
 70
0
 43
0.0100000003
 10
1.5985752123
 20
2.2459026769
 10
1.5985752123
 20
2.1659026769
  0
LWPOLYLINE
  5
26B
100
AcDbEntity
  8
SST_PHO
100
AcDbPolyline
 62
3
  6
CONTINUOUS
 90
2
 70
0
 43
0.0100000003
 10
1.6215752123
 20
3.0209026769
 10
1.6215752123
 20
3.0079026769
  0
LWPOLYLINE
  5
26C
100
AcDbEntity
  8
SST_PHO
100
AcDbPolyline
 62
3
  6
CONTINUOUS
 90
2
 70
0
 43
0.0100000003
 10
1.6215752123
 20
2.8079026769
 10
1.6215752123
 20
2.7539026769
  0
LWPOLYLINE
  5
26D
100
AcDbEntity
  8
SST_PHO
100
AcDbPolyline
 62
3
  6
CONTINUOUS
 90
2
 70
0
 43
0.0100000003
 10
1.6215752123
 20
2.6459026769
 10
1.6215752123
 20
2.6329026769
  0
LWPOLYLINE
  5
26E
100
AcDbEntity
  8
SST_PHO
100
AcDbPolyline
 62
3
  6
CONTINUOUS
 90
2
 70
0
 43
0.0100000003
 10
1.6215752123
 20
2.0459026769
 10
1.6215752123
 20
2.0329026769
  0
LWPOLYLINE
  5
26F
100
AcDbEntity
  8
SST_PHO
100
AcDbPolyline
 62
3
  6
CONTINUOUS
 90
2
 70
0
 43
0.0100000003
 10
1.6215752123
 20
1.8329026769
 10
1.6215752123
 20
1.7789026769
  0
LWPOLYLINE
  5
270
100
AcDbEntity
  8
SST_PHO
100
AcDbPolyline
 62
3
  6
CONTINUOUS
 90
2
 70
0
 43
0.0100000003
 10
1.6215752123
 20
1.6459026769
 10
1.6215752123
 20
1.6329026769
  0
LWPOLYLINE
  5
271
100
AcDbEntity
  8
SST_PHO
100
AcDbPolyline
 62
3
  6
CONTINUOUS
 90
2
 70
0
 43
0.0100000003
 10
1.6215752123
 20
1.4329026769
 10
1.6215752123
 20
1.4189026769
  0
LWPOLYLINE
  5
272
100
AcDbEntity
  8
SST_PHO
100
AcDbPolyline
 62
3
  6
CONTINUOUS
 90
2
 70
0
 43
0.0100000003
 10
1.6215752123
 20
1.2329026769
 10
1.6215752123
 20
1.2189026769
  0
LWPOLYLINE
  5
273
100
AcDbEntity
  8
SST_PHO
100
AcDbPolyline
 62
3
  6
CONTINUOUS
 90
2
 70
0
 43
0.0100000003
 10
1.6455752123
 20
1.5789026769
 10
1.6455752123
 20
1.6329026769
  0
LWPOLYLINE
  5
274
100
AcDbEntity
  8
SST_PHO
100
AcDbPolyline
 62
3
  6
CONTINUOUS
 90
2
 70
0
 43
0.0100000003
 10
1.6455752123
 20
1.7659026769
 10
1.6455752123
 20
1.8459026769
  0
LWPOLYLINE
  5
275
100
AcDbEntity
  8
SST_PHO
100
AcDbPolyline
 62
3
  6
CONTINUOUS
 90
2
 70
0
 43
0.0100000003
 10
1.6455752123
 20
1.9789026769
 10
1.6455752123
 20
2.0329026769
  0
LWPOLYLINE
  5
276
100
AcDbEntity
  8
SST_PHO
100
AcDbPolyline
 62
3
  6
CONTINUOUS
 90
2
 70
0
 43
0.0100000003
 10
1.6455752123
 20
2.5789026769
 10
1.6455752123
 20
2.6329026769
  0
LWPOLYLINE
  5
277
100
AcDbEntity
  8
SST_PHO
100
AcDbPolyline
 62
3
  6
CONTINUOUS
 90
2
 70
0
 43
0.0100000003
 10
1.6455752123
 20
2.7409026769
 10
1.6455752123
 20
2.8209026769
  0
LWPOLYLINE
  5
278
100
AcDbEntity
  8
SST_PHO
100
AcDbPolyline
 62
3
  6
CONTINUOUS
 90
2
 70
0
 43
0.0100000003
 10
1.6455752123
 20
2.9539026769
 10
1.6455752123
 20
3.0079026769
  0
LWPOLYLINE
  5
279
100
AcDbEntity
  8
SST_PHO
100
AcDbPolyline
 62
3
  6
CONTINUOUS
 90
2
 70
0
 43
0.0100000003
 10
1.6685752123
 20
1.1789026769
 10
1.6685752123
 20
1.2329026769
  0
LWPOLYLINE
  5
27A
100
AcDbEntity
  8
SST_PHO
100
AcDbPolyline
 62
3
  6
CONTINUOUS
 90
2
 70
0
 43
0.0100000003
 10
1.6685752123
 20
2.1789026769
 10
1.6685752123
 20
2.2329026769
  0
LWPOLYLINE
  5
27B
100
AcDbEntity
  8
SST_PHO
100
AcDbPolyline
 62
3
  6
CONTINUOUS
 90
2
 70
0
 43
0.0100000003
 10
1.6915752123
 20
3.0079026769
 10
1.6915752123
 20
2.9539026769
  0
LWPOLYLINE
  5
27C
100
AcDbEntity
  8
SST_PHO
100
AcDbPolyline
 62
3
  6
CONTINUOUS
 90
2
 70
0
 43
0.0100000003
 10
1.6915752123
 20
2.8209026769
 10
1.6915752123
 20
2.7409026769
  0
LWPOLYLINE
  5
27D
100
AcDbEntity
  8
SST_PHO
100
AcDbPolyline
 62
3
  6
CONTINUOUS
 90
2
 70
0
 43
0.0100000003
 10
1.6915752123
 20
2.0329026769
 10
1.6915752123
 20
1.9789026769
  0
LWPOLYLINE
  5
27E
100
AcDbEntity
  8
SST_PHO
100
AcDbPolyline
 62
3
  6
CONTINUOUS
 90
2
 70
0
 43
0.0100000003
 10
1.6915752123
 20
1.8459026769
 10
1.6915752123
 20
1.7659026769
  0
LWPOLYLINE
  5
27F
100
AcDbEntity
  8
SST_PHO
100
AcDbPolyline
 62
3
  6
CONTINUOUS
 90
2
 70
0
 43
0.0100000003
 10
1.5055752123
 20
2.6329026769
 10
1.5515752123
 20
2.5789026769
  0
LWPOLYLINE
  5
280
100
AcDbEntity
  8
SST_PHO
100
AcDbPolyline
 62
3
  6
CONTINUOUS
 90
2
 70
0
 43
0.0100000003
 10
1.6455752123
 20
2.8209026769
 10
1.6685752123
 20
2.7939026769
  0
LWPOLYLINE
  5
281
100
AcDbEntity
  8
SST_PHO
100
AcDbPolyline
 62
3
  6
CONTINUOUS
 90
2
 70
0
 43
0.0100000003
 10
1.5055752123
 20
3.0079026769
 10
1.5515752123
 20
2.9539026769
  0
LWPOLYLINE
  5
282
100
AcDbEntity
  8
SST_PHO
100
AcDbPolyline
 62
3
  6
CONTINUOUS
 90
2
 70
0
 43
0.0100000003
 10
1.7155752123
 20
2.8209026769
 10
1.7385752123
 20
2.7939026769
  0
LWPOLYLINE
  5
283
100
AcDbEntity
  8
SST_PHO
100
AcDbPolyline
 62
3
  6
CONTINUOUS
 90
2
 70
0
 43
0.0100000003
 10
1.6565752123
 20
2.5659026769
 10
1.6455752123
 20
2.5789026769
  0
LWPOLYLINE
  5
284
100
AcDbEntity
  8
SST_PHO
100
AcDbPolyline
 62
3
  6
CONTINUOUS
 90
2
 70
0
 43
0.0100000003
 10
1.5165752123
 20
2.7409026769
 10
1.5055752123
 20
2.7539026769
  0
LWPOLYLINE
  5
285
100
AcDbEntity
  8
SST_PHO
100
AcDbPolyline
 62
3
  6
CONTINUOUS
 90
2
 70
0
 43
0.0100000003
 10
1.5865752123
 20
2.7409026769
 10
1.5755752123
 20
2.7539026769
  0
LWPOLYLINE
  5
286
100
AcDbEntity
  8
SST_PHO
100
AcDbPolyline
 62
3
  6
CONTINUOUS
 90
2
 70
0
 43
0.0100000003
 10
1.6805752123
 20
2.6459026769
 10
1.6915752123
 20
2.6329026769
  0
LWPOLYLINE
  5
287
100
AcDbEntity
  8
SST_PHO
100
AcDbPolyline
 62
3
  6
CONTINUOUS
 90
2
 70
0
 43
0.0100000003
 10
1.5405752123
 20
2.8209026769
 10
1.5515752123
 20
2.8079026769
  0
LWPOLYLINE
  5
288
100
AcDbEntity
  8
SST_PHO
100
AcDbPolyline
 62
3
  6
CONTINUOUS
 90
2
 70
0
 43
0.0100000003
 10
1.6105752123
 20
2.8209026769
 10
1.6215752123
 20
2.8079026769
  0
LWPOLYLINE
  5
289
100
AcDbEntity
  8
SST_PHO
100
AcDbPolyline
 62
3
  6
CONTINUOUS
 90
2
 70
0
 43
0.0100000003
 10
1.7155752123
 20
1.7659026769
 10
1.7155752123
 20
1.8459026769
  0
LWPOLYLINE
  5
28A
100
AcDbEntity
  8
SST_PHO
100
AcDbPolyline
 62
3
  6
CONTINUOUS
 90
2
 70
0
 43
0.0100000003
 10
1.7155752123
 20
2.7409026769
 10
1.7155752123
 20
2.8209026769
  0
LWPOLYLINE
  5
28B
100
AcDbEntity
  8
SST_PHO
100
AcDbPolyline
 62
3
  6
CONTINUOUS
 90
2
 70
0
 43
0.0100000003
 10
1.7615752123
 20
2.8209026769
 10
1.7615752123
 20
2.7409026769
  0
LWPOLYLINE
  5
28C
100
AcDbEntity
  8
SST_PHO
100
AcDbPolyline
 62
3
  6
CONTINUOUS
 90
2
 70
0
 43
0.0100000003
 10
1.7615752123
 20
1.8459026769
 10
1.7615752123
 20
1.7659026769
  0
LWPOLYLINE
  5
28D
100
AcDbEntity
  8
SST_PHO
100
AcDbPolyline
 62
3
  6
CONTINUOUS
 90
2
 70
0
 43
0.0100000003
 10
1.8085752123
 20
3.0209026769
 10
1.8085752123
 20
2.9409026769
  0
LWPOLYLINE
  5
28E
100
AcDbEntity
  8
SST_PHO
100
AcDbPolyline
 62
3
  6
CONTINUOUS
 90
2
 70
0
 43
0.0100000003
 10
1.8085752123
 20
2.8209026769
 10
1.8085752123
 20
2.7409026769
  0
LWPOLYLINE
  5
28F
100
AcDbEntity
  8
SST_PHO
100
AcDbPolyline
 62
3
  6
CONTINUOUS
 90
2
 70
0
 43
0.0100000003
 10
1.8085752123
 20
2.6459026769
 10
1.8085752123
 20
2.5659026769
  0
LWPOLYLINE
  5
290
100
AcDbEntity
  8
SST_PHO
100
AcDbPolyline
 62
3
  6
CONTINUOUS
 90
2
 70
0
 43
0.0069999999
 10
1.8185752123
 20
3.1059026769
 10
1.8185752123
 20
3.7059026769
  0
LWPOLYLINE
  5
291
100
AcDbEntity
  8
SST_PHO
100
AcDbPolyline
 62
3
  6
CONTINUOUS
 90
2
 70
0
 43
0.0100000003
 10
1.8315752123
 20
2.0329026769
 10
1.8315752123
 20
2.0189026769
  0
LWPOLYLINE
  5
292
100
AcDbEntity
  8
SST_PHO
100
AcDbPolyline
 62
3
  6
CONTINUOUS
 90
2
 70
0
 43
0.0100000003
 10
1.8315752123
 20
1.8329026769
 10
1.8315752123
 20
1.8189026769
  0
LWPOLYLINE
  5
293
100
AcDbEntity
  8
SST_PHO
100
AcDbPolyline
 62
3
  6
CONTINUOUS
 90
2
 70
0
 43
0.0100000003
 10
1.8315752123
 20
1.6329026769
 10
1.8315752123
 20
1.6189026769
  0
LWPOLYLINE
  5
294
100
AcDbEntity
  8
SST_PHO
100
AcDbPolyline
 62
3
  6
CONTINUOUS
 90
2
 70
0
 43
0.0069999999
 10
1.8935752123
 20
2.6059026769
 10
1.8935752123
 20
2.9059026769
  0
LWPOLYLINE
  5
295
100
AcDbEntity
  8
SST_PHO
100
AcDbPolyline
 62
3
  6
CONTINUOUS
 90
2
 70
0
 43
0.0069999999
 10
1.8935752123
 20
3.2559026769
 10
1.8935752123
 20
3.5559026769
  0
LWPOLYLINE
  5
296
100
AcDbEntity
  8
SST_PHO
100
AcDbPolyline
 62
3
  6
CONTINUOUS
 90
2
 70
0
 43
0.0100000003
 10
1.8985752123
 20
3.3309026769
 10
1.8985752123
 20
3.3209026769
  0
LWPOLYLINE
  5
297
100
AcDbEntity
  8
SST_PHO
100
AcDbPolyline
 62
3
  6
CONTINUOUS
 90
2
 70
0
 43
0.0100000003
 10
1.8985752123
 20
2.8409026769
 10
1.8985752123
 20
2.8309026769
  0
LWPOLYLINE
  5
298
100
AcDbEntity
  8
SST_PHO
100
AcDbPolyline
 62
3
  6
CONTINUOUS
 90
2
 70
0
 43
0.0069999999
 10
1.9435752123
 20
3.6059026769
 10
1.9435752123
 20
3.5559026769
  0
LWPOLYLINE
  5
299
100
AcDbEntity
  8
SST_PHO
100
AcDbPolyline
 62
3
  6
CONTINUOUS
 90
2
 70
0
 43
0.0069999999
 10
1.9435752123
 20
2.9559026769
 10
1.9435752123
 20
2.9059026769
  0
LWPOLYLINE
  5
29A
100
AcDbEntity
  8
SST_PHO
100
AcDbPolyline
 62
3
  6
CONTINUOUS
 90
2
 70
0
 43
0.0069999999
 10
1.9435752123
 20
2.5559026769
 10
1.9435752123
 20
2.6059026769
  0
LWPOLYLINE
  5
29B
100
AcDbEntity
  8
SST_PHO
100
AcDbPolyline
 62
3
  6
CONTINUOUS
 90
2
 70
0
 43
0.0069999999
 10
1.9435752123
 20
3.2059026769
 10
1.9435752123
 20
3.2559026769
  0
LWPOLYLINE
  5
29C
100
AcDbEntity
  8
SST_PHO
100
AcDbPolyline
 62
3
  6
CONTINUOUS
 90
2
 70
0
 43
0.0069999999
 10
1.9585752123
 20
2.1059026769
 10
1.9585752123
 20
1.1059026769
  0
LWPOLYLINE
  5
29D
100
AcDbEntity
  8
SST_PHO
100
AcDbPolyline
 62
3
  6
CONTINUOUS
 90
2
 70
0
 43
0.0100000003
 10
1.9885752123
 20
2.8309026769
 10
1.9885752123
 20
2.8409026769
  0
LWPOLYLINE
  5
29E
100
AcDbEntity
  8
SST_PHO
100
AcDbPolyline
 62
3
  6
CONTINUOUS
 90
2
 70
0
 43
0.0100000003
 10
1.9885752123
 20
3.3209026769
 10
1.9885752123
 20
3.3309026769
  0
LWPOLYLINE
  5
29F
100
AcDbEntity
  8
SST_PHO
100
AcDbPolyline
 62
3
  6
CONTINUOUS
 90
2
 70
0
 43
0.0069999999
 10
1.9935752123
 20
3.7059026769
 10
1.9935752123
 20
3.1059026769
  0
LWPOLYLINE
  5
2A0
100
AcDbEntity
  8
SST_PHO
100
AcDbPolyline
 62
3
  6
CONTINUOUS
 90
2
 70
0
 43
0.0069999999
 10
1.9935752123
 20
2.9059026769
 10
1.9935752123
 20
2.6059026769
  0
LWPOLYLINE
  5
2A1
100
AcDbEntity
  8
SST_PHO
100
AcDbPolyline
 62
3
  6
CONTINUOUS
 90
2
 70
0
 43
0.0069999999
 10
2.0085752123
 20
3.1059026769
 10
2.0085752123
 20
2.1059026769
  0
LWPOLYLINE
  5
2A2
100
AcDbEntity
  8
SST_PHO
100
AcDbPolyline
 62
3
  6
CONTINUOUS
 90
2
 70
0
 43
0.0069999999
 10
2.0385752123
 20
2.1059026769
 10
2.0385752123
 20
1.1059026769
  0
LWPOLYLINE
  5
2A3
100
AcDbEntity
  8
SST_PHO
100
AcDbPolyline
 62
3
  6
CONTINUOUS
 90
2
 70
0
 43
0.0069999999
 10
2.0885752123
 20
3.1059026769
 10
2.0885752123
 20
2.1059026769
  0
LWPOLYLINE
  5
2A4
100
AcDbEntity
  8
SST_PHO
100
AcDbPolyline
 62
3
  6
CONTINUOUS
 90
2
 70
0
 43
0.0100000003
 10
1.6565752123
 20
2.9409026769
 10
1.6455752123
 20
2.9539026769
  0
LWPOLYLINE
  5
2A5
100
AcDbEntity
  8
SST_PHO
100
AcDbPolyline
 62
3
  6
CONTINUOUS
 90
2
 70
0
 43
0.0100000003
 10
1.6805752123
 20
3.0209026769
 10
1.6915752123
 20
3.0079026769
  0
LWPOLYLINE
  5
2A6
100
AcDbEntity
  8
SST_PHO
100
AcDbPolyline
 62
3
  6
CONTINUOUS
 90
2
 70
0
 43
0.0069999999
 10
2.1985752123
 20
1.1059026769
 10
2.1985752123
 20
2.1059026769
  0
LWPOLYLINE
  5
2A7
100
AcDbEntity
  8
SST_PHO
100
AcDbPolyline
 62
3
  6
CONTINUOUS
 90
2
 70
0
 43
0.0069999999
 10
2.2485752123
 20
2.1059026769
 10
2.2485752123
 20
3.1059026769
  0
LWPOLYLINE
  5
2A8
100
AcDbEntity
  8
SST_PHO
100
AcDbPolyline
 62
3
  6
CONTINUOUS
 90
2
 70
0
 43
0.0069999999
 10
2.3785752123
 20
1.1059026769
 10
2.3785752123
 20
2.1059026769
  0
LWPOLYLINE
  5
2A9
100
AcDbEntity
  8
SST_PHO
100
AcDbPolyline
 62
3
  6
CONTINUOUS
 90
2
 70
0
 43
0.0069999999
 10
2.3935752123
 20
3.1059026769
 10
2.3935752123
 20
3.7059026769
  0
LWPOLYLINE
  5
2AA
100
AcDbEntity
  8
SST_PHO
100
AcDbPolyline
 62
3
  6
CONTINUOUS
 90
2
 70
0
 43
0.0069999999
 10
2.4285752123
 20
2.1059026769
 10
2.4285752123
 20
3.1059026769
  0
LWPOLYLINE
  5
2AB
100
AcDbEntity
  8
SST_PHO
100
AcDbPolyline
 62
3
  6
CONTINUOUS
 90
2
 70
0
 43
0.0100000003
 10
2.4878652123
 20
1.0397626769
 10
1.2477152123
 20
1.0397626769
  0
LWPOLYLINE
  5
2AC
100
AcDbEntity
  8
SST_PHO
100
AcDbPolyline
 62
3
  6
CONTINUOUS
 90
2
 70
0
 43
0.0050000001
 10
1.9585752123
 20
1.1059026769
 10
1.4685752123
 20
1.1059026769
  0
LWPOLYLINE
  5
2AD
100
AcDbEntity
  8
SST_PHO
100
AcDbPolyline
 62
3
  6
CONTINUOUS
 90
2
 70
0
 43
0.0069999999
 10
1.9585752123
 20
1.1059026769
 10
2.3785752123
 20
1.1059026769
  0
LWPOLYLINE
  5
2AE
100
AcDbEntity
  8
SST_PHO
100
AcDbPolyline
 62
3
  6
CONTINUOUS
 90
2
 70
0
 43
0.0100000003
 10
1.5755752123
 20
1.1659026769
 10
1.6215752123
 20
1.1659026769
  0
LWPOLYLINE
  5
2AF
100
AcDbEntity
  8
SST_PHO
100
AcDbPolyline
 62
3
  6
CONTINUOUS
 90
2
 70
0
 43
0.0100000003
 10
1.6455752123
 20
1.2059026769
 10
1.6915752123
 20
1.2059026769
  0
LWPOLYLINE
  5
2B0
100
AcDbEntity
  8
SST_PHO
100
AcDbPolyline
 62
3
  6
CONTINUOUS
 90
2
 70
0
 43
0.0100000003
 10
2.4878652123
 20
3.7799226769
 10
2.4878652123
 20
1.0397626769
  0
LWPOLYLINE
  5
2B1
100
AcDbEntity
  8
SST_PHO
100
AcDbPolyline
 62
3
  6
CONTINUOUS
 90
2
 70
0
 43
0.0100000003
 10
1.5865752123
 20
1.2459026769
 10
1.6105752123
 20
1.2459026769
  0
LWPOLYLINE
  5
2B2
100
AcDbEntity
  8
SST_PHO
100
AcDbPolyline
 62
3
  6
CONTINUOUS
 90
2
 70
0
 43
0.0050000001
 10
1.9685752123
 20
1.3059026769
 10
1.4685752123
 20
1.3059026769
  0
LWPOLYLINE
  5
2B3
100
AcDbEntity
  8
SST_PHO
100
AcDbPolyline
 62
3
  6
CONTINUOUS
 90
2
 70
0
 43
0.0100000003
 10
1.5755752123
 20
1.3659026769
 10
1.6215752123
 20
1.3659026769
  0
LWPOLYLINE
  5
2B4
100
AcDbEntity
  8
SST_PHO
100
AcDbPolyline
 62
3
  6
CONTINUOUS
 90
2
 70
0
 43
0.0100000003
 10
1.6455752123
 20
1.4059026769
 10
1.6915752123
 20
1.4059026769
  0
LWPOLYLINE
  5
2B5
100
AcDbEntity
  8
SST_PHO
100
AcDbPolyline
 62
3
  6
CONTINUOUS
 90
2
 70
0
 43
0.0100000003
 10
1.5865752123
 20
1.4459026769
 10
1.6105752123
 20
1.4459026769
  0
LWPOLYLINE
  5
2B6
100
AcDbEntity
  8
SST_PHO
100
AcDbPolyline
 62
3
  6
CONTINUOUS
 90
2
 70
0
 43
0.0050000001
 10
1.9685752123
 20
1.5059026769
 10
1.4685752123
 20
1.5059026769
  0
LWPOLYLINE
  5
2B7
100
AcDbEntity
  8
SST_PHO
100
AcDbPolyline
 62
3
  6
CONTINUOUS
 90
2
 70
0
 43
0.0100000003
 10
1.6805752123
 20
1.5659026769
 10
1.6565752123
 20
1.5659026769
  0
LWPOLYLINE
  5
2B8
100
AcDbEntity
  8
SST_PHO
100
AcDbPolyline
 62
3
  6
CONTINUOUS
 90
2
 70
0
 43
0.0100000003
 10
1.7855752123
 20
1.5659026769
 10
1.8315752123
 20
1.5659026769
  0
LWPOLYLINE
  5
2B9
100
AcDbEntity
  8
SST_PHO
100
AcDbPolyline
 62
3
  6
CONTINUOUS
 90
2
 70
0
 43
0.0100000003
 10
1.6565752123
 20
1.6459026769
 10
1.6805752123
 20
1.6459026769
  0
LWPOLYLINE
  5
2BA
100
AcDbEntity
  8
SST_PHO
100
AcDbPolyline
 62
3
  6
CONTINUOUS
 90
2
 70
0
 43
0.0100000003
 10
1.7965752123
 20
1.6459026769
 10
1.8205752123
 20
1.6459026769
  0
LWPOLYLINE
  5
2BB
100
AcDbEntity
  8
SST_PHO
100
AcDbPolyline
 62
3
  6
CONTINUOUS
 90
2
 70
0
 43
0.0050000001
 10
1.9685752123
 20
1.7059026769
 10
1.4685752123
 20
1.7059026769
  0
LWPOLYLINE
  5
2BC
100
AcDbEntity
  8
SST_PHO
100
AcDbPolyline
 62
3
  6
CONTINUOUS
 90
2
 70
0
 43
0.0100000003
 10
1.6105752123
 20
1.7659026769
 10
1.5865752123
 20
1.7659026769
  0
LWPOLYLINE
  5
2BD
100
AcDbEntity
  8
SST_PHO
100
AcDbPolyline
 62
3
  6
CONTINUOUS
 90
2
 70
0
 43
0.0100000003
 10
1.5405752123
 20
1.7659026769
 10
1.5165752123
 20
1.7659026769
  0
LWPOLYLINE
  5
2BE
100
AcDbEntity
  8
SST_PHO
100
AcDbPolyline
 62
3
  6
CONTINUOUS
 90
2
 70
0
 43
0.0100000003
 10
1.7855752123
 20
1.7659026769
 10
1.8315752123
 20
1.7659026769
  0
LWPOLYLINE
  5
2BF
100
AcDbEntity
  8
SST_PHO
100
AcDbPolyline
 62
3
  6
CONTINUOUS
 90
2
 70
0
 43
0.0100000003
 10
1.5165752123
 20
1.8459026769
 10
1.5405752123
 20
1.8459026769
  0
LWPOLYLINE
  5
2C0
100
AcDbEntity
  8
SST_PHO
100
AcDbPolyline
 62
3
  6
CONTINUOUS
 90
2
 70
0
 43
0.0100000003
 10
1.5865752123
 20
1.8459026769
 10
1.6105752123
 20
1.8459026769
  0
LWPOLYLINE
  5
2C1
100
AcDbEntity
  8
SST_PHO
100
AcDbPolyline
 62
3
  6
CONTINUOUS
 90
2
 70
0
 43
0.0100000003
 10
1.7965752123
 20
1.8459026769
 10
1.8205752123
 20
1.8459026769
  0
LWPOLYLINE
  5
2C2
100
AcDbEntity
  8
SST_PHO
100
AcDbPolyline
 62
3
  6
CONTINUOUS
 90
2
 70
0
 43
0.0050000001
 10
1.9685752123
 20
1.9059026769
 10
1.4685752123
 20
1.9059026769
  0
LWPOLYLINE
  5
2C3
100
AcDbEntity
  8
SST_PHO
100
AcDbPolyline
 62
3
  6
CONTINUOUS
 90
2
 70
0
 43
0.0100000003
 10
1.6805752123
 20
1.9659026769
 10
1.6565752123
 20
1.9659026769
  0
LWPOLYLINE
  5
2C4
100
AcDbEntity
  8
SST_PHO
100
AcDbPolyline
 62
3
  6
CONTINUOUS
 90
2
 70
0
 43
0.0100000003
 10
1.7855752123
 20
1.9659026769
 10
1.8315752123
 20
1.9659026769
  0
LWPOLYLINE
  5
2C5
100
AcDbEntity
  8
SST_PHO
100
AcDbPolyline
 62
3
  6
CONTINUOUS
 90
2
 70
0
 43
0.0100000003
 10
1.6455752123
 20
3.0079026769
 10
1.6565752123
 20
3.0209026769
  0
LWPOLYLINE
  5
2C6
100
AcDbEntity
  8
SST_PHO
100
AcDbPolyline
 62
3
  6
CONTINUOUS
 90
2
 70
0
 43
0.0100000003
 10
1.5055752123
 20
2.8079026769
 10
1.5165752123
 20
2.8209026769
  0
LWPOLYLINE
  5
2C7
100
AcDbEntity
  8
SST_PHO
100
AcDbPolyline
 62
3
  6
CONTINUOUS
 90
2
 70
0
 43
0.0100000003
 10
1.6915752123
 20
2.9539026769
 10
1.6805752123
 20
2.9409026769
  0
LWPOLYLINE
  5
2C8
100
AcDbEntity
  8
SST_PHO
100
AcDbPolyline
 62
3
  6
CONTINUOUS
 90
2
 70
0
 43
0.0100000003
 10
1.5755752123
 20
2.8079026769
 10
1.5865752123
 20
2.8209026769
  0
LWPOLYLINE
  5
2C9
100
AcDbEntity
  8
SST_PHO
100
AcDbPolyline
 62
3
  6
CONTINUOUS
 90
2
 70
0
 43
0.0100000003
 10
1.5515752123
 20
2.7539026769
 10
1.5405752123
 20
2.7409026769
  0
LWPOLYLINE
  5
2CA
100
AcDbEntity
  8
SST_PHO
100
AcDbPolyline
 62
3
  6
CONTINUOUS
 90
2
 70
0
 43
0.0100000003
 10
1.6215752123
 20
2.7539026769
 10
1.6105752123
 20
2.7409026769
  0
LWPOLYLINE
  5
2CB
100
AcDbEntity
  8
SST_PHO
100
AcDbPolyline
 62
3
  6
CONTINUOUS
 90
2
 70
0
 43
0.0100000003
 10
1.6455752123
 20
2.6329026769
 10
1.6565752123
 20
2.6459026769
  0
LWPOLYLINE
  5
2CC
100
AcDbEntity
  8
SST_PHO
100
AcDbPolyline
 62
3
  6
CONTINUOUS
 90
2
 70
0
 43
0.0100000003
 10
1.6215752123
 20
3.0079026769
 10
1.5755752123
 20
2.9539026769
  0
LWPOLYLINE
  5
2CD
100
AcDbEntity
  8
SST_PHO
100
AcDbPolyline
 62
3
  6
CONTINUOUS
 90
2
 70
0
 43
0.0100000003
 10
1.6685752123
 20
2.7939026769
 10
1.6915752123
 20
2.8209026769
  0
LWPOLYLINE
  5
2CE
100
AcDbEntity
  8
SST_PHO
100
AcDbPolyline
 62
3
  6
CONTINUOUS
 90
2
 70
0
 43
0.0100000003
 10
1.7385752123
 20
2.7939026769
 10
1.7615752123
 20
2.8209026769
  0
LWPOLYLINE
  5
2CF
100
AcDbEntity
  8
SST_PHO
100
AcDbPolyline
 62
3
  6
CONTINUOUS
 90
2
 70
0
 43
0.0100000003
 10
1.6215752123
 20
2.6329026769
 10
1.5755752123
 20
2.5789026769
  0
LWPOLYLINE
  5
2D0
100
AcDbEntity
  8
SST_PHO
100
AcDbPolyline
 62
3
  6
CONTINUOUS
 90
2
 70
0
 43
0.0100000003
 10
1.7965752123
 20
3.0079026769
 10
1.8085752123
 20
3.0209026769
  0
LWPOLYLINE
  5
2D1
100
AcDbEntity
  8
SST_PHO
100
AcDbPolyline
 62
3
  6
CONTINUOUS
 90
2
 70
0
 43
0.0100000003
 10
1.6565752123
 20
2.0459026769
 10
1.6805752123
 20
2.0459026769
  0
LWPOLYLINE
  5
2D2
100
AcDbEntity
  8
SST_PHO
100
AcDbPolyline
 62
3
  6
CONTINUOUS
 90
2
 70
0
 43
0.0100000003
 10
1.7965752123
 20
2.0459026769
 10
1.8205752123
 20
2.0459026769
  0
LWPOLYLINE
  5
2D3
100
AcDbEntity
  8
SST_PHO
100
AcDbPolyline
 62
3
  6
CONTINUOUS
 90
2
 70
0
 43
0.0050000001
 10
1.9585752123
 20
2.1059026769
 10
1.4685752123
 20
2.1059026769
  0
LWPOLYLINE
  5
2D4
100
AcDbEntity
  8
SST_PHO
100
AcDbPolyline
 62
3
  6
CONTINUOUS
 90
2
 70
0
 43
0.0069999999
 10
1.9585752123
 20
2.1059026769
 10
2.4285752123
 20
2.1059026769
  0
LWPOLYLINE
  5
2D5
100
AcDbEntity
  8
SST_PHO
100
AcDbPolyline
 62
3
  6
CONTINUOUS
 90
2
 70
0
 43
0.0100000003
 10
1.5865752123
 20
2.1659026769
 10
1.6105752123
 20
2.1659026769
  0
LWPOLYLINE
  5
2D6
100
AcDbEntity
  8
SST_PHO
100
AcDbPolyline
 62
3
  6
CONTINUOUS
 90
2
 70
0
 43
0.0100000003
 10
1.6455752123
 20
2.2059026769
 10
1.6915752123
 20
2.2059026769
  0
LWPOLYLINE
  5
2D7
100
AcDbEntity
  8
SST_PHO
100
AcDbPolyline
 62
3
  6
CONTINUOUS
 90
2
 70
0
 43
0.0050000001
 10
1.8935752123
 20
2.3059026769
 10
1.4685752123
 20
2.3059026769
  0
LWPOLYLINE
  5
2D8
100
AcDbEntity
  8
SST_PHO
100
AcDbPolyline
 62
3
  6
CONTINUOUS
 90
2
 70
0
 43
0.0100000003
 10
1.5865752123
 20
2.3659026769
 10
1.6105752123
 20
2.3659026769
  0
LWPOLYLINE
  5
2D9
100
AcDbEntity
  8
SST_PHO
100
AcDbPolyline
 62
3
  6
CONTINUOUS
 90
2
 70
0
 43
0.0100000003
 10
1.6915752123
 20
2.5789026769
 10
1.6805752123
 20
2.5659026769
  0
LWPOLYLINE
  5
2DA
100
AcDbEntity
  8
SST_PHO
100
AcDbPolyline
 62
3
  6
CONTINUOUS
 90
2
 70
0
 43
0.0100000003
 10
1.6455752123
 20
2.0329026769
 10
1.6565752123
 20
2.0459026769
  0
LWPOLYLINE
  5
2DB
100
AcDbEntity
  8
SST_PHO
100
AcDbPolyline
 62
3
  6
CONTINUOUS
 90
2
 70
0
 43
0.0100000003
 10
1.5055752123
 20
1.8329026769
 10
1.5165752123
 20
1.8459026769
  0
LWPOLYLINE
  5
2DC
100
AcDbEntity
  8
SST_PHO
100
AcDbPolyline
 62
3
  6
CONTINUOUS
 90
2
 70
0
 43
0.0100000003
 10
1.5055752123
 20
2.3789026769
 10
1.5515752123
 20
2.4329026769
  0
LWPOLYLINE
  5
2DD
100
AcDbEntity
  8
SST_PHO
100
AcDbPolyline
 62
3
  6
CONTINUOUS
 90
2
 70
0
 43
0.0100000003
 10
1.5055752123
 20
2.1789026769
 10
1.5515752123
 20
2.2329026769
  0
LWPOLYLINE
  5
2DE
100
AcDbEntity
  8
SST_PHO
100
AcDbPolyline
 62
3
  6
CONTINUOUS
 90
2
 70
0
 43
0.0100000003
 10
1.6215752123
 20
2.0329026769
 10
1.5755752123
 20
1.9789026769
  0
LWPOLYLINE
  5
2DF
100
AcDbEntity
  8
SST_PHO
100
AcDbPolyline
 62
3
  6
CONTINUOUS
 90
2
 70
0
 43
0.0100000003
 10
1.7965752123
 20
2.8079026769
 10
1.8085752123
 20
2.8209026769
  0
LWPOLYLINE
  5
2E0
100
AcDbEntity
  8
SST_PHO
100
AcDbPolyline
 62
3
  6
CONTINUOUS
 90
2
 70
0
 43
0.0100000003
 10
1.5865752123
 20
2.4329026769
 10
1.5985752123
 20
2.4459026769
  0
LWPOLYLINE
  5
2E1
100
AcDbEntity
  8
SST_PHO
100
AcDbPolyline
 62
3
  6
CONTINUOUS
 90
2
 70
0
 43
0.0100000003
 10
1.7965752123
 20
2.6329026769
 10
1.8085752123
 20
2.6459026769
  0
LWPOLYLINE
  5
2E2
100
AcDbEntity
  8
SST_PHO
100
AcDbPolyline
 62
3
  6
CONTINUOUS
 90
2
 70
0
 43
0.0100000003
 10
1.5865752123
 20
2.2329026769
 10
1.5985752123
 20
2.2459026769
  0
LWPOLYLINE
  5
2E3
100
AcDbEntity
  8
SST_PHO
100
AcDbPolyline
 62
3
  6
CONTINUOUS
 90
2
 70
0
 43
0.0100000003
 10
1.6455752123
 20
2.4059026769
 10
1.6915752123
 20
2.4059026769
  0
LWPOLYLINE
  5
2E4
100
AcDbEntity
  8
SST_PHO
100
AcDbPolyline
 62
3
  6
CONTINUOUS
 90
2
 70
0
 43
0.0050000001
 10
1.8935752123
 20
2.5059026769
 10
1.4685752123
 20
2.5059026769
  0
LWPOLYLINE
  5
2E5
100
AcDbEntity
  8
SST_PHO
100
AcDbPolyline
 62
3
  6
CONTINUOUS
 90
2
 70
0
 43
0.0100000003
 10
1.6805752123
 20
2.5659026769
 10
1.6565752123
 20
2.5659026769
  0
LWPOLYLINE
  5
2E6
100
AcDbEntity
  8
SST_PHO
100
AcDbPolyline
 62
3
  6
CONTINUOUS
 90
2
 70
0
 43
0.0100000003
 10
1.7965752123
 20
2.5659026769
 10
1.8205752123
 20
2.5659026769
  0
LWPOLYLINE
  5
2E7
100
AcDbEntity
  8
SST_PHO
100
AcDbPolyline
 62
3
  6
CONTINUOUS
 90
2
 70
0
 43
0.0069999999
 10
1.9935752123
 20
2.6059026769
 10
1.8935752123
 20
2.6059026769
  0
LWPOLYLINE
  5
2E8
100
AcDbEntity
  8
SST_PHO
100
AcDbPolyline
 62
3
  6
CONTINUOUS
 90
2
 70
0
 43
0.0069999999
 10
1.4185752123
 20
2.6059026769
 10
1.3185752123
 20
2.6059026769
  0
LWPOLYLINE
  5
2E9
100
AcDbEntity
  8
SST_PHO
100
AcDbPolyline
 62
3
  6
CONTINUOUS
 90
2
 70
0
 43
0.0100000003
 10
1.6565752123
 20
2.6459026769
 10
1.6805752123
 20
2.6459026769
  0
LWPOLYLINE
  5
2EA
100
AcDbEntity
  8
SST_PHO
100
AcDbPolyline
 62
3
  6
CONTINUOUS
 90
2
 70
0
 43
0.0050000001
 10
1.8935752123
 20
2.7059026769
 10
1.4685752123
 20
2.7059026769
  0
LWPOLYLINE
  5
2EB
100
AcDbEntity
  8
SST_PHO
100
AcDbPolyline
 62
3
  6
CONTINUOUS
 90
2
 70
0
 43
0.0100000003
 10
1.6105752123
 20
2.7409026769
 10
1.5865752123
 20
2.7409026769
  0
LWPOLYLINE
  5
2EC
100
AcDbEntity
  8
SST_PHO
100
AcDbPolyline
 62
3
  6
CONTINUOUS
 90
2
 70
0
 43
0.0100000003
 10
1.5405752123
 20
2.7409026769
 10
1.5165752123
 20
2.7409026769
  0
LWPOLYLINE
  5
2ED
100
AcDbEntity
  8
SST_PHO
100
AcDbPolyline
 62
3
  6
CONTINUOUS
 90
2
 70
0
 43
0.0100000003
 10
1.7965752123
 20
2.7409026769
 10
1.8205752123
 20
2.7409026769
  0
LWPOLYLINE
  5
2EE
100
AcDbEntity
  8
SST_PHO
100
AcDbPolyline
 62
3
  6
CONTINUOUS
 90
2
 70
0
 43
0.0100000003
 10
1.6915752123
 20
1.9789026769
 10
1.6805752123
 20
1.9659026769
  0
LWPOLYLINE
  5
2EF
100
AcDbEntity
  8
SST_PHO
100
AcDbPolyline
 62
3
  6
CONTINUOUS
 90
2
 70
0
 43
0.0100000003
 10
1.5755752123
 20
1.8329026769
 10
1.5865752123
 20
1.8459026769
  0
LWPOLYLINE
  5
2F0
100
AcDbEntity
  8
SST_PHO
100
AcDbPolyline
 62
3
  6
CONTINUOUS
 90
2
 70
0
 43
0.0100000003
 10
1.5515752123
 20
1.7789026769
 10
1.5405752123
 20
1.7659026769
  0
LWPOLYLINE
  5
2F1
100
AcDbEntity
  8
SST_PHO
100
AcDbPolyline
 62
3
  6
CONTINUOUS
 90
2
 70
0
 43
0.0100000003
 10
1.7855752123
 20
2.0329026769
 10
1.7965752123
 20
2.0459026769
  0
LWPOLYLINE
  5
2F2
100
AcDbEntity
  8
SST_PHO
100
AcDbPolyline
 62
3
  6
CONTINUOUS
 90
2
 70
0
 43
0.0100000003
 10
1.6215752123
 20
1.7789026769
 10
1.6105752123
 20
1.7659026769
  0
LWPOLYLINE
  5
2F3
100
AcDbEntity
  8
SST_PHO
100
AcDbPolyline
 62
3
  6
CONTINUOUS
 90
2
 70
0
 43
0.0100000003
 10
1.7855752123
 20
1.8329026769
 10
1.7965752123
 20
1.8459026769
  0
LWPOLYLINE
  5
2F4
100
AcDbEntity
  8
SST_PHO
100
AcDbPolyline
 62
3
  6
CONTINUOUS
 90
2
 70
0
 43
0.0100000003
 10
1.6455752123
 20
1.6329026769
 10
1.6565752123
 20
1.6459026769
  0
LWPOLYLINE
  5
2F5
100
AcDbEntity
  8
SST_PHO
100
AcDbPolyline
 62
3
  6
CONTINUOUS
 90
2
 70
0
 43
0.0100000003
 10
1.6915752123
 20
1.5789026769
 10
1.6805752123
 20
1.5659026769
  0
LWPOLYLINE
  5
2F6
100
AcDbEntity
  8
SST_PHO
100
AcDbPolyline
 62
3
  6
CONTINUOUS
 90
2
 70
0
 43
0.0100000003
 10
1.5755752123
 20
1.4329026769
 10
1.5865752123
 20
1.4459026769
  0
LWPOLYLINE
  5
2F7
100
AcDbEntity
  8
SST_PHO
100
AcDbPolyline
 62
3
  6
CONTINUOUS
 90
2
 70
0
 43
0.0100000003
 10
1.7855752123
 20
1.6329026769
 10
1.7965752123
 20
1.6459026769
  0
LWPOLYLINE
  5
2F8
100
AcDbEntity
  8
SST_PHO
100
AcDbPolyline
 62
3
  6
CONTINUOUS
 90
2
 70
0
 43
0.0100000003
 10
1.6685752123
 20
1.8189026769
 10
1.6915752123
 20
1.8459026769
  0
LWPOLYLINE
  5
2F9
100
AcDbEntity
  8
SST_PHO
100
AcDbPolyline
 62
3
  6
CONTINUOUS
 90
2
 70
0
 43
0.0100000003
 10
1.7385752123
 20
1.8189026769
 10
1.7615752123
 20
1.8459026769
  0
LWPOLYLINE
  5
2FA
100
AcDbEntity
  8
SST_PHO
100
AcDbPolyline
 62
3
  6
CONTINUOUS
 90
2
 70
0
 43
0.0100000003
 10
1.6215752123
 20
1.6329026769
 10
1.5755752123
 20
1.5789026769
  0
LWPOLYLINE
  5
2FB
100
AcDbEntity
  8
SST_PHO
100
AcDbPolyline
 62
3
  6
CONTINUOUS
 90
2
 70
0
 43
0.0100000003
 10
1.5055752123
 20
1.3789026769
 10
1.5515752123
 20
1.4329026769
  0
LWPOLYLINE
  5
2FC
100
AcDbEntity
  8
SST_PHO
100
AcDbPolyline
 62
3
  6
CONTINUOUS
 90
2
 70
0
 43
0.0100000003
 10
1.8315752123
 20
2.0189026769
 10
1.7855752123
 20
1.9659026769
  0
LWPOLYLINE
  5
2FD
100
AcDbEntity
  8
SST_PHO
100
AcDbPolyline
 62
3
  6
CONTINUOUS
 90
2
 70
0
 43
0.0100000003
 10
1.8315752123
 20
1.8189026769
 10
1.7855752123
 20
1.7659026769
  0
LWPOLYLINE
  5
2FE
100
AcDbEntity
  8
SST_PHO
100
AcDbPolyline
 62
3
  6
CONTINUOUS
 90
2
 70
0
 43
0.0100000003
 10
1.5165752123
 20
2.8209026769
 10
1.5405752123
 20
2.8209026769
  0
LWPOLYLINE
  5
2FF
100
AcDbEntity
  8
SST_PHO
100
AcDbPolyline
 62
3
  6
CONTINUOUS
 90
2
 70
0
 43
0.0100000003
 10
1.5865752123
 20
2.8209026769
 10
1.6105752123
 20
2.8209026769
  0
LWPOLYLINE
  5
300
100
AcDbEntity
  8
SST_PHO
100
AcDbPolyline
 62
3
  6
CONTINUOUS
 90
2
 70
0
 43
0.0100000003
 10
1.3235752123
 20
2.8309026769
 10
1.4135752123
 20
2.8309026769
  0
LWPOLYLINE
  5
301
100
AcDbEntity
  8
SST_PHO
100
AcDbPolyline
 62
3
  6
CONTINUOUS
 90
2
 70
0
 43
0.0100000003
 10
1.8985752123
 20
2.8309026769
 10
1.9885752123
 20
2.8309026769
  0
LWPOLYLINE
  5
302
100
AcDbEntity
  8
SST_PHO
100
AcDbPolyline
 62
3
  6
CONTINUOUS
 90
2
 70
0
 43
0.0100000003
 10
1.9885752123
 20
2.8409026769
 10
1.8985752123
 20
2.8409026769
  0
LWPOLYLINE
  5
303
100
AcDbEntity
  8
SST_PHO
100
AcDbPolyline
 62
3
  6
CONTINUOUS
 90
2
 70
0
 43
0.0100000003
 10
1.4135752123
 20
2.8409026769
 10
1.3235752123
 20
2.8409026769
  0
LWPOLYLINE
  5
304
100
AcDbEntity
  8
SST_PHO
100
AcDbPolyline
 62
3
  6
CONTINUOUS
 90
2
 70
0
 43
0.0050000001
 10
1.8935752123
 20
2.9059026769
 10
1.4685752123
 20
2.9059026769
  0
LWPOLYLINE
  5
305
100
AcDbEntity
  8
SST_PHO
100
AcDbPolyline
 62
3
  6
CONTINUOUS
 90
2
 70
0
 43
0.0069999999
 10
1.3185752123
 20
2.9059026769
 10
1.4185752123
 20
2.9059026769
  0
LWPOLYLINE
  5
306
100
AcDbEntity
  8
SST_PHO
100
AcDbPolyline
 62
3
  6
CONTINUOUS
 90
2
 70
0
 43
0.0069999999
 10
1.8935752123
 20
2.9059026769
 10
1.9935752123
 20
2.9059026769
  0
LWPOLYLINE
  5
307
100
AcDbEntity
  8
SST_PHO
100
AcDbPolyline
 62
3
  6
CONTINUOUS
 90
2
 70
0
 43
0.0100000003
 10
1.6805752123
 20
2.9409026769
 10
1.6565752123
 20
2.9409026769
  0
LWPOLYLINE
  5
308
100
AcDbEntity
  8
SST_PHO
100
AcDbPolyline
 62
3
  6
CONTINUOUS
 90
2
 70
0
 43
0.0100000003
 10
1.7965752123
 20
2.9409026769
 10
1.8205752123
 20
2.9409026769
  0
LWPOLYLINE
  5
309
100
AcDbEntity
  8
SST_PHO
100
AcDbPolyline
 62
3
  6
CONTINUOUS
 90
2
 70
0
 43
0.0100000003
 10
1.6565752123
 20
3.0209026769
 10
1.6805752123
 20
3.0209026769
  0
LWPOLYLINE
  5
30A
100
AcDbEntity
  8
SST_PHO
100
AcDbPolyline
 62
3
  6
CONTINUOUS
 90
2
 70
0
 43
0.0069999999
 10
1.4185752123
 20
3.1059026769
 10
1.8185752123
 20
3.1059026769
  0
LWPOLYLINE
  5
30B
100
AcDbEntity
  8
SST_PHO
100
AcDbPolyline
 62
3
  6
CONTINUOUS
 90
2
 70
0
 43
0.0069999999
 10
1.9935752123
 20
3.1059026769
 10
2.4285752123
 20
3.1059026769
  0
LWPOLYLINE
  5
30C
100
AcDbEntity
  8
SST_PHO
100
AcDbPolyline
 62
3
  6
CONTINUOUS
 90
2
 70
0
 43
0.0100000003
 10
1.5755752123
 20
1.2329026769
 10
1.5865752123
 20
1.2459026769
  0
LWPOLYLINE
  5
30D
100
AcDbEntity
  8
SST_PHO
100
AcDbPolyline
 62
3
  6
CONTINUOUS
 90
2
 70
0
 43
0.0100000003
 10
1.5055752123
 20
1.1789026769
 10
1.5515752123
 20
1.2329026769
  0
LWPOLYLINE
  5
30E
100
AcDbEntity
  8
SST_PHO
100
AcDbPolyline
 62
3
  6
CONTINUOUS
 90
2
 70
0
 43
0.0100000003
 10
1.6215752123
 20
1.4189026769
 10
1.5755752123
 20
1.3659026769
  0
LWPOLYLINE
  5
30F
100
AcDbEntity
  8
SST_PHO
100
AcDbPolyline
 62
3
  6
CONTINUOUS
 90
2
 70
0
 43
0.0100000003
 10
1.8315752123
 20
1.6189026769
 10
1.7855752123
 20
1.5659026769
  0
LWPOLYLINE
  5
310
100
AcDbEntity
  8
SST_PHO
100
AcDbPolyline
 62
3
  6
CONTINUOUS
 90
2
 70
0
 43
0.0100000003
 10
1.6215752123
 20
1.2189026769
 10
1.5755752123
 20
1.1659026769
  0
LWPOLYLINE
  5
311
100
AcDbEntity
  8
SST_PHO
100
AcDbPolyline
 62
3
  6
CONTINUOUS
 90
2
 70
0
 43
0.0069999999
 10
1.9935752123
 20
3.2559026769
 10
1.8935752123
 20
3.2559026769
  0
LWPOLYLINE
  5
312
100
AcDbEntity
  8
SST_PHO
100
AcDbPolyline
 62
3
  6
CONTINUOUS
 90
2
 70
0
 43
0.0069999999
 10
1.4185752123
 20
3.2559026769
 10
1.3185752123
 20
3.2559026769
  0
LWPOLYLINE
  5
313
100
AcDbEntity
  8
SST_PHO
100
AcDbPolyline
 62
3
  6
CONTINUOUS
 90
2
 70
0
 43
0.0100000003
 10
1.3235752123
 20
3.3209026769
 10
1.4135752123
 20
3.3209026769
  0
LWPOLYLINE
  5
314
100
AcDbEntity
  8
SST_PHO
100
AcDbPolyline
 62
3
  6
CONTINUOUS
 90
2
 70
0
 43
0.0100000003
 10
1.8985752123
 20
3.3209026769
 10
1.9885752123
 20
3.3209026769
  0
LWPOLYLINE
  5
315
100
AcDbEntity
  8
SST_PHO
100
AcDbPolyline
 62
3
  6
CONTINUOUS
 90
2
 70
0
 43
0.0100000003
 10
1.9885752123
 20
3.3309026769
 10
1.8985752123
 20
3.3309026769
  0
LWPOLYLINE
  5
316
100
AcDbEntity
  8
SST_PHO
100
AcDbPolyline
 62
3
  6
CONTINUOUS
 90
2
 70
0
 43
0.0100000003
 10
1.4135752123
 20
3.3309026769
 10
1.3235752123
 20
3.3309026769
  0
LWPOLYLINE
  5
317
100
AcDbEntity
  8
SST_PHO
100
AcDbPolyline
 62
3
  6
CONTINUOUS
 90
2
 70
0
 43
0.0069999999
 10
1.3185752123
 20
3.5559026769
 10
1.4185752123
 20
3.5559026769
  0
LWPOLYLINE
  5
318
100
AcDbEntity
  8
SST_PHO
100
AcDbPolyline
 62
3
  6
CONTINUOUS
 90
2
 70
0
 43
0.0069999999
 10
1.8935752123
 20
3.5559026769
 10
1.9935752123
 20
3.5559026769
  0
LWPOLYLINE
  5
319
100
AcDbEntity
  8
SST_PHO
100
AcDbPolyline
 62
3
  6
CONTINUOUS
 90
2
 70
0
 43
0.0069999999
 10
2.3935752123
 20
3.7059026769
 10
1.9935752123
 20
3.7059026769
  0
LWPOLYLINE
  5
31A
100
AcDbEntity
  8
SST_PHO
100
AcDbPolyline
 62
3
  6
CONTINUOUS
 90
2
 70
0
 43
0.0069999999
 10
1.8185752123
 20
3.7059026769
 10
1.4185752123
 20
3.7059026769
  0
LWPOLYLINE
  5
31B
100
AcDbEntity
  8
SST_PHO
100
AcDbPolyline
 62
3
  6
CONTINUOUS
 90
2
 70
0
 43
0.0100000003
 10
1.2477152123
 20
3.7799226769
 10
2.4878652123
 20
3.7799226769
  0
CIRCLE
  5
31C
100
AcDbEntity
  8
DFN0102_DRL
100
AcDbCircle
 62
7
  6
CONTINUOUS
 10
2.3185452123
 20
1.9058726769
 40
0.0465
  0
CIRCLE
  5
31D
100
AcDbEntity
  8
DFN0102_DRL
100
AcDbCircle
 62
7
  6
CONTINUOUS
 10
1.6185452123
 20
3.4308726769
 40
0.0465
  0
CIRCLE
  5
31E
100
AcDbEntity
  8
DFP0102_DRL
100
AcDbCircle
 62
7
  6
CONTINUOUS
 10
2.1185452123
 20
1.4058726769
 40
0.031
  0
CIRCLE
  5
31F
100
AcDbEntity
  8
DFP0102_DRL
100
AcDbCircle
 62
7
  6
CONTINUOUS
 10
2.1185452123
 20
1.2058726769
 40
0.031
  0
CIRCLE
  5
320
100
AcDbEntity
  8
DFP0102_DRL
100
AcDbCircle
 62
7
  6
CONTINUOUS
 10
2.1185452123
 20
1.6058726769
 40
0.031
  0
CIRCLE
  5
321
100
AcDbEntity
  8
DFP0102_DRL
100
AcDbCircle
 62
7
  6
CONTINUOUS
 10
2.1185452123
 20
1.8058726769
 40
0.031
  0
CIRCLE
  5
322
100
AcDbEntity
  8
DFP0102_DRL
100
AcDbCircle
 62
7
  6
CONTINUOUS
 10
2.1185452123
 20
2.0058726769
 40
0.031
  0
CIRCLE
  5
323
100
AcDbEntity
  8
DFP0102_DRL
100
AcDbCircle
 62
7
  6
CONTINUOUS
 10
2.1685452123
 20
2.4058726769
 40
0.031
  0
CIRCLE
  5
324
100
AcDbEntity
  8
DFP0102_DRL
100
AcDbCircle
 62
7
  6
CONTINUOUS
 10
2.1685452123
 20
2.2058726769
 40
0.031
  0
CIRCLE
  5
325
100
AcDbEntity
  8
DFP0102_DRL
100
AcDbCircle
 62
7
  6
CONTINUOUS
 10
2.1685452123
 20
2.6058726769
 40
0.031
  0
CIRCLE
  5
326
100
AcDbEntity
  8
DFP0102_DRL
100
AcDbCircle
 62
7
  6
CONTINUOUS
 10
2.1685452123
 20
2.8058726769
 40
0.031
  0
CIRCLE
  5
327
100
AcDbEntity
  8
DFP0102_DRL
100
AcDbCircle
 62
7
  6
CONTINUOUS
 10
2.1685452123
 20
3.0058726769
 40
0.031
  0
CIRCLE
  5
328
100
AcDbEntity
  8
DFP0102_DRL
100
AcDbCircle
 62
7
  6
CONTINUOUS
 10
1.3685452123
 20
2.5058726769
 40
0.024
  0
CIRCLE
  5
329
100
AcDbEntity
  8
DFP0102_DRL
100
AcDbCircle
 62
7
  6
CONTINUOUS
 10
1.9435452123
 20
2.5058726769
 40
0.024
  0
CIRCLE
  5
32A
100
AcDbEntity
  8
DFP0102_DRL
100
AcDbCircle
 62
7
  6
CONTINUOUS
 10
1.9435452123
 20
3.0058726769
 40
0.024
  0
CIRCLE
  5
32B
100
AcDbEntity
  8
DFP0102_DRL
100
AcDbCircle
 62
7
  6
CONTINUOUS
 10
1.9435452123
 20
3.1558726769
 40
0.024
  0
CIRCLE
  5
32C
100
AcDbEntity
  8
DFP0102_DRL
100
AcDbCircle
 62
7
  6
CONTINUOUS
 10
1.3685452123
 20
3.0058726769
 40
0.024
  0
CIRCLE
  5
32D
100
AcDbEntity
  8
DFP0102_DRL
100
AcDbCircle
 62
7
  6
CONTINUOUS
 10
1.3685452123
 20
3.1558726769
 40
0.024
  0
CIRCLE
  5
32E
100
AcDbEntity
  8
DFP0102_DRL
100
AcDbCircle
 62
7
  6
CONTINUOUS
 10
1.3685452123
 20
3.6558726769
 40
0.024
  0
CIRCLE
  5
32F
100
AcDbEntity
  8
DFP0102_DRL
100
AcDbCircle
 62
7
  6
CONTINUOUS
 10
1.9435452123
 20
3.6558726769
 40
0.024
  0
CIRCLE
  5
330
100
AcDbEntity
  8
DFP0102_DRL
100
AcDbCircle
 62
7
  6
CONTINUOUS
 10
1.4685452123
 20
3.1558726769
 40
0.0175
  0
CIRCLE
  5
331
100
AcDbEntity
  8
DFP0102_DRL
100
AcDbCircle
 62
7
  6
CONTINUOUS
 10
1.7685452123
 20
3.1558726769
 40
0.0175
  0
CIRCLE
  5
332
100
AcDbEntity
  8
DFP0102_DRL
100
AcDbCircle
 62
7
  6
CONTINUOUS
 10
2.0435452123
 20
3.1558726769
 40
0.0175
  0
CIRCLE
  5
333
100
AcDbEntity
  8
DFP0102_DRL
100
AcDbCircle
 62
7
  6
CONTINUOUS
 10
2.3435452123
 20
3.1558726769
 40
0.0175
  0
CIRCLE
  5
334
100
AcDbEntity
  8
DFP0102_DRL
100
AcDbCircle
 62
7
  6
CONTINUOUS
 10
2.3435452123
 20
3.4558726769
 40
0.0175
  0
CIRCLE
  5
335
100
AcDbEntity
  8
DFP0102_DRL
100
AcDbCircle
 62
7
  6
CONTINUOUS
 10
2.3435452123
 20
3.6558726769
 40
0.0175
  0
CIRCLE
  5
336
100
AcDbEntity
  8
DFP0102_DRL
100
AcDbCircle
 62
7
  6
CONTINUOUS
 10
2.0435452123
 20
3.6558726769
 40
0.0175
  0
CIRCLE
  5
337
100
AcDbEntity
  8
DFP0102_DRL
100
AcDbCircle
 62
7
  6
CONTINUOUS
 10
1.7685452123
 20
3.4558726769
 40
0.0175
  0
CIRCLE
  5
338
100
AcDbEntity
  8
DFP0102_DRL
100
AcDbCircle
 62
7
  6
CONTINUOUS
 10
1.7685452123
 20
3.6558726769
 40
0.0175
  0
CIRCLE
  5
339
100
AcDbEntity
  8
DFP0102_DRL
100
AcDbCircle
 62
7
  6
CONTINUOUS
 10
1.4685452123
 20
3.6558726769
 40
0.0175
  0
ENDSEC
  0
SECTION
  2
OBJECTS
  0
DICTIONARY
  5
C
100
AcDbDictionary
280
0
281
1
  3
ACAD_GROUP
350
D
  3
ACAD_MLINESTYLE
350
17
  3
ACAD_LAYOUT
350
1A
  3
ACAD_PLOTSETTINGS
350
19
  3
ACAD_PLOTSTYLENAME
350
E
  0
DICTIONARY
  5
D
102
{ACAD_REACTORS
330
C
102
}
100
AcDbDictionary
280
0
281
1
  0
ACDBDICTIONARYWDFLT
  5
E
102
{ACAD_REACTORS
330
C
102
}
100
AcDbDictionary
281
1
  3
Normal
350
F
100
AcDbDictionaryWithDefault
340
F
  0
DICTIONARY
  5
17
102
{ACAD_REACTORS
330
C
102
}
100
AcDbDictionary
280
0
281
1
  3
Standard
350
18
  0
DICTIONARY
  5
19
102
{ACAD_REACTORS
330
C
102
}
100
AcDbDictionary
281
1
  0
DICTIONARY
  5
1A
102
{ACAD_REACTORS
330
C
102
}
100
AcDbDictionary
281
1
  3
Model
350
33A
  3
Layout1
350
33B
  0
ACDBPLACEHOLDER
  5
F
102
{ACAD_REACTORS
330
E
102
}
  0
MLINESTYLE
  5
18
102
{ACAD_REACTORS
330
17
102
}
100
AcDbMlineStyle
  2
STANDARD
 70
0
  3

 62
256
 51
90.0
 52
90.0
 71
2
 49
0.5
 62
256
  6
BYLAYER
 49
-0.5
 62
256
  6
BYLAYER
  0
LAYOUT
  5
33A
102
{ACAD_REACTORS
330
1A
102
}
100
AcDbPlotSettings
  1

  2
none_device
  4
ANSI_A_(11.00_x_8.50_Inches)
  6

 40
0.0
 41
0.0
 42
0.0
 43
0.0
 44
279.4
 45
215.9
 46
0.0
 47
0.0
 48
0.0
 49
0.0
140
0.0
141
0.0
142
1.0
143
1.0
 70
1024
 72
0
 73
0
 74
0
  7

 75
0
147
1.0
148
0.0
149
0.0
100
AcDbLayout
  1
Model
 70
0
 71
0
 10
0.0
 20
0.0
 11
11.0
 21
8.5
 12
0.0
 22
0.0
 32
0.0
 14
0.0
 24
0.0
 34
0.0
 15
0.0
 25
0.0
 35
0.0
146
0.0
 13
0.0
 23
0.0
 33
0.0
 16
1.0
 26
0.0
 36
0.0
 17
0.0
 27
1.0
 37
0.0
 76
0
330
206
345
0
346
0
  0
LAYOUT
  5
33B
102
{ACAD_REACTORS
330
1A
102
}
100
AcDbPlotSettings
  1

  2
none_device
  4
ANSI_A_(11.00_x_8.50_Inches)
  6

 40
0.0
 41
0.0
 42
0.0
 43
0.0
 44
279.4
 45
215.9
 46
0.0
 47
0.0
 48
0.0
 49
0.0
140
0.0
141
0.0
142
1.0
143
1.0
 70
0
 72
0
 73
0
 74
0
  7

 75
0
147
1.0
148
0.0
149
0.0
100
AcDbLayout
  1
Layout1
 70
0
 71
1
 10
0.0
 20
0.0
 11
11.0
 21
8.5
 12
0.0
 22
0.0
 32
0.0
 14
0.0
 24
0.0
 34
0.0
 15
0.0
 25
0.0
 35
0.0
146
0.0
 13
0.0
 23
0.0
 33
0.0
 16
1.0
 26
0.0
 36
0.0
 17
0.0
 27
1.0
 37
0.0
 76
0
330
207
345
0
346
0
  0
ENDSEC
  0
EOF
